osu file format v13

[General]
AudioFilename: zetsubouseiherochiyouyaku.mp3
AudioLeadIn: 2000
PreviewTime: 56076
Countdown: 0
SampleSet: None
StackLeniency: 0.3
Mode: 3
LetterboxInBreaks: 0
SpecialStyle: 0
WidescreenStoryboard: 1

[Editor]
DistanceSpacing: 1.4
BeatDivisor: 4
GridSize: 8
TimelineZoom: 3.099999

[Metadata]
Title:Anime Endings Madness P.2
TitleUnicode:Anime Endings Madness P.2
Artist:FX
ArtistUnicode:FX
Creator:[FX] AEM
Version:Zetsubousei Hero Chiryouyaku [FX]
Source:
Tags:ending
BeatmapID:625281
BeatmapSetID:275629

[Difficulty]
HPDrainRate:8
CircleSize:4
OverallDifficulty:8
ApproachRate:0
SliderMultiplier:1.6
SliderTickRate:1

[Events]
//Background and Video events
//Break Periods
//Storyboard Layer 0 (Background)
//Storyboard Layer 1 (Fail)
//Storyboard Layer 2 (Pass)
//Storyboard Layer 3 (Foreground)
//Storyboard Sound Samples

[TimingPoints]
-401,292.682926829268,4,2,0,20,1,0

[HitObjects]
192,192,623,5,0,0:0:0:0:
448,192,623,128,0,916:0:0:0:0:
192,192,769,1,0,0:0:0:0:
320,192,916,1,0,0:0:0:0:
192,192,1062,1,0,0:0:0:0:
64,192,1062,1,0,0:0:0:0:
448,192,1208,1,0,0:0:0:0:
320,192,1355,1,0,0:0:0:0:
64,192,1355,1,0,0:0:0:0:
192,192,1501,1,0,0:0:0:0:
320,192,1647,1,0,0:0:0:0:
448,192,1647,1,0,0:0:0:0:
192,192,1794,1,0,0:0:0:0:
192,192,1940,1,0,0:0:0:0:
448,192,2086,1,0,0:0:0:0:
64,192,2233,1,0,0:0:0:0:
192,192,2233,1,0,0:0:0:0:
448,192,2379,1,0,0:0:0:0:
320,192,2525,1,0,0:0:0:0:
64,192,2525,1,0,0:0:0:0:
192,192,2672,1,0,0:0:0:0:
320,192,2818,1,0,0:0:0:0:
448,192,2818,1,0,0:0:0:0:
64,192,2964,1,0,0:0:0:0:
64,192,3111,1,0,0:0:0:0:
448,192,3257,1,0,0:0:0:0:
320,192,3403,1,0,0:0:0:0:
192,192,3403,1,0,0:0:0:0:
448,192,3550,1,0,0:0:0:0:
320,192,3696,1,0,0:0:0:0:
64,192,3696,1,0,0:0:0:0:
192,192,3842,1,0,0:0:0:0:
448,192,3989,1,0,0:0:0:0:
320,192,3989,1,0,0:0:0:0:
192,192,4135,1,0,0:0:0:0:
192,192,4281,1,0,0:0:0:0:
448,192,4428,1,0,0:0:0:0:
320,192,4574,1,0,0:0:0:0:
64,192,4574,1,0,0:0:0:0:
448,192,4720,1,0,0:0:0:0:
192,192,4867,1,0,0:0:0:0:
320,192,4867,1,0,0:0:0:0:
192,192,5013,1,0,0:0:0:0:
64,192,5013,128,0,5306:0:0:0:0:
448,192,5159,1,0,0:0:0:0:
320,192,5306,128,0,5598:0:0:0:0:
64,192,5598,1,0,0:0:0:0:
192,192,5598,1,0,0:0:0:0:
448,192,5745,1,0,0:0:0:0:
320,192,5891,1,0,0:0:0:0:
64,192,5891,1,0,0:0:0:0:
448,192,6038,1,0,0:0:0:0:
320,192,6184,1,0,0:0:0:0:
64,192,6184,1,0,0:0:0:0:
192,192,6330,1,0,0:0:0:0:
448,192,6477,128,0,6769:0:0:0:0:
320,192,6477,1,0,0:0:0:0:
64,192,6769,1,0,0:0:0:0:
192,192,6769,1,0,0:0:0:0:
448,192,6916,1,0,0:0:0:0:
320,192,7062,1,0,0:0:0:0:
64,192,7062,1,0,0:0:0:0:
448,192,7208,1,0,0:0:0:0:
320,192,7355,1,0,0:0:0:0:
64,192,7355,1,0,0:0:0:0:
192,192,7501,1,0,0:0:0:0:
320,192,7647,1,0,0:0:0:0:
448,192,7647,128,0,7940:0:0:0:0:
64,192,7940,1,0,0:0:0:0:
192,192,7940,1,0,0:0:0:0:
448,192,8086,1,0,0:0:0:0:
320,192,8233,1,0,0:0:0:0:
64,192,8233,1,0,0:0:0:0:
448,192,8379,1,0,0:0:0:0:
320,192,8525,1,0,0:0:0:0:
64,192,8525,1,0,0:0:0:0:
192,192,8672,1,0,0:0:0:0:
448,192,8818,1,0,0:0:0:0:
320,192,8891,1,0,0:0:0:0:
64,192,8964,1,0,0:0:0:0:
192,192,9038,1,0,0:0:0:0:
320,192,9111,1,0,0:0:0:0:
448,192,9111,1,0,0:0:0:0:
64,192,9159,1,0,0:0:0:0:
192,192,9208,1,0,0:0:0:0:
448,192,9257,1,0,0:0:0:0:
64,192,9257,1,0,0:0:0:0:
320,192,9257,1,0,0:0:0:0:
64,192,9550,1,0,0:0:0:0:
448,192,9550,1,0,0:0:0:0:
448,192,9623,1,0,0:0:0:0:
64,192,9623,1,0,0:0:0:0:
64,192,9696,1,0,0:0:0:0:
448,192,9696,1,0,0:0:0:0:
448,192,9769,1,0,0:0:0:0:
64,192,9769,1,0,0:0:0:0:
64,192,9842,1,0,0:0:0:0:
448,192,9842,1,0,0:0:0:0:
64,192,9916,1,0,0:0:0:0:
320,192,9989,128,0,10281:0:0:0:0:
448,192,9989,128,0,10281:0:0:0:0:
192,192,9989,1,0,0:0:0:0:
64,192,10281,1,0,0:0:0:0:
192,192,10281,1,0,0:0:0:0:
192,192,10428,1,0,0:0:0:0:
320,192,10428,1,0,0:0:0:0:
448,192,10428,1,0,0:0:0:0:
64,192,10574,1,0,0:0:0:0:
192,192,10574,1,0,0:0:0:0:
320,192,10720,1,0,0:0:0:0:
448,192,10720,1,0,0:0:0:0:
64,192,10794,1,0,0:0:0:0:
192,192,10867,1,0,0:0:0:0:
320,192,10867,1,0,0:0:0:0:
448,192,10940,1,0,0:0:0:0:
192,192,11013,1,0,0:0:0:0:
64,192,11013,1,0,0:0:0:0:
320,192,11086,1,0,0:0:0:0:
192,192,11159,1,0,0:0:0:0:
64,192,11159,128,0,11452:0:0:0:0:
448,192,11159,128,0,11452:0:0:0:0:
192,192,11452,1,0,0:0:0:0:
320,192,11452,1,0,0:0:0:0:
320,192,11598,1,0,0:0:0:0:
64,192,11598,1,0,0:0:0:0:
448,192,11598,1,0,0:0:0:0:
192,192,11745,1,0,0:0:0:0:
320,192,11745,1,0,0:0:0:0:
320,192,11891,1,0,0:0:0:0:
448,192,11891,1,0,0:0:0:0:
64,192,11964,1,0,0:0:0:0:
320,192,12038,1,0,0:0:0:0:
192,192,12038,1,0,0:0:0:0:
448,192,12111,1,0,0:0:0:0:
192,192,12184,1,0,0:0:0:0:
64,192,12184,1,0,0:0:0:0:
320,192,12184,1,0,0:0:0:0:
192,192,12330,1,0,0:0:0:0:
320,192,12330,128,0,12623:0:0:0:0:
448,192,12330,128,0,12623:0:0:0:0:
192,192,12623,1,0,0:0:0:0:
64,192,12623,1,0,0:0:0:0:
192,192,12769,1,0,0:0:0:0:
320,192,12769,1,0,0:0:0:0:
448,192,12769,1,0,0:0:0:0:
64,192,12916,1,0,0:0:0:0:
320,192,13062,1,0,0:0:0:0:
448,192,13062,1,0,0:0:0:0:
64,192,13135,1,0,0:0:0:0:
192,192,13135,1,0,0:0:0:0:
320,192,13208,1,0,0:0:0:0:
448,192,13208,1,0,0:0:0:0:
192,192,13281,1,0,0:0:0:0:
320,192,13355,1,0,0:0:0:0:
448,192,13355,1,0,0:0:0:0:
64,192,13355,1,0,0:0:0:0:
192,192,13501,1,0,0:0:0:0:
64,192,13501,128,0,13794:0:0:0:0:
448,192,13501,128,0,13794:0:0:0:0:
192,192,13794,1,0,0:0:0:0:
320,192,13794,1,0,0:0:0:0:
64,192,13867,1,0,0:0:0:0:
320,192,13940,1,0,0:0:0:0:
448,192,13940,1,0,0:0:0:0:
192,192,13940,1,0,0:0:0:0:
64,192,14013,1,0,0:0:0:0:
192,192,14086,1,0,0:0:0:0:
320,192,14086,1,0,0:0:0:0:
448,192,14159,1,0,0:0:0:0:
64,192,14233,1,0,0:0:0:0:
192,192,14233,1,0,0:0:0:0:
320,192,14233,1,0,0:0:0:0:
448,192,14306,1,0,0:0:0:0:
192,192,14379,1,0,0:0:0:0:
320,192,14379,1,0,0:0:0:0:
64,192,14452,1,0,0:0:0:0:
192,192,14525,1,0,0:0:0:0:
448,192,14525,1,0,0:0:0:0:
320,192,14525,1,0,0:0:0:0:
64,192,14672,1,0,0:0:0:0:
448,192,14672,1,0,0:0:0:0:
320,192,14672,128,0,14964:0:0:0:0:
192,192,14672,128,0,14964:0:0:0:0:
64,192,14964,1,0,0:0:0:0:
448,192,14964,1,0,0:0:0:0:
320,192,15111,1,0,0:0:0:0:
64,192,15111,1,0,0:0:0:0:
192,192,15111,1,0,0:0:0:0:
320,192,15257,1,0,0:0:0:0:
448,192,15257,1,0,0:0:0:0:
192,192,15403,1,0,0:0:0:0:
64,192,15403,1,0,0:0:0:0:
320,192,15477,1,0,0:0:0:0:
64,192,15550,1,0,0:0:0:0:
448,192,15550,1,0,0:0:0:0:
320,192,15623,1,0,0:0:0:0:
448,192,15696,1,0,0:0:0:0:
64,192,15696,1,0,0:0:0:0:
192,192,15696,1,0,0:0:0:0:
320,192,15842,1,0,0:0:0:0:
448,192,15842,1,0,0:0:0:0:
64,192,15842,128,0,16135:0:0:0:0:
192,192,15842,128,0,16135:0:0:0:0:
320,192,16135,1,0,0:0:0:0:
448,192,16135,1,0,0:0:0:0:
320,192,16281,1,0,0:0:0:0:
192,192,16281,1,0,0:0:0:0:
64,192,16281,1,0,0:0:0:0:
320,192,16428,1,0,0:0:0:0:
448,192,16428,1,0,0:0:0:0:
192,192,16574,1,0,0:0:0:0:
448,192,16574,1,0,0:0:0:0:
320,192,16647,1,0,0:0:0:0:
192,192,16720,1,0,0:0:0:0:
64,192,16720,1,0,0:0:0:0:
320,192,16794,1,0,0:0:0:0:
192,192,16867,1,0,0:0:0:0:
64,192,16867,1,0,0:0:0:0:
448,192,16867,1,0,0:0:0:0:
192,192,17013,1,0,0:0:0:0:
448,192,17013,1,0,0:0:0:0:
320,192,17013,128,0,17306:0:0:0:0:
64,192,17013,128,0,17306:0:0:0:0:
192,192,17306,1,0,0:0:0:0:
448,192,17306,1,0,0:0:0:0:
320,192,17452,1,0,0:0:0:0:
192,192,17452,1,0,0:0:0:0:
64,192,17452,1,0,0:0:0:0:
192,192,17598,1,0,0:0:0:0:
448,192,17598,1,0,0:0:0:0:
320,192,17745,1,0,0:0:0:0:
448,192,17745,1,0,0:0:0:0:
64,192,17818,1,0,0:0:0:0:
192,192,17891,1,0,0:0:0:0:
320,192,17891,1,0,0:0:0:0:
448,192,17964,1,0,0:0:0:0:
320,192,18038,1,0,0:0:0:0:
192,192,18038,1,0,0:0:0:0:
64,192,18038,1,0,0:0:0:0:
320,192,18184,1,0,0:0:0:0:
64,192,18184,1,0,0:0:0:0:
192,192,18184,128,0,18477:0:0:0:0:
448,192,18184,128,0,18477:0:0:0:0:
64,192,18477,1,0,0:0:0:0:
320,192,18477,1,0,0:0:0:0:
192,192,18550,1,0,0:0:0:0:
320,192,18623,1,0,0:0:0:0:
64,192,18623,1,0,0:0:0:0:
448,192,18696,1,0,0:0:0:0:
192,192,18769,1,0,0:0:0:0:
64,192,18769,1,0,0:0:0:0:
320,192,18769,1,0,0:0:0:0:
448,192,18842,1,0,0:0:0:0:
192,192,18916,1,0,0:0:0:0:
64,192,18916,1,0,0:0:0:0:
448,192,18989,1,0,0:0:0:0:
192,192,19062,1,0,0:0:0:0:
64,192,19062,1,0,0:0:0:0:
64,192,19135,1,0,0:0:0:0:
192,192,19135,1,0,0:0:0:0:
192,192,19208,1,0,0:0:0:0:
64,192,19208,1,0,0:0:0:0:
64,192,19281,1,0,0:0:0:0:
192,192,19281,1,0,0:0:0:0:
320,192,19355,1,0,0:0:0:0:
448,192,19355,128,0,19647:0:0:0:0:
192,192,19647,1,0,0:0:0:0:
64,192,19647,1,0,0:0:0:0:
448,192,19794,1,0,0:0:0:0:
320,192,19794,1,0,0:0:0:0:
192,192,19794,1,0,0:0:0:0:
64,192,19940,1,0,0:0:0:0:
192,192,19940,1,0,0:0:0:0:
192,192,20086,1,0,0:0:0:0:
320,192,20086,1,0,0:0:0:0:
448,192,20086,1,0,0:0:0:0:
192,192,20233,1,0,0:0:0:0:
64,192,20233,1,0,0:0:0:0:
320,192,20306,1,0,0:0:0:0:
448,192,20379,1,0,0:0:0:0:
192,192,20379,1,0,0:0:0:0:
64,192,20379,1,0,0:0:0:0:
320,192,20525,1,0,0:0:0:0:
448,192,20525,1,0,0:0:0:0:
64,192,20672,1,0,0:0:0:0:
192,192,20672,1,0,0:0:0:0:
320,192,20672,1,0,0:0:0:0:
320,192,20818,1,0,0:0:0:0:
448,192,20818,1,0,0:0:0:0:
192,192,20818,1,0,0:0:0:0:
320,192,20964,1,0,0:0:0:0:
192,192,20964,1,0,0:0:0:0:
64,192,20964,1,0,0:0:0:0:
192,192,21111,1,0,0:0:0:0:
320,192,21111,1,0,0:0:0:0:
448,192,21111,1,0,0:0:0:0:
64,192,21257,1,0,0:0:0:0:
192,192,21257,1,0,0:0:0:0:
320,192,21257,1,0,0:0:0:0:
448,192,21257,1,0,0:0:0:0:
192,192,21403,1,0,0:0:0:0:
320,192,21403,1,0,0:0:0:0:
64,192,21403,1,0,0:0:0:0:
192,192,21550,1,0,0:0:0:0:
448,192,21550,1,0,0:0:0:0:
320,192,21550,1,0,0:0:0:0:
64,192,21696,128,0,21989:0:0:0:0:
192,192,21696,128,0,21989:0:0:0:0:
448,192,21696,1,0,0:0:0:0:
320,192,21696,1,0,0:0:0:0:
320,192,21989,1,0,0:0:0:0:
448,192,21989,1,0,0:0:0:0:
320,192,22135,1,0,0:0:0:0:
192,192,22135,1,0,0:0:0:0:
64,192,22135,1,0,0:0:0:0:
320,192,22281,1,0,0:0:0:0:
448,192,22281,1,0,0:0:0:0:
320,192,22428,1,0,0:0:0:0:
192,192,22428,1,0,0:0:0:0:
64,192,22428,1,0,0:0:0:0:
192,192,22574,1,0,0:0:0:0:
64,192,22574,1,0,0:0:0:0:
320,192,22720,1,0,0:0:0:0:
192,192,22720,1,0,0:0:0:0:
448,192,22720,1,0,0:0:0:0:
64,192,22867,1,0,0:0:0:0:
192,192,22867,1,0,0:0:0:0:
192,192,23013,1,0,0:0:0:0:
320,192,23013,1,0,0:0:0:0:
448,192,23013,1,0,0:0:0:0:
64,192,23159,1,0,0:0:0:0:
320,192,23159,1,0,0:0:0:0:
192,192,23306,1,0,0:0:0:0:
320,192,23306,1,0,0:0:0:0:
448,192,23306,1,0,0:0:0:0:
64,192,23306,1,0,0:0:0:0:
192,192,23452,1,0,0:0:0:0:
448,192,23452,1,0,0:0:0:0:
320,192,23598,1,0,0:0:0:0:
192,192,23598,1,0,0:0:0:0:
64,192,23598,1,0,0:0:0:0:
320,192,23745,1,0,0:0:0:0:
448,192,23745,1,0,0:0:0:0:
448,192,23818,1,0,0:0:0:0:
320,192,23818,1,0,0:0:0:0:
64,192,23891,1,0,0:0:0:0:
192,192,23891,1,0,0:0:0:0:
64,192,23964,1,0,0:0:0:0:
192,192,24038,1,0,0:0:0:0:
320,192,24038,128,0,24330:0:0:0:0:
448,192,24038,128,0,24330:0:0:0:0:
64,192,24330,1,0,0:0:0:0:
192,192,24330,1,0,0:0:0:0:
192,192,24477,1,0,0:0:0:0:
320,192,24477,1,0,0:0:0:0:
448,192,24477,1,0,0:0:0:0:
64,192,24623,1,0,0:0:0:0:
192,192,24623,1,0,0:0:0:0:
192,192,24769,1,0,0:0:0:0:
320,192,24769,1,0,0:0:0:0:
448,192,24769,1,0,0:0:0:0:
64,192,24916,1,0,0:0:0:0:
192,192,24916,1,0,0:0:0:0:
192,192,25062,1,0,0:0:0:0:
320,192,25062,1,0,0:0:0:0:
448,192,25062,1,0,0:0:0:0:
320,192,25208,1,0,0:0:0:0:
448,192,25208,1,0,0:0:0:0:
320,192,25355,1,0,0:0:0:0:
192,192,25355,1,0,0:0:0:0:
64,192,25355,1,0,0:0:0:0:
320,192,25501,1,0,0:0:0:0:
64,192,25501,1,0,0:0:0:0:
320,192,25647,1,0,0:0:0:0:
192,192,25647,1,0,0:0:0:0:
448,192,25647,1,0,0:0:0:0:
448,192,25794,1,0,0:0:0:0:
192,192,25794,1,0,0:0:0:0:
320,192,25940,1,0,0:0:0:0:
192,192,25940,1,0,0:0:0:0:
64,192,25940,1,0,0:0:0:0:
448,192,25940,1,0,0:0:0:0:
64,192,26086,1,0,0:0:0:0:
320,192,26086,1,0,0:0:0:0:
192,192,26233,1,0,0:0:0:0:
320,192,26233,1,0,0:0:0:0:
448,192,26233,1,0,0:0:0:0:
320,192,26379,1,0,0:0:0:0:
192,192,26379,1,0,0:0:0:0:
448,192,26379,128,0,26672:0:0:0:0:
64,192,26379,128,0,26672:0:0:0:0:
192,192,26672,1,0,0:0:0:0:
320,192,26672,1,0,0:0:0:0:
320,192,26818,1,0,0:0:0:0:
64,192,26818,1,0,0:0:0:0:
448,192,26818,1,0,0:0:0:0:
192,192,26964,1,0,0:0:0:0:
320,192,26964,1,0,0:0:0:0:
320,192,27111,1,0,0:0:0:0:
64,192,27111,1,0,0:0:0:0:
448,192,27111,1,0,0:0:0:0:
192,192,27257,1,0,0:0:0:0:
320,192,27257,1,0,0:0:0:0:
320,192,27403,1,0,0:0:0:0:
64,192,27403,1,0,0:0:0:0:
448,192,27403,1,0,0:0:0:0:
192,192,27477,1,0,0:0:0:0:
320,192,27550,1,0,0:0:0:0:
448,192,27550,1,0,0:0:0:0:
64,192,27696,1,0,0:0:0:0:
192,192,27696,1,0,0:0:0:0:
320,192,27696,1,0,0:0:0:0:
448,192,27769,1,0,0:0:0:0:
320,192,27842,1,0,0:0:0:0:
192,192,27916,1,0,0:0:0:0:
64,192,27989,1,0,0:0:0:0:
320,192,27989,1,0,0:0:0:0:
448,192,27989,1,0,0:0:0:0:
192,192,28062,1,0,0:0:0:0:
320,192,28135,1,0,0:0:0:0:
448,192,28135,1,0,0:0:0:0:
64,192,28208,1,0,0:0:0:0:
192,192,28281,1,0,0:0:0:0:
320,192,28281,1,0,0:0:0:0:
448,192,28281,1,0,0:0:0:0:
64,192,28428,1,0,0:0:0:0:
320,192,28428,1,0,0:0:0:0:
320,192,28574,1,0,0:0:0:0:
192,192,28574,1,0,0:0:0:0:
448,192,28574,1,0,0:0:0:0:
320,192,28720,1,0,0:0:0:0:
192,192,28720,1,0,0:0:0:0:
64,192,28720,128,0,29159:0:0:0:0:
320,192,29159,1,0,0:0:0:0:
448,192,29159,1,0,0:0:0:0:
192,192,29306,1,0,0:0:0:0:
320,192,29452,1,0,0:0:0:0:
448,192,29452,1,0,0:0:0:0:
320,192,29745,1,0,0:0:0:0:
448,192,29745,1,0,0:0:0:0:
64,192,29891,1,0,0:0:0:0:
320,192,30038,1,0,0:0:0:0:
448,192,30038,1,0,0:0:0:0:
320,192,30330,1,0,0:0:0:0:
448,192,30330,1,0,0:0:0:0:
192,192,30477,1,0,0:0:0:0:
320,192,30623,1,0,0:0:0:0:
448,192,30623,1,0,0:0:0:0:
448,192,30916,1,0,0:0:0:0:
192,192,31062,1,0,0:0:0:0:
64,192,31062,1,0,0:0:0:0:
320,192,31062,1,0,0:0:0:0:
448,192,31208,1,0,0:0:0:0:
192,192,31355,1,0,0:0:0:0:
64,192,31355,1,0,0:0:0:0:
320,192,31355,1,0,0:0:0:0:
320,192,31501,1,0,0:0:0:0:
448,192,31501,1,0,0:0:0:0:
64,192,31647,1,0,0:0:0:0:
320,192,31794,1,0,0:0:0:0:
448,192,31794,1,0,0:0:0:0:
320,192,32086,1,0,0:0:0:0:
448,192,32086,1,0,0:0:0:0:
64,192,32233,1,0,0:0:0:0:
192,192,32306,1,0,0:0:0:0:
320,192,32379,1,0,0:0:0:0:
448,192,32379,1,0,0:0:0:0:
320,192,32672,1,0,0:0:0:0:
448,192,32672,1,0,0:0:0:0:
192,192,32818,1,0,0:0:0:0:
64,192,32818,1,0,0:0:0:0:
320,192,32964,1,0,0:0:0:0:
448,192,32964,1,0,0:0:0:0:
192,192,33111,1,0,0:0:0:0:
64,192,33257,1,0,0:0:0:0:
320,192,33403,1,0,0:0:0:0:
192,192,33403,1,0,0:0:0:0:
448,192,33403,1,0,0:0:0:0:
448,192,33550,1,0,0:0:0:0:
64,192,33696,1,0,0:0:0:0:
192,192,33696,1,0,0:0:0:0:
320,192,33696,1,0,0:0:0:0:
320,192,33842,1,0,0:0:0:0:
448,192,33842,1,0,0:0:0:0:
192,192,33989,1,0,0:0:0:0:
64,192,33989,1,0,0:0:0:0:
320,192,34135,1,0,0:0:0:0:
448,192,34135,1,0,0:0:0:0:
320,192,34428,1,0,0:0:0:0:
448,192,34428,1,0,0:0:0:0:
64,192,34574,1,0,0:0:0:0:
320,192,34720,1,0,0:0:0:0:
448,192,34720,1,0,0:0:0:0:
192,192,35013,1,0,0:0:0:0:
448,192,35013,1,0,0:0:0:0:
448,192,35306,1,0,0:0:0:0:
320,192,35306,1,0,0:0:0:0:
448,192,35598,1,0,0:0:0:0:
64,192,35745,1,0,0:0:0:0:
320,192,35745,1,0,0:0:0:0:
192,192,35745,1,0,0:0:0:0:
448,192,35891,1,0,0:0:0:0:
320,192,36038,1,0,0:0:0:0:
192,192,36038,1,0,0:0:0:0:
64,192,36038,1,0,0:0:0:0:
320,192,36184,1,0,0:0:0:0:
448,192,36184,1,0,0:0:0:0:
320,192,36477,1,0,0:0:0:0:
448,192,36477,1,0,0:0:0:0:
64,192,36623,1,0,0:0:0:0:
320,192,36769,1,0,0:0:0:0:
448,192,36769,1,0,0:0:0:0:
320,192,36916,1,0,0:0:0:0:
192,192,36916,1,0,0:0:0:0:
64,192,36916,128,0,37208:0:0:0:0:
448,192,37208,1,0,0:0:0:0:
448,192,37281,1,0,0:0:0:0:
320,192,37355,1,0,0:0:0:0:
192,192,37355,1,0,0:0:0:0:
64,192,37501,1,0,0:0:0:0:
64,192,37574,1,0,0:0:0:0:
192,192,37647,1,0,0:0:0:0:
320,192,37647,1,0,0:0:0:0:
448,192,37720,1,0,0:0:0:0:
192,192,37794,1,0,0:0:0:0:
320,192,37867,1,0,0:0:0:0:
64,192,37940,1,0,0:0:0:0:
320,192,38013,1,0,0:0:0:0:
448,192,38086,1,0,0:0:0:0:
192,192,38086,1,0,0:0:0:0:
64,192,38086,128,0,38379:0:0:0:0:
320,192,38379,1,0,0:0:0:0:
448,192,38379,1,0,0:0:0:0:
320,192,38525,1,0,0:0:0:0:
192,192,38525,1,0,0:0:0:0:
64,192,38525,1,0,0:0:0:0:
192,192,38672,1,0,0:0:0:0:
448,192,38672,1,0,0:0:0:0:
320,192,38818,1,0,0:0:0:0:
64,192,38818,1,0,0:0:0:0:
64,192,38964,1,0,0:0:0:0:
448,192,38964,1,0,0:0:0:0:
192,192,39111,1,0,0:0:0:0:
320,192,39111,1,0,0:0:0:0:
448,192,39111,1,0,0:0:0:0:
64,192,39257,1,0,0:0:0:0:
192,192,39257,1,0,0:0:0:0:
448,192,39403,1,0,0:0:0:0:
64,192,39403,1,0,0:0:0:0:
192,192,39550,1,0,0:0:0:0:
320,192,39550,1,0,0:0:0:0:
64,192,39696,1,0,0:0:0:0:
448,192,39696,1,0,0:0:0:0:
320,192,39696,1,0,0:0:0:0:
192,192,39842,1,0,0:0:0:0:
448,192,39842,1,0,0:0:0:0:
320,192,39989,1,0,0:0:0:0:
192,192,39989,1,0,0:0:0:0:
64,192,40135,1,0,0:0:0:0:
448,192,40135,1,0,0:0:0:0:
192,192,40281,1,0,0:0:0:0:
320,192,40281,1,0,0:0:0:0:
64,192,40281,1,0,0:0:0:0:
320,192,40428,1,0,0:0:0:0:
192,192,40428,1,0,0:0:0:0:
448,192,40428,128,0,40720:0:0:0:0:
192,192,40720,1,0,0:0:0:0:
320,192,40720,1,0,0:0:0:0:
64,192,40867,1,0,0:0:0:0:
320,192,40867,1,0,0:0:0:0:
448,192,40867,1,0,0:0:0:0:
64,192,41013,1,0,0:0:0:0:
192,192,41159,1,0,0:0:0:0:
448,192,41159,1,0,0:0:0:0:
192,192,41306,1,0,0:0:0:0:
448,192,41306,1,0,0:0:0:0:
320,192,41452,1,0,0:0:0:0:
192,192,41452,1,0,0:0:0:0:
64,192,41452,1,0,0:0:0:0:
448,192,41598,1,0,0:0:0:0:
64,192,41745,1,0,0:0:0:0:
320,192,41745,1,0,0:0:0:0:
64,192,41891,1,0,0:0:0:0:
320,192,41891,1,0,0:0:0:0:
192,192,42038,1,0,0:0:0:0:
320,192,42038,1,0,0:0:0:0:
448,192,42038,1,0,0:0:0:0:
448,192,42184,1,0,0:0:0:0:
320,192,42330,1,0,0:0:0:0:
64,192,42330,1,0,0:0:0:0:
64,192,42477,1,0,0:0:0:0:
320,192,42477,1,0,0:0:0:0:
192,192,42623,1,0,0:0:0:0:
320,192,42623,1,0,0:0:0:0:
448,192,42623,1,0,0:0:0:0:
192,192,42769,1,0,0:0:0:0:
320,192,42769,1,0,0:0:0:0:
64,192,42769,128,0,42916:0:0:0:0:
320,192,43062,1,0,0:0:0:0:
448,192,43062,128,0,43208:0:0:0:0:
320,192,43208,1,0,0:0:0:0:
192,192,43208,1,0,0:0:0:0:
64,192,43208,1,0,0:0:0:0:
448,192,43355,1,0,0:0:0:0:
192,192,43355,1,0,0:0:0:0:
320,192,43501,1,0,0:0:0:0:
64,192,43501,1,0,0:0:0:0:
448,192,43647,1,0,0:0:0:0:
448,192,43794,1,0,0:0:0:0:
192,192,43794,1,0,0:0:0:0:
64,192,43794,1,0,0:0:0:0:
320,192,43940,1,0,0:0:0:0:
64,192,44086,1,0,0:0:0:0:
448,192,44086,1,0,0:0:0:0:
64,192,44233,1,0,0:0:0:0:
448,192,44233,1,0,0:0:0:0:
192,192,44379,1,0,0:0:0:0:
320,192,44379,1,0,0:0:0:0:
448,192,44379,1,0,0:0:0:0:
64,192,44525,1,0,0:0:0:0:
192,192,44598,1,0,0:0:0:0:
320,192,44672,1,0,0:0:0:0:
448,192,44672,1,0,0:0:0:0:
64,192,44818,1,0,0:0:0:0:
320,192,44818,1,0,0:0:0:0:
192,192,44964,1,0,0:0:0:0:
64,192,44964,1,0,0:0:0:0:
448,192,44964,1,0,0:0:0:0:
64,192,45111,1,0,0:0:0:0:
448,192,45111,1,0,0:0:0:0:
320,192,45111,128,0,45257:0:0:0:0:
320,192,45403,1,0,0:0:0:0:
192,192,45403,128,0,45550:0:0:0:0:
64,192,45550,1,0,0:0:0:0:
448,192,45550,1,0,0:0:0:0:
320,192,45550,1,0,0:0:0:0:
192,192,45696,1,0,0:0:0:0:
448,192,45696,1,0,0:0:0:0:
320,192,45842,1,0,0:0:0:0:
64,192,45842,1,0,0:0:0:0:
64,192,45989,1,0,0:0:0:0:
320,192,45989,1,0,0:0:0:0:
192,192,46135,1,0,0:0:0:0:
320,192,46135,1,0,0:0:0:0:
448,192,46135,1,0,0:0:0:0:
192,192,46281,1,0,0:0:0:0:
448,192,46281,1,0,0:0:0:0:
64,192,46281,128,0,46574:0:0:0:0:
192,192,46574,1,0,0:0:0:0:
320,192,46574,1,0,0:0:0:0:
320,192,46720,1,0,0:0:0:0:
64,192,46720,1,0,0:0:0:0:
448,192,46720,1,0,0:0:0:0:
192,192,46867,1,0,0:0:0:0:
320,192,46940,1,0,0:0:0:0:
192,192,47013,1,0,0:0:0:0:
64,192,47013,1,0,0:0:0:0:
448,192,47086,1,0,0:0:0:0:
320,192,47159,1,0,0:0:0:0:
64,192,47159,1,0,0:0:0:0:
64,192,47233,1,0,0:0:0:0:
320,192,47233,1,0,0:0:0:0:
320,192,47306,1,0,0:0:0:0:
64,192,47306,1,0,0:0:0:0:
192,192,47452,1,0,0:0:0:0:
320,192,47452,1,0,0:0:0:0:
448,192,47452,128,0,47745:0:0:0:0:
192,192,47745,1,0,0:0:0:0:
64,192,47745,1,0,0:0:0:0:
192,192,47891,1,0,0:0:0:0:
448,192,47891,1,0,0:0:0:0:
320,192,47891,1,0,0:0:0:0:
64,192,48038,1,0,0:0:0:0:
448,192,48038,1,0,0:0:0:0:
192,192,48184,1,0,0:0:0:0:
320,192,48184,1,0,0:0:0:0:
320,192,48330,1,0,0:0:0:0:
448,192,48330,1,0,0:0:0:0:
192,192,48477,1,0,0:0:0:0:
64,192,48477,1,0,0:0:0:0:
320,192,48477,1,0,0:0:0:0:
64,192,48623,1,0,0:0:0:0:
448,192,48623,1,0,0:0:0:0:
192,192,48769,1,0,0:0:0:0:
448,192,48769,1,0,0:0:0:0:
320,192,48916,1,0,0:0:0:0:
64,192,48916,1,0,0:0:0:0:
192,192,49062,1,0,0:0:0:0:
448,192,49062,1,0,0:0:0:0:
320,192,49062,1,0,0:0:0:0:
64,192,49208,1,0,0:0:0:0:
448,192,49208,1,0,0:0:0:0:
192,192,49355,1,0,0:0:0:0:
64,192,49355,1,0,0:0:0:0:
192,192,49501,1,0,0:0:0:0:
448,192,49501,1,0,0:0:0:0:
320,192,49647,1,0,0:0:0:0:
64,192,49647,1,0,0:0:0:0:
448,192,49647,1,0,0:0:0:0:
192,192,49794,1,0,0:0:0:0:
320,192,49794,1,0,0:0:0:0:
448,192,49940,1,0,0:0:0:0:
320,192,49940,1,0,0:0:0:0:
192,192,50086,1,0,0:0:0:0:
64,192,50086,1,0,0:0:0:0:
192,192,50233,1,0,0:0:0:0:
448,192,50233,1,0,0:0:0:0:
320,192,50233,1,0,0:0:0:0:
64,192,50379,1,0,0:0:0:0:
448,192,50379,1,0,0:0:0:0:
320,192,50525,1,0,0:0:0:0:
64,192,50525,1,0,0:0:0:0:
192,192,50672,1,0,0:0:0:0:
448,192,50672,1,0,0:0:0:0:
192,192,50818,1,0,0:0:0:0:
64,192,50818,1,0,0:0:0:0:
320,192,50818,1,0,0:0:0:0:
320,192,50964,1,0,0:0:0:0:
448,192,50964,1,0,0:0:0:0:
192,192,51111,1,0,0:0:0:0:
64,192,51111,1,0,0:0:0:0:
64,192,51257,1,0,0:0:0:0:
320,192,51257,1,0,0:0:0:0:
192,192,51403,1,0,0:0:0:0:
320,192,51403,1,0,0:0:0:0:
448,192,51403,1,0,0:0:0:0:
64,192,51550,1,0,0:0:0:0:
448,192,51550,1,0,0:0:0:0:
320,192,51696,1,0,0:0:0:0:
192,192,51696,1,0,0:0:0:0:
448,192,51842,1,0,0:0:0:0:
320,192,51842,1,0,0:0:0:0:
192,192,51989,1,0,0:0:0:0:
64,192,51989,1,0,0:0:0:0:
448,192,51989,1,0,0:0:0:0:
64,192,52135,1,0,0:0:0:0:
448,192,52135,1,0,0:0:0:0:
320,192,52135,128,0,52428:0:0:0:0:
192,192,52428,1,0,0:0:0:0:
64,192,52574,1,0,0:0:0:0:
320,192,52574,1,0,0:0:0:0:
448,192,52574,1,0,0:0:0:0:
192,192,52720,1,0,0:0:0:0:
320,192,52867,1,0,0:0:0:0:
64,192,52867,1,0,0:0:0:0:
192,192,53013,1,0,0:0:0:0:
320,192,53159,1,0,0:0:0:0:
448,192,53159,1,0,0:0:0:0:
448,192,53306,1,0,0:0:0:0:
192,192,53306,1,0,0:0:0:0:
64,192,53306,128,0,53598:0:0:0:0:
320,192,53598,1,0,0:0:0:0:
320,192,53745,1,0,0:0:0:0:
448,192,53745,1,0,0:0:0:0:
192,192,53745,1,0,0:0:0:0:
64,192,53891,1,0,0:0:0:0:
192,192,54038,1,0,0:0:0:0:
448,192,54038,1,0,0:0:0:0:
64,192,54184,1,0,0:0:0:0:
192,192,54330,1,0,0:0:0:0:
320,192,54330,1,0,0:0:0:0:
448,192,54330,1,0,0:0:0:0:
192,192,54477,1,0,0:0:0:0:
320,192,54477,1,0,0:0:0:0:
64,192,54477,128,0,54769:0:0:0:0:
320,192,54769,1,0,0:0:0:0:
192,192,54769,1,0,0:0:0:0:
320,192,54916,1,0,0:0:0:0:
64,192,54916,1,0,0:0:0:0:
448,192,54916,1,0,0:0:0:0:
192,192,55062,1,0,0:0:0:0:
320,192,55062,1,0,0:0:0:0:
64,192,55208,1,0,0:0:0:0:
320,192,55208,1,0,0:0:0:0:
448,192,55208,1,0,0:0:0:0:
192,192,55281,1,0,0:0:0:0:
448,192,55355,1,0,0:0:0:0:
320,192,55428,1,0,0:0:0:0:
64,192,55501,1,0,0:0:0:0:
448,192,55501,1,0,0:0:0:0:
192,192,55574,1,0,0:0:0:0:
448,192,55647,1,0,0:0:0:0:
64,192,55647,1,0,0:0:0:0:
320,192,55647,1,0,0:0:0:0:
448,192,56086,1,0,0:0:0:0:
192,192,56086,1,0,0:0:0:0:
448,192,56233,1,0,0:0:0:0:
320,192,56379,1,0,0:0:0:0:
64,192,56379,1,0,0:0:0:0:
320,192,56525,1,0,0:0:0:0:
448,192,56672,1,0,0:0:0:0:
320,192,56720,1,0,0:0:0:0:
192,192,56769,1,0,0:0:0:0:
448,192,56818,1,0,0:0:0:0:
320,192,56818,1,0,0:0:0:0:
64,192,56818,128,0,57111:0:0:0:0:
192,192,57111,1,0,0:0:0:0:
448,192,57111,1,0,0:0:0:0:
320,192,57257,1,0,0:0:0:0:
192,192,57257,1,0,0:0:0:0:
64,192,57257,1,0,0:0:0:0:
192,192,57403,1,0,0:0:0:0:
448,192,57403,1,0,0:0:0:0:
320,192,57550,1,0,0:0:0:0:
448,192,57550,1,0,0:0:0:0:
64,192,57550,1,0,0:0:0:0:
64,192,57696,1,0,0:0:0:0:
320,192,57696,1,0,0:0:0:0:
192,192,57842,1,0,0:0:0:0:
320,192,57842,1,0,0:0:0:0:
448,192,57842,1,0,0:0:0:0:
64,192,57989,1,0,0:0:0:0:
448,192,58135,1,0,0:0:0:0:
192,192,58135,1,0,0:0:0:0:
320,192,58281,1,0,0:0:0:0:
64,192,58428,1,0,0:0:0:0:
192,192,58428,1,0,0:0:0:0:
448,192,58428,1,0,0:0:0:0:
320,192,58574,1,0,0:0:0:0:
64,192,58720,1,0,0:0:0:0:
192,192,58720,1,0,0:0:0:0:
448,192,58867,1,0,0:0:0:0:
320,192,59013,1,0,0:0:0:0:
64,192,59013,1,0,0:0:0:0:
192,192,59159,1,0,0:0:0:0:
320,192,59159,1,0,0:0:0:0:
448,192,59159,1,0,0:0:0:0:
64,192,59306,1,0,0:0:0:0:
192,192,59452,1,0,0:0:0:0:
320,192,59452,1,0,0:0:0:0:
320,192,59598,1,0,0:0:0:0:
448,192,59598,1,0,0:0:0:0:
64,192,59598,1,0,0:0:0:0:
192,192,59672,1,0,0:0:0:0:
320,192,59745,1,0,0:0:0:0:
448,192,59745,1,0,0:0:0:0:
64,192,59818,1,0,0:0:0:0:
192,192,59891,1,0,0:0:0:0:
320,192,59891,1,0,0:0:0:0:
448,192,59964,1,0,0:0:0:0:
192,192,60038,1,0,0:0:0:0:
64,192,60038,1,0,0:0:0:0:
448,192,60111,1,0,0:0:0:0:
320,192,60184,1,0,0:0:0:0:
192,192,60184,1,0,0:0:0:0:
320,192,60330,1,0,0:0:0:0:
448,192,60330,1,0,0:0:0:0:
64,192,60330,1,0,0:0:0:0:
320,192,60623,1,0,0:0:0:0:
192,192,60623,1,0,0:0:0:0:
64,192,60623,1,0,0:0:0:0:
192,192,60916,1,0,0:0:0:0:
64,192,60916,1,0,0:0:0:0:
448,192,60916,1,0,0:0:0:0:
320,192,61208,1,0,0:0:0:0:
192,192,61208,1,0,0:0:0:0:
448,192,61208,1,0,0:0:0:0:
64,192,61355,1,0,0:0:0:0:
64,192,61501,1,0,0:0:0:0:
448,192,61501,1,0,0:0:0:0:
192,192,61501,128,0,61794:0:0:0:0:
64,192,61794,1,0,0:0:0:0:
320,192,61794,1,0,0:0:0:0:
192,192,61940,1,0,0:0:0:0:
320,192,61940,1,0,0:0:0:0:
448,192,61940,1,0,0:0:0:0:
64,192,62086,1,0,0:0:0:0:
448,192,62233,1,0,0:0:0:0:
192,192,62233,1,0,0:0:0:0:
320,192,62379,1,0,0:0:0:0:
64,192,62525,1,0,0:0:0:0:
192,192,62525,1,0,0:0:0:0:
448,192,62525,1,0,0:0:0:0:
320,192,62672,1,0,0:0:0:0:
192,192,62672,1,0,0:0:0:0:
448,192,62672,1,0,0:0:0:0:
64,192,62818,1,0,0:0:0:0:
448,192,62964,1,0,0:0:0:0:
320,192,63111,1,0,0:0:0:0:
64,192,63111,1,0,0:0:0:0:
192,192,63111,1,0,0:0:0:0:
448,192,63257,1,0,0:0:0:0:
320,192,63403,1,0,0:0:0:0:
64,192,63403,1,0,0:0:0:0:
192,192,63550,1,0,0:0:0:0:
320,192,63696,1,0,0:0:0:0:
448,192,63696,1,0,0:0:0:0:
64,192,63696,1,0,0:0:0:0:
192,192,63842,1,0,0:0:0:0:
320,192,63989,1,0,0:0:0:0:
448,192,63989,1,0,0:0:0:0:
64,192,64135,1,0,0:0:0:0:
320,192,64135,1,0,0:0:0:0:
192,192,64281,1,0,0:0:0:0:
448,192,64281,1,0,0:0:0:0:
64,192,64281,1,0,0:0:0:0:
320,192,64428,1,0,0:0:0:0:
192,192,64428,1,0,0:0:0:0:
64,192,64574,1,0,0:0:0:0:
192,192,64574,1,0,0:0:0:0:
448,192,64574,1,0,0:0:0:0:
320,192,64647,1,0,0:0:0:0:
64,192,64720,1,0,0:0:0:0:
192,192,64720,1,0,0:0:0:0:
448,192,64794,1,0,0:0:0:0:
320,192,64867,1,0,0:0:0:0:
192,192,64867,1,0,0:0:0:0:
64,192,64940,1,0,0:0:0:0:
192,192,65013,1,0,0:0:0:0:
320,192,65013,1,0,0:0:0:0:
448,192,65013,128,0,65306:0:0:0:0:
64,192,65306,1,0,0:0:0:0:
192,192,65306,1,0,0:0:0:0:
320,192,65379,1,0,0:0:0:0:
448,192,65452,1,0,0:0:0:0:
192,192,65452,1,0,0:0:0:0:
64,192,65452,1,0,0:0:0:0:
192,192,65525,1,0,0:0:0:0:
64,192,65525,1,0,0:0:0:0:
448,192,65525,1,0,0:0:0:0:
64,192,65598,1,0,0:0:0:0:
192,192,65598,1,0,0:0:0:0:
448,192,65598,1,0,0:0:0:0:
448,192,65672,1,0,0:0:0:0:
64,192,65672,1,0,0:0:0:0:
192,192,65672,1,0,0:0:0:0:
192,192,65745,1,0,0:0:0:0:
64,192,65745,1,0,0:0:0:0:
448,192,65745,1,0,0:0:0:0:
320,192,65891,1,0,0:0:0:0:
192,192,65891,1,0,0:0:0:0:
448,192,65891,1,0,0:0:0:0:
64,192,65964,1,0,0:0:0:0:
192,192,66038,1,0,0:0:0:0:
320,192,66038,1,0,0:0:0:0:
448,192,66111,1,0,0:0:0:0:
320,192,66184,1,0,0:0:0:0:
64,192,66184,1,0,0:0:0:0:
192,192,66184,1,0,0:0:0:0:
448,192,66330,1,0,0:0:0:0:
448,192,66477,1,0,0:0:0:0:
320,192,66623,1,0,0:0:0:0:
192,192,66623,1,0,0:0:0:0:
64,192,66623,1,0,0:0:0:0:
64,192,66769,1,0,0:0:0:0:
320,192,66916,1,0,0:0:0:0:
448,192,66916,1,0,0:0:0:0:
192,192,67062,1,0,0:0:0:0:
448,192,67062,1,0,0:0:0:0:
64,192,67208,1,0,0:0:0:0:
320,192,67208,1,0,0:0:0:0:
192,192,67208,1,0,0:0:0:0:
448,192,67355,1,0,0:0:0:0:
320,192,67501,1,0,0:0:0:0:
64,192,67501,1,0,0:0:0:0:
192,192,67647,1,0,0:0:0:0:
64,192,67794,1,0,0:0:0:0:
320,192,67794,1,0,0:0:0:0:
448,192,67794,1,0,0:0:0:0:
192,192,67940,1,0,0:0:0:0:
320,192,68086,1,0,0:0:0:0:
448,192,68086,1,0,0:0:0:0:
64,192,68233,1,0,0:0:0:0:
192,192,68379,1,0,0:0:0:0:
320,192,68379,1,0,0:0:0:0:
448,192,68379,1,0,0:0:0:0:
64,192,68525,1,0,0:0:0:0:
192,192,68672,1,0,0:0:0:0:
448,192,68672,1,0,0:0:0:0:
320,192,68818,1,0,0:0:0:0:
192,192,68964,1,0,0:0:0:0:
64,192,68964,1,0,0:0:0:0:
320,192,68964,1,0,0:0:0:0:
448,192,69111,1,0,0:0:0:0:
448,192,69257,1,0,0:0:0:0:
320,192,69257,1,0,0:0:0:0:
64,192,69403,1,0,0:0:0:0:
448,192,69550,1,0,0:0:0:0:
192,192,69550,1,0,0:0:0:0:
64,192,69696,128,0,69769:0:0:0:0:
192,192,69696,128,0,69769:0:0:0:0:
320,192,69696,128,0,69769:0:0:0:0:
448,192,69696,128,0,69769:0:0:0:0:
448,192,69989,128,0,70062:0:0:0:0:
320,192,69989,128,0,70062:0:0:0:0:
192,192,69989,128,0,70062:0:0:0:0:
64,192,69989,128,0,70062:0:0:0:0:
64,192,70281,128,0,70355:0:0:0:0:
192,192,70281,128,0,70355:0:0:0:0:
320,192,70281,128,0,70355:0:0:0:0:
448,192,70281,128,0,70355:0:0:0:0:
448,192,70574,128,0,70647:0:0:0:0:
192,192,70574,128,0,70647:0:0:0:0:
64,192,70574,128,0,70647:0:0:0:0:
320,192,70720,1,0,0:0:0:0:
320,192,70867,1,0,0:0:0:0:
448,192,70867,1,0,0:0:0:0:
64,192,70867,128,0,71159:0:0:0:0:
192,192,71159,1,0,0:0:0:0:
64,192,71306,1,0,0:0:0:0:
320,192,71306,1,0,0:0:0:0:
448,192,71306,1,0,0:0:0:0:
192,192,71452,1,0,0:0:0:0:
320,192,71598,1,0,0:0:0:0:
448,192,71598,1,0,0:0:0:0:
64,192,71745,1,0,0:0:0:0:
192,192,71891,1,0,0:0:0:0:
448,192,71891,1,0,0:0:0:0:
192,192,72038,1,0,0:0:0:0:
64,192,72038,1,0,0:0:0:0:
320,192,72038,1,0,0:0:0:0:
448,192,72184,1,0,0:0:0:0:
64,192,72330,1,0,0:0:0:0:
192,192,72477,1,0,0:0:0:0:
320,192,72477,1,0,0:0:0:0:
448,192,72623,1,0,0:0:0:0:
320,192,72769,1,0,0:0:0:0:
192,192,72769,1,0,0:0:0:0:
64,192,72769,1,0,0:0:0:0:
64,192,72916,1,0,0:0:0:0:
320,192,72916,1,0,0:0:0:0:
192,192,73062,1,0,0:0:0:0:
320,192,73062,1,0,0:0:0:0:
448,192,73062,1,0,0:0:0:0:
192,192,73208,1,0,0:0:0:0:
64,192,73208,1,0,0:0:0:0:
448,192,73208,128,0,73501:0:0:0:0:
64,192,73501,1,0,0:0:0:0:
192,192,73501,1,0,0:0:0:0:
64,192,73647,1,0,0:0:0:0:
192,192,73647,1,0,0:0:0:0:
320,192,73647,1,0,0:0:0:0:
64,192,73794,1,0,0:0:0:0:
192,192,73794,1,0,0:0:0:0:
320,192,73794,1,0,0:0:0:0:
448,192,73794,1,0,0:0:0:0:
64,192,73940,1,0,0:0:0:0:
192,192,73940,1,0,0:0:0:0:
448,192,73940,1,0,0:0:0:0:
320,192,74013,1,0,0:0:0:0:
64,192,74086,1,0,0:0:0:0:
192,192,74086,1,0,0:0:0:0:
448,192,74159,1,0,0:0:0:0:
320,192,74233,1,0,0:0:0:0:
192,192,74233,1,0,0:0:0:0:
64,192,74233,1,0,0:0:0:0:
448,192,74306,1,0,0:0:0:0:
192,192,74379,1,0,0:0:0:0:
320,192,74379,1,0,0:0:0:0:
64,192,74379,1,0,0:0:0:0:
448,192,74672,1,0,0:0:0:0:
320,192,74672,1,0,0:0:0:0:
320,192,74818,1,0,0:0:0:0:
192,192,74818,1,0,0:0:0:0:
64,192,74964,1,0,0:0:0:0:
192,192,74964,1,0,0:0:0:0:
448,192,75111,1,0,0:0:0:0:
64,192,75111,1,0,0:0:0:0:
448,192,75184,1,0,0:0:0:0:
64,192,75184,1,0,0:0:0:0:
448,192,75257,1,0,0:0:0:0:
64,192,75257,1,0,0:0:0:0:
448,192,75330,1,0,0:0:0:0:
64,192,75330,1,0,0:0:0:0:
448,192,75403,1,0,0:0:0:0:
64,192,75403,1,0,0:0:0:0:
64,192,75477,1,0,0:0:0:0:
448,192,75550,128,0,75842:0:0:0:0:
320,192,75550,128,0,75842:0:0:0:0:
192,192,75550,1,0,0:0:0:0:
192,192,75842,1,0,0:0:0:0:
64,192,75842,1,0,0:0:0:0:
192,192,75989,1,0,0:0:0:0:
320,192,75989,1,0,0:0:0:0:
448,192,75989,1,0,0:0:0:0:
64,192,76135,1,0,0:0:0:0:
192,192,76135,1,0,0:0:0:0:
448,192,76281,1,0,0:0:0:0:
320,192,76281,1,0,0:0:0:0:
64,192,76355,1,0,0:0:0:0:
192,192,76428,1,0,0:0:0:0:
320,192,76428,1,0,0:0:0:0:
448,192,76501,1,0,0:0:0:0:
64,192,76574,1,0,0:0:0:0:
192,192,76574,1,0,0:0:0:0:
320,192,76647,1,0,0:0:0:0:
192,192,76720,1,0,0:0:0:0:
64,192,76720,128,0,77013:0:0:0:0:
448,192,76720,128,0,77013:0:0:0:0:
320,192,77013,1,0,0:0:0:0:
192,192,77013,1,0,0:0:0:0:
64,192,77159,1,0,0:0:0:0:
448,192,77159,1,0,0:0:0:0:
320,192,77159,1,0,0:0:0:0:
320,192,77306,1,0,0:0:0:0:
192,192,77306,1,0,0:0:0:0:
448,192,77452,1,0,0:0:0:0:
320,192,77452,1,0,0:0:0:0:
64,192,77525,1,0,0:0:0:0:
192,192,77598,1,0,0:0:0:0:
320,192,77598,1,0,0:0:0:0:
448,192,77672,1,0,0:0:0:0:
192,192,77745,1,0,0:0:0:0:
320,192,77745,1,0,0:0:0:0:
64,192,77745,1,0,0:0:0:0:
192,192,77891,1,0,0:0:0:0:
448,192,77891,128,0,78184:0:0:0:0:
320,192,77891,128,0,78184:0:0:0:0:
64,192,78184,1,0,0:0:0:0:
192,192,78184,1,0,0:0:0:0:
448,192,78330,1,0,0:0:0:0:
192,192,78330,1,0,0:0:0:0:
320,192,78330,1,0,0:0:0:0:
64,192,78477,1,0,0:0:0:0:
192,192,78477,1,0,0:0:0:0:
320,192,78623,1,0,0:0:0:0:
448,192,78623,1,0,0:0:0:0:
64,192,78696,1,0,0:0:0:0:
192,192,78696,1,0,0:0:0:0:
448,192,78769,1,0,0:0:0:0:
320,192,78769,1,0,0:0:0:0:
192,192,78842,1,0,0:0:0:0:
64,192,78916,1,0,0:0:0:0:
320,192,78916,1,0,0:0:0:0:
448,192,78916,1,0,0:0:0:0:
64,192,79062,128,0,79355:0:0:0:0:
192,192,79062,1,0,0:0:0:0:
320,192,79062,1,0,0:0:0:0:
448,192,79062,128,0,79355:0:0:0:0:
320,192,79355,1,0,0:0:0:0:
192,192,79355,1,0,0:0:0:0:
64,192,79428,1,0,0:0:0:0:
448,192,79501,1,0,0:0:0:0:
320,192,79501,1,0,0:0:0:0:
192,192,79501,1,0,0:0:0:0:
64,192,79574,1,0,0:0:0:0:
320,192,79647,1,0,0:0:0:0:
192,192,79647,1,0,0:0:0:0:
448,192,79720,1,0,0:0:0:0:
64,192,79794,1,0,0:0:0:0:
320,192,79794,1,0,0:0:0:0:
192,192,79794,1,0,0:0:0:0:
448,192,79867,1,0,0:0:0:0:
320,192,79940,1,0,0:0:0:0:
192,192,79940,1,0,0:0:0:0:
64,192,80013,1,0,0:0:0:0:
448,192,80086,1,0,0:0:0:0:
320,192,80086,1,0,0:0:0:0:
192,192,80086,1,0,0:0:0:0:
448,192,80233,1,0,0:0:0:0:
320,192,80233,128,0,80525:0:0:0:0:
64,192,80233,1,0,0:0:0:0:
192,192,80233,128,0,80525:0:0:0:0:
448,192,80525,1,0,0:0:0:0:
64,192,80525,1,0,0:0:0:0:
64,192,80672,1,0,0:0:0:0:
320,192,80672,1,0,0:0:0:0:
192,192,80672,1,0,0:0:0:0:
320,192,80818,1,0,0:0:0:0:
448,192,80818,1,0,0:0:0:0:
64,192,80964,1,0,0:0:0:0:
192,192,80964,1,0,0:0:0:0:
320,192,81038,1,0,0:0:0:0:
64,192,81111,1,0,0:0:0:0:
448,192,81111,1,0,0:0:0:0:
320,192,81184,1,0,0:0:0:0:
64,192,81257,1,0,0:0:0:0:
192,192,81257,1,0,0:0:0:0:
448,192,81257,1,0,0:0:0:0:
192,192,81403,128,0,81696:0:0:0:0:
448,192,81403,1,0,0:0:0:0:
320,192,81403,1,0,0:0:0:0:
64,192,81403,128,0,81696:0:0:0:0:
320,192,81696,1,0,0:0:0:0:
448,192,81696,1,0,0:0:0:0:
320,192,81842,1,0,0:0:0:0:
192,192,81842,1,0,0:0:0:0:
64,192,81842,1,0,0:0:0:0:
320,192,81989,1,0,0:0:0:0:
448,192,81989,1,0,0:0:0:0:
64,192,82135,1,0,0:0:0:0:
192,192,82135,1,0,0:0:0:0:
448,192,82135,1,0,0:0:0:0:
320,192,82208,1,0,0:0:0:0:
192,192,82281,1,0,0:0:0:0:
64,192,82281,1,0,0:0:0:0:
320,192,82355,1,0,0:0:0:0:
192,192,82428,1,0,0:0:0:0:
64,192,82428,1,0,0:0:0:0:
448,192,82428,1,0,0:0:0:0:
192,192,82574,1,0,0:0:0:0:
64,192,82574,1,0,0:0:0:0:
448,192,82574,128,0,82867:0:0:0:0:
320,192,82574,128,0,82867:0:0:0:0:
64,192,82867,1,0,0:0:0:0:
192,192,82867,1,0,0:0:0:0:
192,192,83013,1,0,0:0:0:0:
320,192,83013,1,0,0:0:0:0:
448,192,83013,1,0,0:0:0:0:
64,192,83159,1,0,0:0:0:0:
192,192,83159,1,0,0:0:0:0:
320,192,83306,1,0,0:0:0:0:
448,192,83306,1,0,0:0:0:0:
192,192,83306,1,0,0:0:0:0:
64,192,83379,1,0,0:0:0:0:
192,192,83452,1,0,0:0:0:0:
320,192,83452,1,0,0:0:0:0:
192,192,83525,1,0,0:0:0:0:
320,192,83525,1,0,0:0:0:0:
320,192,83598,1,0,0:0:0:0:
192,192,83598,1,0,0:0:0:0:
192,192,83745,1,0,0:0:0:0:
320,192,83745,1,0,0:0:0:0:
64,192,83745,128,0,84038:0:0:0:0:
448,192,83745,1,0,0:0:0:0:
320,192,84038,1,0,0:0:0:0:
448,192,84038,1,0,0:0:0:0:
192,192,84111,1,0,0:0:0:0:
320,192,84184,1,0,0:0:0:0:
448,192,84184,1,0,0:0:0:0:
64,192,84330,1,0,0:0:0:0:
192,192,84330,1,0,0:0:0:0:
320,192,84330,1,0,0:0:0:0:
320,192,84477,1,0,0:0:0:0:
448,192,84477,1,0,0:0:0:0:
192,192,84477,1,0,0:0:0:0:
64,192,84477,1,0,0:0:0:0:
64,192,84623,1,0,0:0:0:0:
320,192,84623,1,0,0:0:0:0:
448,192,84623,1,0,0:0:0:0:
64,192,84696,1,0,0:0:0:0:
320,192,84696,1,0,0:0:0:0:
192,192,84769,1,0,0:0:0:0:
320,192,84842,1,0,0:0:0:0:
192,192,84916,1,0,0:0:0:0:
64,192,84916,128,0,86379:0:0:0:0:
448,192,84916,128,0,86233:0:0:0:0:
