osu file format v13

[General]
AudioFilename: theglorydays.mp3
AudioLeadIn: 2000
PreviewTime: 65432
Countdown: 0
SampleSet: None
StackLeniency: 0.2
Mode: 3
LetterboxInBreaks: 0
SpecialStyle: 0
WidescreenStoryboard: 1

[Editor]
DistanceSpacing: 2
BeatDivisor: 4
GridSize: 8
TimelineZoom: 2.1

[Metadata]
Title:Anime Endings Madness P.2
TitleUnicode:Anime Endings Madness P.2
Artist:FX
ArtistUnicode:FX
Creator:[FX] AEM
Version:The Glory Days [FX]
Source:
Tags:ending
BeatmapID:625277
BeatmapSetID:275629

[Difficulty]
HPDrainRate:8
CircleSize:4
OverallDifficulty:8
ApproachRate:0
SliderMultiplier:1.7
SliderTickRate:1

[Events]
//Background and Video events
//Break Periods
//Storyboard Layer 0 (Background)
//Storyboard Layer 1 (Fail)
//Storyboard Layer 2 (Pass)
//Storyboard Layer 3 (Foreground)
//Storyboard Sound Samples

[TimingPoints]
541,326.086956521739,4,2,1,20,1,0

[HitObjects]
448,192,2823,128,0,3149:0:0:0:0:
320,192,3149,1,0,0:0:0:0:
192,192,3149,1,0,0:0:0:0:
64,192,3149,128,0,5432:0:0:0:0:
448,192,3475,1,0,0:0:0:0:
192,192,3801,1,0,0:0:0:0:
448,192,4127,1,0,0:0:0:0:
192,192,4454,1,0,0:0:0:0:
448,192,4780,1,0,0:0:0:0:
192,192,5106,1,0,0:0:0:0:
448,192,5432,1,0,0:0:0:0:
192,192,5758,1,0,0:0:0:0:
64,192,5758,128,0,7714:0:0:0:0:
448,192,6084,1,0,0:0:0:0:
192,192,6410,1,0,0:0:0:0:
448,192,6736,1,0,0:0:0:0:
192,192,7062,1,0,0:0:0:0:
448,192,7388,1,0,0:0:0:0:
192,192,7714,128,0,8040:0:0:0:0:
320,192,8040,128,0,8367:0:0:0:0:
448,192,8367,128,0,10975:0:0:0:0:
64,192,8367,1,0,0:0:0:0:
320,192,8693,1,0,0:0:0:0:
64,192,9019,1,0,0:0:0:0:
320,192,9345,1,0,0:0:0:0:
64,192,9671,1,0,0:0:0:0:
320,192,9997,1,0,0:0:0:0:
64,192,10323,1,0,0:0:0:0:
320,192,10649,1,0,0:0:0:0:
192,192,10975,128,0,12932:0:0:0:0:
64,192,10975,1,0,0:0:0:0:
320,192,11301,1,0,0:0:0:0:
64,192,11627,1,0,0:0:0:0:
320,192,11954,1,0,0:0:0:0:
64,192,12280,1,0,0:0:0:0:
320,192,12606,1,0,0:0:0:0:
448,192,12932,1,0,0:0:0:0:
64,192,12932,128,0,13584:0:0:0:0:
320,192,13584,1,0,0:0:0:0:
448,192,13584,1,0,0:0:0:0:
192,192,13747,1,0,0:0:0:0:
64,192,13910,1,0,0:0:0:0:
448,192,13910,1,0,0:0:0:0:
192,192,14073,1,0,0:0:0:0:
320,192,14236,1,0,0:0:0:0:
448,192,14236,1,0,0:0:0:0:
192,192,14399,1,0,0:0:0:0:
64,192,14562,1,0,0:0:0:0:
448,192,14562,1,0,0:0:0:0:
192,192,14725,1,0,0:0:0:0:
320,192,14888,1,0,0:0:0:0:
448,192,14888,1,0,0:0:0:0:
192,192,15051,1,0,0:0:0:0:
64,192,15214,1,0,0:0:0:0:
448,192,15214,1,0,0:0:0:0:
192,192,15377,1,0,0:0:0:0:
320,192,15540,1,0,0:0:0:0:
448,192,15540,1,0,0:0:0:0:
192,192,15704,1,0,0:0:0:0:
448,192,15867,1,0,0:0:0:0:
64,192,15867,1,0,0:0:0:0:
192,192,16030,1,0,0:0:0:0:
320,192,16193,1,0,0:0:0:0:
448,192,16193,1,0,0:0:0:0:
192,192,16356,1,0,0:0:0:0:
64,192,16519,1,0,0:0:0:0:
448,192,16519,1,0,0:0:0:0:
192,192,16682,1,0,0:0:0:0:
320,192,16845,1,0,0:0:0:0:
448,192,16845,1,0,0:0:0:0:
192,192,17008,1,0,0:0:0:0:
64,192,17171,1,0,0:0:0:0:
448,192,17171,1,0,0:0:0:0:
192,192,17334,1,0,0:0:0:0:
320,192,17497,1,0,0:0:0:0:
448,192,17497,1,0,0:0:0:0:
192,192,17660,1,0,0:0:0:0:
64,192,17823,1,0,0:0:0:0:
448,192,17823,1,0,0:0:0:0:
192,192,17986,1,0,0:0:0:0:
448,192,18149,1,0,0:0:0:0:
320,192,18149,1,0,0:0:0:0:
192,192,18312,1,0,0:0:0:0:
64,192,18475,1,0,0:0:0:0:
320,192,18475,1,0,0:0:0:0:
448,192,18638,1,0,0:0:0:0:
64,192,18801,1,0,0:0:0:0:
192,192,18801,1,0,0:0:0:0:
320,192,18964,1,0,0:0:0:0:
448,192,19127,1,0,0:0:0:0:
64,192,19127,1,0,0:0:0:0:
320,192,19290,1,0,0:0:0:0:
64,192,19454,1,0,0:0:0:0:
192,192,19454,1,0,0:0:0:0:
320,192,19617,1,0,0:0:0:0:
448,192,19780,1,0,0:0:0:0:
64,192,19780,1,0,0:0:0:0:
320,192,19943,1,0,0:0:0:0:
448,192,20024,1,0,0:0:0:0:
64,192,20106,1,0,0:0:0:0:
192,192,20106,1,0,0:0:0:0:
320,192,20269,1,0,0:0:0:0:
448,192,20432,1,0,0:0:0:0:
64,192,20432,1,0,0:0:0:0:
320,192,20595,1,0,0:0:0:0:
192,192,20595,1,0,0:0:0:0:
192,192,20758,1,0,0:0:0:0:
64,192,20758,1,0,0:0:0:0:
320,192,20921,1,0,0:0:0:0:
448,192,20921,1,0,0:0:0:0:
64,192,21084,1,0,0:0:0:0:
320,192,21247,1,0,0:0:0:0:
64,192,21410,1,0,0:0:0:0:
192,192,21410,1,0,0:0:0:0:
320,192,21573,1,0,0:0:0:0:
64,192,21573,1,0,0:0:0:0:
448,192,21736,1,0,0:0:0:0:
192,192,21736,1,0,0:0:0:0:
320,192,21899,1,0,0:0:0:0:
64,192,21899,1,0,0:0:0:0:
192,192,22062,1,0,0:0:0:0:
320,192,22062,1,0,0:0:0:0:
64,192,22225,1,0,0:0:0:0:
448,192,22225,1,0,0:0:0:0:
192,192,22388,1,0,0:0:0:0:
448,192,22388,1,0,0:0:0:0:
320,192,22551,1,0,0:0:0:0:
64,192,22551,1,0,0:0:0:0:
192,192,22714,1,0,0:0:0:0:
320,192,22714,1,0,0:0:0:0:
64,192,22877,1,0,0:0:0:0:
448,192,22877,1,0,0:0:0:0:
192,192,23040,1,0,0:0:0:0:
448,192,23040,1,0,0:0:0:0:
320,192,23204,1,0,0:0:0:0:
64,192,23204,1,0,0:0:0:0:
192,192,23367,1,0,0:0:0:0:
448,192,23367,1,0,0:0:0:0:
320,192,23530,1,0,0:0:0:0:
192,192,23530,1,0,0:0:0:0:
64,192,23693,1,0,0:0:0:0:
448,192,23693,1,0,0:0:0:0:
192,192,23693,1,0,0:0:0:0:
320,192,23856,1,0,0:0:0:0:
64,192,23856,1,0,0:0:0:0:
192,192,24019,1,0,0:0:0:0:
448,192,24019,1,0,0:0:0:0:
320,192,24182,1,0,0:0:0:0:
192,192,24345,1,0,0:0:0:0:
64,192,24345,1,0,0:0:0:0:
320,192,24671,1,0,0:0:0:0:
448,192,24671,1,0,0:0:0:0:
64,192,24834,1,0,0:0:0:0:
192,192,24997,1,0,0:0:0:0:
320,192,24997,1,0,0:0:0:0:
448,192,25323,1,0,0:0:0:0:
320,192,25323,1,0,0:0:0:0:
64,192,25486,1,0,0:0:0:0:
192,192,25649,1,0,0:0:0:0:
448,192,25649,1,0,0:0:0:0:
448,192,25975,1,0,0:0:0:0:
320,192,25975,1,0,0:0:0:0:
64,192,26138,1,0,0:0:0:0:
192,192,26301,1,0,0:0:0:0:
320,192,26301,1,0,0:0:0:0:
64,192,26627,1,0,0:0:0:0:
320,192,26627,1,0,0:0:0:0:
448,192,26790,1,0,0:0:0:0:
320,192,26954,1,0,0:0:0:0:
192,192,26954,1,0,0:0:0:0:
448,192,27280,1,0,0:0:0:0:
320,192,27280,1,0,0:0:0:0:
64,192,27443,1,0,0:0:0:0:
192,192,27606,1,0,0:0:0:0:
448,192,27606,1,0,0:0:0:0:
320,192,27932,1,0,0:0:0:0:
448,192,27932,1,0,0:0:0:0:
64,192,28095,1,0,0:0:0:0:
192,192,28258,1,0,0:0:0:0:
320,192,28258,1,0,0:0:0:0:
192,192,28584,1,0,0:0:0:0:
448,192,28584,1,0,0:0:0:0:
64,192,28747,1,0,0:0:0:0:
320,192,28910,1,0,0:0:0:0:
448,192,28910,1,0,0:0:0:0:
192,192,29236,1,0,0:0:0:0:
320,192,29236,1,0,0:0:0:0:
64,192,29399,1,0,0:0:0:0:
320,192,29562,1,0,0:0:0:0:
448,192,29562,1,0,0:0:0:0:
192,192,29888,1,0,0:0:0:0:
448,192,29888,1,0,0:0:0:0:
64,192,30051,1,0,0:0:0:0:
320,192,30214,1,0,0:0:0:0:
448,192,30214,1,0,0:0:0:0:
192,192,30540,1,0,0:0:0:0:
448,192,30540,1,0,0:0:0:0:
64,192,30704,1,0,0:0:0:0:
192,192,30867,1,0,0:0:0:0:
320,192,30867,1,0,0:0:0:0:
320,192,31193,1,0,0:0:0:0:
448,192,31193,1,0,0:0:0:0:
64,192,31356,1,0,0:0:0:0:
192,192,31519,1,0,0:0:0:0:
320,192,31519,1,0,0:0:0:0:
192,192,31845,1,0,0:0:0:0:
448,192,31845,1,0,0:0:0:0:
320,192,32171,1,0,0:0:0:0:
64,192,32171,1,0,0:0:0:0:
192,192,32497,1,0,0:0:0:0:
448,192,32497,1,0,0:0:0:0:
320,192,32660,1,0,0:0:0:0:
64,192,32823,128,0,33149:0:0:0:0:
192,192,33149,1,0,0:0:0:0:
448,192,33149,1,0,0:0:0:0:
448,192,33475,128,0,33801:0:0:0:0:
320,192,33801,1,0,0:0:0:0:
64,192,33801,1,0,0:0:0:0:
192,192,33964,1,0,0:0:0:0:
64,192,34127,1,0,0:0:0:0:
320,192,34454,1,0,0:0:0:0:
64,192,34454,1,0,0:0:0:0:
448,192,34454,1,0,0:0:0:0:
192,192,34780,1,0,0:0:0:0:
320,192,34943,1,0,0:0:0:0:
192,192,35106,1,0,0:0:0:0:
64,192,35106,1,0,0:0:0:0:
448,192,35269,1,0,0:0:0:0:
320,192,35432,1,0,0:0:0:0:
64,192,35432,1,0,0:0:0:0:
64,192,35758,1,0,0:0:0:0:
192,192,35758,1,0,0:0:0:0:
448,192,35921,1,0,0:0:0:0:
320,192,36084,1,0,0:0:0:0:
192,192,36084,1,0,0:0:0:0:
64,192,36410,1,0,0:0:0:0:
192,192,36410,1,0,0:0:0:0:
448,192,36573,1,0,0:0:0:0:
320,192,36736,1,0,0:0:0:0:
64,192,36736,1,0,0:0:0:0:
64,192,36899,1,0,0:0:0:0:
320,192,37062,1,0,0:0:0:0:
448,192,37062,1,0,0:0:0:0:
192,192,37388,1,0,0:0:0:0:
64,192,37388,1,0,0:0:0:0:
320,192,37714,1,0,0:0:0:0:
64,192,37714,1,0,0:0:0:0:
448,192,37877,1,0,0:0:0:0:
320,192,38040,1,0,0:0:0:0:
192,192,38040,1,0,0:0:0:0:
64,192,38367,1,0,0:0:0:0:
192,192,38367,1,0,0:0:0:0:
448,192,38530,1,0,0:0:0:0:
320,192,38693,1,0,0:0:0:0:
192,192,38693,1,0,0:0:0:0:
64,192,39019,1,0,0:0:0:0:
320,192,39019,1,0,0:0:0:0:
448,192,39182,1,0,0:0:0:0:
192,192,39345,1,0,0:0:0:0:
64,192,39345,1,0,0:0:0:0:
64,192,39508,1,0,0:0:0:0:
320,192,39671,1,0,0:0:0:0:
448,192,39671,1,0,0:0:0:0:
192,192,39997,1,0,0:0:0:0:
320,192,40160,1,0,0:0:0:0:
64,192,40323,1,0,0:0:0:0:
192,192,40323,1,0,0:0:0:0:
448,192,40486,1,0,0:0:0:0:
320,192,40649,1,0,0:0:0:0:
64,192,40649,1,0,0:0:0:0:
192,192,40812,1,0,0:0:0:0:
320,192,40975,1,0,0:0:0:0:
192,192,40975,1,0,0:0:0:0:
320,192,41138,1,0,0:0:0:0:
64,192,41301,1,0,0:0:0:0:
192,192,41627,1,0,0:0:0:0:
192,192,41790,1,0,0:0:0:0:
320,192,41954,1,0,0:0:0:0:
448,192,41954,128,0,42280:0:0:0:0:
192,192,42280,1,0,0:0:0:0:
64,192,42280,1,0,0:0:0:0:
192,192,42606,1,0,0:0:0:0:
320,192,42606,1,0,0:0:0:0:
448,192,42932,1,0,0:0:0:0:
192,192,42932,1,0,0:0:0:0:
320,192,43095,1,0,0:0:0:0:
64,192,43095,1,0,0:0:0:0:
448,192,43258,1,0,0:0:0:0:
320,192,43421,1,0,0:0:0:0:
192,192,43421,1,0,0:0:0:0:
192,192,43584,1,0,0:0:0:0:
64,192,43747,1,0,0:0:0:0:
320,192,43747,1,0,0:0:0:0:
192,192,43910,1,0,0:0:0:0:
448,192,43910,1,0,0:0:0:0:
320,192,44073,1,0,0:0:0:0:
64,192,44073,1,0,0:0:0:0:
192,192,44236,1,0,0:0:0:0:
320,192,44399,1,0,0:0:0:0:
448,192,44399,1,0,0:0:0:0:
192,192,44562,1,0,0:0:0:0:
64,192,44562,1,0,0:0:0:0:
64,192,44725,1,0,0:0:0:0:
448,192,44888,1,0,0:0:0:0:
192,192,45051,1,0,0:0:0:0:
320,192,45214,1,0,0:0:0:0:
192,192,45377,1,0,0:0:0:0:
64,192,45704,1,0,0:0:0:0:
448,192,45704,1,0,0:0:0:0:
64,192,45867,1,0,0:0:0:0:
320,192,45867,1,0,0:0:0:0:
192,192,46193,1,0,0:0:0:0:
192,192,46845,1,0,0:0:0:0:
64,192,47497,1,0,0:0:0:0:
448,192,47497,1,0,0:0:0:0:
320,192,47497,1,0,0:0:0:0:
192,192,47660,1,0,0:0:0:0:
320,192,47823,1,0,0:0:0:0:
64,192,47986,1,0,0:0:0:0:
320,192,48312,1,0,0:0:0:0:
448,192,48638,1,0,0:0:0:0:
192,192,48801,1,0,0:0:0:0:
192,192,49454,1,0,0:0:0:0:
64,192,50106,1,0,0:0:0:0:
192,192,50106,1,0,0:0:0:0:
192,192,50269,1,0,0:0:0:0:
320,192,50269,1,0,0:0:0:0:
64,192,50432,1,0,0:0:0:0:
448,192,50432,1,0,0:0:0:0:
320,192,50595,1,0,0:0:0:0:
192,192,50595,1,0,0:0:0:0:
448,192,50921,1,0,0:0:0:0:
64,192,50921,1,0,0:0:0:0:
192,192,51084,1,0,0:0:0:0:
448,192,51084,1,0,0:0:0:0:
320,192,51410,1,0,0:0:0:0:
320,192,52062,1,0,0:0:0:0:
320,192,52714,1,0,0:0:0:0:
192,192,52714,1,0,0:0:0:0:
320,192,52877,1,0,0:0:0:0:
448,192,52877,1,0,0:0:0:0:
64,192,53040,1,0,0:0:0:0:
448,192,53040,1,0,0:0:0:0:
192,192,53204,1,0,0:0:0:0:
320,192,53204,1,0,0:0:0:0:
192,192,53530,1,0,0:0:0:0:
320,192,53693,1,0,0:0:0:0:
192,192,54019,1,0,0:0:0:0:
320,192,54345,128,0,55323:0:0:0:0:
64,192,55323,1,0,0:0:0:0:
192,192,55323,1,0,0:0:0:0:
448,192,55323,1,0,0:0:0:0:
320,192,55405,1,0,0:0:0:0:
192,192,55486,1,0,0:0:0:0:
320,192,55649,1,0,0:0:0:0:
448,192,55649,1,0,0:0:0:0:
192,192,55731,1,0,0:0:0:0:
64,192,55812,1,0,0:0:0:0:
320,192,55975,1,0,0:0:0:0:
448,192,55975,1,0,0:0:0:0:
192,192,56057,1,0,0:0:0:0:
64,192,56138,1,0,0:0:0:0:
320,192,56301,1,0,0:0:0:0:
448,192,56301,1,0,0:0:0:0:
192,192,56383,1,0,0:0:0:0:
64,192,56464,1,0,0:0:0:0:
320,192,56546,1,0,0:0:0:0:
64,192,56627,1,0,0:0:0:0:
192,192,56627,1,0,0:0:0:0:
320,192,56709,1,0,0:0:0:0:
448,192,56790,1,0,0:0:0:0:
64,192,56954,1,0,0:0:0:0:
192,192,56954,1,0,0:0:0:0:
320,192,57035,1,0,0:0:0:0:
448,192,57117,1,0,0:0:0:0:
64,192,57280,1,0,0:0:0:0:
192,192,57280,1,0,0:0:0:0:
320,192,57361,1,0,0:0:0:0:
448,192,57443,1,0,0:0:0:0:
64,192,57606,1,0,0:0:0:0:
192,192,57606,1,0,0:0:0:0:
320,192,57687,1,0,0:0:0:0:
448,192,57769,1,0,0:0:0:0:
320,192,57932,1,0,0:0:0:0:
448,192,57932,1,0,0:0:0:0:
192,192,58013,1,0,0:0:0:0:
64,192,58095,1,0,0:0:0:0:
320,192,58176,1,0,0:0:0:0:
448,192,58176,1,0,0:0:0:0:
192,192,58258,1,0,0:0:0:0:
64,192,58258,1,0,0:0:0:0:
320,192,58339,1,0,0:0:0:0:
448,192,58421,1,0,0:0:0:0:
64,192,58584,1,0,0:0:0:0:
192,192,58584,1,0,0:0:0:0:
320,192,58665,1,0,0:0:0:0:
448,192,58747,1,0,0:0:0:0:
64,192,58910,1,0,0:0:0:0:
192,192,58910,1,0,0:0:0:0:
320,192,58992,1,0,0:0:0:0:
448,192,59073,1,0,0:0:0:0:
64,192,59155,1,0,0:0:0:0:
192,192,59155,1,0,0:0:0:0:
320,192,59236,1,0,0:0:0:0:
448,192,59236,1,0,0:0:0:0:
192,192,59318,1,0,0:0:0:0:
64,192,59399,1,0,0:0:0:0:
320,192,59562,1,0,0:0:0:0:
448,192,59562,1,0,0:0:0:0:
192,192,59644,1,0,0:0:0:0:
64,192,59725,1,0,0:0:0:0:
448,192,59888,1,0,0:0:0:0:
320,192,59888,1,0,0:0:0:0:
192,192,59970,1,0,0:0:0:0:
320,192,60051,1,0,0:0:0:0:
64,192,60214,1,0,0:0:0:0:
192,192,60214,1,0,0:0:0:0:
320,192,60296,1,0,0:0:0:0:
192,192,60377,1,0,0:0:0:0:
320,192,60540,1,0,0:0:0:0:
64,192,60540,1,0,0:0:0:0:
448,192,60540,1,0,0:0:0:0:
192,192,60622,1,0,0:0:0:0:
320,192,60704,1,0,0:0:0:0:
64,192,60785,1,0,0:0:0:0:
192,192,60867,1,0,0:0:0:0:
448,192,60867,1,0,0:0:0:0:
320,192,60948,1,0,0:0:0:0:
192,192,61030,1,0,0:0:0:0:
64,192,61193,1,0,0:0:0:0:
320,192,61193,1,0,0:0:0:0:
192,192,61274,1,0,0:0:0:0:
320,192,61356,1,0,0:0:0:0:
192,192,61519,1,0,0:0:0:0:
448,192,61519,1,0,0:0:0:0:
320,192,61600,1,0,0:0:0:0:
192,192,61682,1,0,0:0:0:0:
320,192,61763,1,0,0:0:0:0:
448,192,61763,1,0,0:0:0:0:
192,192,61845,1,0,0:0:0:0:
64,192,61845,1,0,0:0:0:0:
64,192,62089,1,0,0:0:0:0:
192,192,62171,1,0,0:0:0:0:
320,192,62171,1,0,0:0:0:0:
448,192,62252,1,0,0:0:0:0:
320,192,62334,1,0,0:0:0:0:
64,192,62497,1,0,0:0:0:0:
192,192,62497,1,0,0:0:0:0:
320,192,62579,1,0,0:0:0:0:
192,192,62660,1,0,0:0:0:0:
192,192,62823,1,0,0:0:0:0:
320,192,62823,1,0,0:0:0:0:
64,192,62905,1,0,0:0:0:0:
192,192,62986,1,0,0:0:0:0:
320,192,63149,128,0,65269:0:0:0:0:
448,192,65432,128,0,65758:0:0:0:0:
64,192,65758,1,0,0:0:0:0:
192,192,65758,1,0,0:0:0:0:
320,192,65758,1,0,0:0:0:0:
448,192,65839,1,0,0:0:0:0:
64,192,65921,1,0,0:0:0:0:
192,192,66002,1,0,0:0:0:0:
64,192,66084,1,0,0:0:0:0:
320,192,66084,1,0,0:0:0:0:
448,192,66084,1,0,0:0:0:0:
192,192,66165,1,0,0:0:0:0:
448,192,66247,1,0,0:0:0:0:
192,192,66329,1,0,0:0:0:0:
320,192,66410,1,0,0:0:0:0:
64,192,66410,1,0,0:0:0:0:
448,192,66492,1,0,0:0:0:0:
64,192,66573,1,0,0:0:0:0:
192,192,66655,1,0,0:0:0:0:
320,192,66736,1,0,0:0:0:0:
64,192,66736,1,0,0:0:0:0:
448,192,66736,1,0,0:0:0:0:
192,192,66818,1,0,0:0:0:0:
448,192,66899,1,0,0:0:0:0:
192,192,66981,1,0,0:0:0:0:
64,192,67062,1,0,0:0:0:0:
320,192,67062,1,0,0:0:0:0:
448,192,67144,1,0,0:0:0:0:
64,192,67225,1,0,0:0:0:0:
192,192,67307,1,0,0:0:0:0:
64,192,67388,1,0,0:0:0:0:
320,192,67388,1,0,0:0:0:0:
448,192,67388,1,0,0:0:0:0:
192,192,67470,1,0,0:0:0:0:
448,192,67551,1,0,0:0:0:0:
192,192,67633,1,0,0:0:0:0:
64,192,67714,1,0,0:0:0:0:
320,192,67714,1,0,0:0:0:0:
448,192,67796,1,0,0:0:0:0:
64,192,67877,1,0,0:0:0:0:
192,192,67959,1,0,0:0:0:0:
64,192,68040,1,0,0:0:0:0:
320,192,68040,1,0,0:0:0:0:
448,192,68040,1,0,0:0:0:0:
192,192,68122,1,0,0:0:0:0:
448,192,68204,1,0,0:0:0:0:
192,192,68285,1,0,0:0:0:0:
320,192,68367,1,0,0:0:0:0:
64,192,68367,1,0,0:0:0:0:
448,192,68448,1,0,0:0:0:0:
64,192,68530,1,0,0:0:0:0:
192,192,68611,1,0,0:0:0:0:
64,192,68693,1,0,0:0:0:0:
320,192,68693,1,0,0:0:0:0:
448,192,68693,1,0,0:0:0:0:
192,192,68774,1,0,0:0:0:0:
448,192,68856,1,0,0:0:0:0:
192,192,68937,1,0,0:0:0:0:
64,192,69019,1,0,0:0:0:0:
320,192,69019,1,0,0:0:0:0:
448,192,69100,1,0,0:0:0:0:
64,192,69182,1,0,0:0:0:0:
192,192,69263,1,0,0:0:0:0:
448,192,69345,1,0,0:0:0:0:
320,192,69345,1,0,0:0:0:0:
64,192,69345,1,0,0:0:0:0:
192,192,69426,1,0,0:0:0:0:
448,192,69508,1,0,0:0:0:0:
192,192,69589,1,0,0:0:0:0:
320,192,69671,1,0,0:0:0:0:
64,192,69671,1,0,0:0:0:0:
448,192,69752,1,0,0:0:0:0:
64,192,69834,1,0,0:0:0:0:
192,192,69915,1,0,0:0:0:0:
320,192,69997,1,0,0:0:0:0:
448,192,69997,1,0,0:0:0:0:
64,192,69997,1,0,0:0:0:0:
192,192,70079,1,0,0:0:0:0:
448,192,70160,1,0,0:0:0:0:
192,192,70242,1,0,0:0:0:0:
64,192,70323,1,0,0:0:0:0:
320,192,70323,1,0,0:0:0:0:
448,192,70405,1,0,0:0:0:0:
64,192,70486,1,0,0:0:0:0:
192,192,70568,1,0,0:0:0:0:
448,192,70649,1,0,0:0:0:0:
320,192,70649,1,0,0:0:0:0:
64,192,70649,1,0,0:0:0:0:
192,192,70731,1,0,0:0:0:0:
448,192,70812,1,0,0:0:0:0:
192,192,70894,1,0,0:0:0:0:
320,192,70975,1,0,0:0:0:0:
64,192,70975,1,0,0:0:0:0:
448,192,71057,1,0,0:0:0:0:
64,192,71138,1,0,0:0:0:0:
192,192,71220,1,0,0:0:0:0:
64,192,71301,1,0,0:0:0:0:
320,192,71301,1,0,0:0:0:0:
448,192,71301,1,0,0:0:0:0:
192,192,71383,1,0,0:0:0:0:
448,192,71464,1,0,0:0:0:0:
192,192,71546,1,0,0:0:0:0:
64,192,71627,1,0,0:0:0:0:
320,192,71627,1,0,0:0:0:0:
448,192,71709,1,0,0:0:0:0:
64,192,71790,1,0,0:0:0:0:
192,192,71872,1,0,0:0:0:0:
64,192,71954,1,0,0:0:0:0:
448,192,71954,1,0,0:0:0:0:
320,192,71954,1,0,0:0:0:0:
192,192,72035,1,0,0:0:0:0:
448,192,72117,1,0,0:0:0:0:
192,192,72198,1,0,0:0:0:0:
320,192,72280,1,0,0:0:0:0:
64,192,72280,1,0,0:0:0:0:
448,192,72361,1,0,0:0:0:0:
64,192,72443,1,0,0:0:0:0:
192,192,72524,1,0,0:0:0:0:
64,192,72606,1,0,0:0:0:0:
320,192,72606,1,0,0:0:0:0:
448,192,72606,1,0,0:0:0:0:
192,192,72687,1,0,0:0:0:0:
448,192,72769,1,0,0:0:0:0:
192,192,72850,1,0,0:0:0:0:
64,192,72932,1,0,0:0:0:0:
320,192,72932,1,0,0:0:0:0:
448,192,73013,1,0,0:0:0:0:
64,192,73095,1,0,0:0:0:0:
192,192,73176,1,0,0:0:0:0:
448,192,73258,1,0,0:0:0:0:
320,192,73258,1,0,0:0:0:0:
64,192,73258,1,0,0:0:0:0:
192,192,73339,1,0,0:0:0:0:
448,192,73421,1,0,0:0:0:0:
192,192,73502,1,0,0:0:0:0:
320,192,73584,1,0,0:0:0:0:
64,192,73584,1,0,0:0:0:0:
448,192,73665,1,0,0:0:0:0:
64,192,73747,1,0,0:0:0:0:
192,192,73829,1,0,0:0:0:0:
320,192,73910,1,0,0:0:0:0:
448,192,73910,1,0,0:0:0:0:
64,192,73910,1,0,0:0:0:0:
192,192,73992,1,0,0:0:0:0:
448,192,74073,1,0,0:0:0:0:
320,192,74073,1,0,0:0:0:0:
192,192,74155,1,0,0:0:0:0:
64,192,74236,1,0,0:0:0:0:
320,192,74236,1,0,0:0:0:0:
448,192,74318,1,0,0:0:0:0:
64,192,74399,1,0,0:0:0:0:
320,192,74399,1,0,0:0:0:0:
192,192,74481,1,0,0:0:0:0:
448,192,74562,1,0,0:0:0:0:
320,192,74562,1,0,0:0:0:0:
64,192,74562,1,0,0:0:0:0:
192,192,74644,1,0,0:0:0:0:
320,192,74725,1,0,0:0:0:0:
448,192,74807,1,0,0:0:0:0:
320,192,74888,1,0,0:0:0:0:
64,192,74888,1,0,0:0:0:0:
192,192,74970,1,0,0:0:0:0:
320,192,75051,1,0,0:0:0:0:
192,192,75133,1,0,0:0:0:0:
64,192,75214,1,0,0:0:0:0:
320,192,75214,1,0,0:0:0:0:
448,192,75214,1,0,0:0:0:0:
192,192,75296,1,0,0:0:0:0:
320,192,75377,1,0,0:0:0:0:
448,192,75459,1,0,0:0:0:0:
64,192,75540,1,0,0:0:0:0:
320,192,75540,1,0,0:0:0:0:
192,192,75622,1,0,0:0:0:0:
64,192,75704,1,0,0:0:0:0:
320,192,75704,1,0,0:0:0:0:
192,192,75785,1,0,0:0:0:0:
64,192,75867,1,0,0:0:0:0:
448,192,75867,1,0,0:0:0:0:
320,192,75867,1,0,0:0:0:0:
192,192,76193,1,0,0:0:0:0:
448,192,76193,1,0,0:0:0:0:
320,192,76193,1,0,0:0:0:0:
64,192,76274,1,0,0:0:0:0:
448,192,76356,1,0,0:0:0:0:
320,192,76437,1,0,0:0:0:0:
192,192,76519,1,0,0:0:0:0:
64,192,76519,1,0,0:0:0:0:
448,192,76519,1,0,0:0:0:0:
320,192,76600,1,0,0:0:0:0:
64,192,76682,1,0,0:0:0:0:
320,192,76763,1,0,0:0:0:0:
192,192,76845,1,0,0:0:0:0:
448,192,76845,1,0,0:0:0:0:
64,192,76926,1,0,0:0:0:0:
448,192,77008,1,0,0:0:0:0:
320,192,77089,1,0,0:0:0:0:
448,192,77171,1,0,0:0:0:0:
192,192,77171,1,0,0:0:0:0:
64,192,77171,1,0,0:0:0:0:
320,192,77252,1,0,0:0:0:0:
64,192,77334,1,0,0:0:0:0:
320,192,77415,1,0,0:0:0:0:
448,192,77497,1,0,0:0:0:0:
192,192,77497,1,0,0:0:0:0:
64,192,77579,1,0,0:0:0:0:
448,192,77660,1,0,0:0:0:0:
320,192,77742,1,0,0:0:0:0:
64,192,77823,1,0,0:0:0:0:
192,192,77823,1,0,0:0:0:0:
448,192,77823,1,0,0:0:0:0:
320,192,77905,1,0,0:0:0:0:
64,192,77986,1,0,0:0:0:0:
320,192,78068,1,0,0:0:0:0:
192,192,78149,1,0,0:0:0:0:
448,192,78149,1,0,0:0:0:0:
64,192,78231,1,0,0:0:0:0:
448,192,78312,1,0,0:0:0:0:
320,192,78394,1,0,0:0:0:0:
192,192,78475,1,0,0:0:0:0:
64,192,78475,1,0,0:0:0:0:
448,192,78475,1,0,0:0:0:0:
320,192,78557,1,0,0:0:0:0:
64,192,78638,1,0,0:0:0:0:
320,192,78720,1,0,0:0:0:0:
192,192,78801,1,0,0:0:0:0:
448,192,78801,1,0,0:0:0:0:
64,192,78883,1,0,0:0:0:0:
448,192,78964,1,0,0:0:0:0:
320,192,79046,1,0,0:0:0:0:
448,192,79127,1,0,0:0:0:0:
192,192,79127,1,0,0:0:0:0:
64,192,79127,1,0,0:0:0:0:
320,192,79209,1,0,0:0:0:0:
64,192,79290,1,0,0:0:0:0:
320,192,79372,1,0,0:0:0:0:
448,192,79454,1,0,0:0:0:0:
192,192,79454,1,0,0:0:0:0:
64,192,79535,1,0,0:0:0:0:
448,192,79617,1,0,0:0:0:0:
320,192,79698,1,0,0:0:0:0:
448,192,79780,1,0,0:0:0:0:
64,192,79780,1,0,0:0:0:0:
192,192,79780,1,0,0:0:0:0:
320,192,79861,1,0,0:0:0:0:
64,192,79943,1,0,0:0:0:0:
320,192,80024,1,0,0:0:0:0:
448,192,80106,1,0,0:0:0:0:
192,192,80106,1,0,0:0:0:0:
64,192,80187,1,0,0:0:0:0:
448,192,80269,1,0,0:0:0:0:
320,192,80350,1,0,0:0:0:0:
448,192,80432,1,0,0:0:0:0:
64,192,80432,1,0,0:0:0:0:
192,192,80432,1,0,0:0:0:0:
320,192,80513,1,0,0:0:0:0:
64,192,80595,1,0,0:0:0:0:
320,192,80676,1,0,0:0:0:0:
192,192,80758,1,0,0:0:0:0:
448,192,80758,1,0,0:0:0:0:
64,192,80839,1,0,0:0:0:0:
448,192,80921,1,0,0:0:0:0:
320,192,81002,1,0,0:0:0:0:
448,192,81084,1,0,0:0:0:0:
192,192,81084,1,0,0:0:0:0:
64,192,81084,1,0,0:0:0:0:
320,192,81165,1,0,0:0:0:0:
64,192,81247,1,0,0:0:0:0:
320,192,81329,1,0,0:0:0:0:
448,192,81410,1,0,0:0:0:0:
192,192,81410,1,0,0:0:0:0:
64,192,81492,1,0,0:0:0:0:
448,192,81573,1,0,0:0:0:0:
320,192,81655,1,0,0:0:0:0:
192,192,81736,1,0,0:0:0:0:
448,192,81736,1,0,0:0:0:0:
64,192,81736,1,0,0:0:0:0:
320,192,81818,1,0,0:0:0:0:
64,192,81899,1,0,0:0:0:0:
320,192,81981,1,0,0:0:0:0:
192,192,82062,1,0,0:0:0:0:
448,192,82062,1,0,0:0:0:0:
64,192,82144,1,0,0:0:0:0:
448,192,82225,1,0,0:0:0:0:
320,192,82307,1,0,0:0:0:0:
192,192,82388,1,0,0:0:0:0:
64,192,82388,1,0,0:0:0:0:
448,192,82388,1,0,0:0:0:0:
320,192,82470,1,0,0:0:0:0:
64,192,82551,1,0,0:0:0:0:
320,192,82633,1,0,0:0:0:0:
448,192,82714,1,0,0:0:0:0:
192,192,82714,1,0,0:0:0:0:
64,192,82796,1,0,0:0:0:0:
448,192,82877,1,0,0:0:0:0:
320,192,82959,1,0,0:0:0:0:
64,192,83040,1,0,0:0:0:0:
192,192,83040,1,0,0:0:0:0:
448,192,83040,1,0,0:0:0:0:
320,192,83122,1,0,0:0:0:0:
64,192,83204,1,0,0:0:0:0:
320,192,83285,1,0,0:0:0:0:
192,192,83367,1,0,0:0:0:0:
448,192,83367,1,0,0:0:0:0:
64,192,83448,1,0,0:0:0:0:
448,192,83530,1,0,0:0:0:0:
320,192,83611,1,0,0:0:0:0:
64,192,83693,1,0,0:0:0:0:
448,192,83693,1,0,0:0:0:0:
192,192,83693,1,0,0:0:0:0:
320,192,83774,1,0,0:0:0:0:
64,192,83856,1,0,0:0:0:0:
320,192,83937,1,0,0:0:0:0:
448,192,84019,1,0,0:0:0:0:
192,192,84019,128,0,85323:0:0:0:0:
64,192,84345,1,0,0:0:0:0:
448,192,84671,1,0,0:0:0:0:
64,192,84997,1,0,0:0:0:0:
448,192,85323,1,0,0:0:0:0:
320,192,85323,128,0,86627:0:0:0:0:
64,192,85486,1,0,0:0:0:0:
192,192,85649,1,0,0:0:0:0:
448,192,85812,1,0,0:0:0:0:
64,192,85975,1,0,0:0:0:0:
192,192,85975,1,0,0:0:0:0:
448,192,86301,128,0,86627:0:0:0:0:
192,192,86627,1,0,0:0:0:0:
64,192,86627,1,0,0:0:0:0:
