osu file format v13

[General]
AudioFilename: shinyshiny.mp3
AudioLeadIn: 2000
PreviewTime: 54134
Countdown: 0
SampleSet: None
StackLeniency: 0.5
Mode: 3
LetterboxInBreaks: 0
SpecialStyle: 0
WidescreenStoryboard: 1

[Editor]
DistanceSpacing: 1
BeatDivisor: 4
GridSize: 8
TimelineZoom: 1.4

[Metadata]
Title:Anime Endings Madness P.2
TitleUnicode:Anime Endings Madness P.2
Artist:FX
ArtistUnicode:FX
Creator:[FX] AEM
Version:SHINY SHINY [FX]
Source:
Tags:ending
BeatmapID:625271
BeatmapSetID:275629

[Difficulty]
HPDrainRate:8
CircleSize:4
OverallDifficulty:8
ApproachRate:0
SliderMultiplier:2.1
SliderTickRate:2

[Events]
//Background and Video events
//Break Periods
//Storyboard Layer 0 (Background)
//Storyboard Layer 1 (Fail)
//Storyboard Layer 2 (Pass)
//Storyboard Layer 3 (Foreground)
//Storyboard Sound Samples

[TimingPoints]
819,476.190476190476,4,2,0,20,1,0

[HitObjects]
64,192,819,128,0,8438:0:0:0:0:
448,192,2961,128,0,8438:0:0:0:0:
320,192,4866,128,0,8438:0:0:0:0:
192,192,6771,128,0,8438:0:0:0:0:
64,192,8914,1,0,0:0:0:0:
192,192,9390,1,0,0:0:0:0:
448,192,10104,1,0,0:0:0:0:
320,192,10580,1,0,0:0:0:0:
192,192,11057,128,0,11771:0:0:0:0:
320,192,12009,1,0,0:0:0:0:
448,192,12247,1,0,0:0:0:0:
320,192,12723,1,0,0:0:0:0:
192,192,12961,1,0,0:0:0:0:
320,192,13199,1,0,0:0:0:0:
192,192,13676,1,0,0:0:0:0:
320,192,13914,1,0,0:0:0:0:
448,192,14152,128,0,15104:0:0:0:0:
320,192,15104,128,0,16057:0:0:0:0:
192,192,16057,128,0,21771:0:0:0:0:
320,192,21771,128,0,22723:0:0:0:0:
192,192,22723,128,0,23676:0:0:0:0:
64,192,23676,1,0,0:0:0:0:
448,192,23676,128,0,23914:0:0:0:0:
320,192,24152,128,0,24390:0:0:0:0:
192,192,24628,128,0,24866:0:0:0:0:
320,192,24866,128,0,25104:0:0:0:0:
320,192,25342,1,0,0:0:0:0:
320,192,25580,128,0,25818:0:0:0:0:
192,192,25818,128,0,26057:0:0:0:0:
320,192,26057,128,0,26295:0:0:0:0:
192,192,26295,128,0,26652:0:0:0:0:
448,192,26771,128,0,27009:0:0:0:0:
448,192,27247,1,0,0:0:0:0:
320,192,27485,128,0,27723:0:0:0:0:
192,192,27961,128,0,28199:0:0:0:0:
320,192,28438,128,0,28676:0:0:0:0:
64,192,28676,128,0,28914:0:0:0:0:
320,192,29390,128,0,30342:0:0:0:0:
448,192,29866,128,0,30104:0:0:0:0:
192,192,30342,128,0,31295:0:0:0:0:
64,192,30580,128,0,30818:0:0:0:0:
64,192,31295,128,0,33199:0:0:0:0:
320,192,31295,128,0,31533:0:0:0:0:
448,192,31771,128,0,32009:0:0:0:0:
320,192,32247,1,0,0:0:0:0:
192,192,32485,128,0,32723:0:0:0:0:
448,192,33199,128,0,35104:0:0:0:0:
192,192,33199,128,0,33438:0:0:0:0:
64,192,33676,128,0,33914:0:0:0:0:
320,192,34390,1,0,0:0:0:0:
192,192,34628,128,0,34866:0:0:0:0:
320,192,35104,128,0,37009:0:0:0:0:
64,192,35104,128,0,35342:0:0:0:0:
448,192,35580,128,0,35818:0:0:0:0:
192,192,36057,1,0,0:0:0:0:
64,192,36295,128,0,36533:0:0:0:0:
192,192,37009,128,0,37485:0:0:0:0:
448,192,37485,128,0,38914:0:0:0:0:
64,192,37961,1,0,0:0:0:0:
192,192,37961,1,0,0:0:0:0:
64,192,38199,128,0,38438:0:0:0:0:
192,192,38438,1,0,0:0:0:0:
320,192,38438,1,0,0:0:0:0:
64,192,38676,1,0,0:0:0:0:
320,192,38795,1,0,0:0:0:0:
192,192,38914,1,0,0:0:0:0:
64,192,38914,1,0,0:0:0:0:
320,192,39152,1,0,0:0:0:0:
192,192,39390,1,0,0:0:0:0:
64,192,39390,1,0,0:0:0:0:
448,192,39628,1,0,0:0:0:0:
448,192,39747,1,0,0:0:0:0:
320,192,39866,1,0,0:0:0:0:
192,192,39866,1,0,0:0:0:0:
64,192,40104,1,0,0:0:0:0:
192,192,40342,1,0,0:0:0:0:
448,192,40342,1,0,0:0:0:0:
320,192,40580,1,0,0:0:0:0:
192,192,40818,1,0,0:0:0:0:
448,192,40818,1,0,0:0:0:0:
320,192,41057,1,0,0:0:0:0:
192,192,41295,1,0,0:0:0:0:
448,192,41295,1,0,0:0:0:0:
320,192,41533,1,0,0:0:0:0:
192,192,41652,1,0,0:0:0:0:
320,192,41771,1,0,0:0:0:0:
448,192,41771,1,0,0:0:0:0:
64,192,42009,1,0,0:0:0:0:
320,192,42247,1,0,0:0:0:0:
448,192,42247,1,0,0:0:0:0:
192,192,42485,1,0,0:0:0:0:
192,192,42604,1,0,0:0:0:0:
320,192,42723,1,0,0:0:0:0:
448,192,42723,1,0,0:0:0:0:
64,192,42961,1,0,0:0:0:0:
192,192,43199,1,0,0:0:0:0:
320,192,43199,1,0,0:0:0:0:
448,192,43438,1,0,0:0:0:0:
448,192,43557,1,0,0:0:0:0:
192,192,43676,1,0,0:0:0:0:
64,192,43676,1,0,0:0:0:0:
320,192,43914,128,0,44628:0:0:0:0:
192,192,44152,1,0,0:0:0:0:
64,192,44152,1,0,0:0:0:0:
448,192,44390,1,0,0:0:0:0:
192,192,44628,1,0,0:0:0:0:
64,192,44628,1,0,0:0:0:0:
448,192,44866,1,0,0:0:0:0:
320,192,44985,1,0,0:0:0:0:
320,192,45104,1,0,0:0:0:0:
64,192,45104,1,0,0:0:0:0:
192,192,45223,1,0,0:0:0:0:
64,192,45342,1,0,0:0:0:0:
64,192,45461,1,0,0:0:0:0:
320,192,45580,1,0,0:0:0:0:
448,192,45580,128,0,45818:0:0:0:0:
192,192,45818,128,0,46057:0:0:0:0:
64,192,45818,1,0,0:0:0:0:
448,192,46057,128,0,46295:0:0:0:0:
320,192,46295,1,0,0:0:0:0:
64,192,46295,1,0,0:0:0:0:
192,192,46414,1,0,0:0:0:0:
448,192,46414,1,0,0:0:0:0:
64,192,46533,1,0,0:0:0:0:
192,192,46533,1,0,0:0:0:0:
320,192,46533,128,0,46890:0:0:0:0:
448,192,46771,1,0,0:0:0:0:
192,192,46890,128,0,47247:0:0:0:0:
64,192,46890,1,0,0:0:0:0:
448,192,47009,1,0,0:0:0:0:
64,192,47247,128,0,47485:0:0:0:0:
320,192,47247,1,0,0:0:0:0:
320,192,47366,1,0,0:0:0:0:
192,192,47485,1,0,0:0:0:0:
448,192,47485,1,0,0:0:0:0:
448,192,47723,1,0,0:0:0:0:
320,192,47723,128,0,48438:0:0:0:0:
192,192,47961,1,0,0:0:0:0:
64,192,47961,1,0,0:0:0:0:
448,192,48199,1,0,0:0:0:0:
192,192,48438,1,0,0:0:0:0:
64,192,48438,1,0,0:0:0:0:
448,192,48676,1,0,0:0:0:0:
192,192,48914,1,0,0:0:0:0:
64,192,48914,1,0,0:0:0:0:
320,192,49152,1,0,0:0:0:0:
448,192,49271,1,0,0:0:0:0:
64,192,49390,1,0,0:0:0:0:
192,192,49390,1,0,0:0:0:0:
320,192,49628,128,0,49866:0:0:0:0:
192,192,49866,1,0,0:0:0:0:
64,192,49866,128,0,50104:0:0:0:0:
320,192,50104,128,0,50342:0:0:0:0:
448,192,50104,1,0,0:0:0:0:
448,192,50223,1,0,0:0:0:0:
192,192,50342,1,0,0:0:0:0:
64,192,50342,128,0,50699:0:0:0:0:
448,192,50580,1,0,0:0:0:0:
192,192,50699,128,0,51057:0:0:0:0:
448,192,50818,1,0,0:0:0:0:
320,192,50818,1,0,0:0:0:0:
448,192,51057,128,0,51533:0:0:0:0:
64,192,51057,1,0,0:0:0:0:
320,192,51176,1,0,0:0:0:0:
192,192,51295,1,0,0:0:0:0:
64,192,51295,1,0,0:0:0:0:
320,192,51533,128,0,52247:0:0:0:0:
192,192,51771,1,0,0:0:0:0:
64,192,51771,1,0,0:0:0:0:
448,192,52009,128,0,52247:0:0:0:0:
192,192,52247,1,0,0:0:0:0:
64,192,52247,1,0,0:0:0:0:
320,192,52485,1,0,0:0:0:0:
64,192,52485,1,0,0:0:0:0:
448,192,52485,1,0,0:0:0:0:
448,192,52723,1,0,0:0:0:0:
320,192,52723,1,0,0:0:0:0:
64,192,52723,1,0,0:0:0:0:
192,192,52961,1,0,0:0:0:0:
320,192,53080,1,0,0:0:0:0:
192,192,53199,1,0,0:0:0:0:
64,192,53199,1,0,0:0:0:0:
448,192,53199,1,0,0:0:0:0:
320,192,53438,1,0,0:0:0:0:
448,192,53557,1,0,0:0:0:0:
192,192,53557,1,0,0:0:0:0:
64,192,53557,1,0,0:0:0:0:
64,192,53914,1,0,0:0:0:0:
192,192,53914,1,0,0:0:0:0:
448,192,54033,1,0,0:0:0:0:
320,192,54033,1,0,0:0:0:0:
192,192,54152,1,0,0:0:0:0:
64,192,54152,128,0,54390:0:0:0:0:
320,192,54390,1,0,0:0:0:0:
448,192,54390,1,0,0:0:0:0:
320,192,54509,1,0,0:0:0:0:
192,192,54509,1,0,0:0:0:0:
192,192,54628,1,0,0:0:0:0:
64,192,54628,1,0,0:0:0:0:
448,192,54628,128,0,54866:0:0:0:0:
64,192,54866,128,0,55104:0:0:0:0:
192,192,55104,1,0,0:0:0:0:
320,192,55104,1,0,0:0:0:0:
448,192,55104,1,0,0:0:0:0:
64,192,55342,1,0,0:0:0:0:
192,192,55342,1,0,0:0:0:0:
192,192,55461,1,0,0:0:0:0:
320,192,55461,1,0,0:0:0:0:
320,192,55580,1,0,0:0:0:0:
64,192,55580,1,0,0:0:0:0:
448,192,55580,128,0,55818:0:0:0:0:
320,192,55818,1,0,0:0:0:0:
192,192,55818,128,0,56057:0:0:0:0:
64,192,56057,1,0,0:0:0:0:
320,192,56057,1,0,0:0:0:0:
448,192,56057,1,0,0:0:0:0:
192,192,56295,1,0,0:0:0:0:
64,192,56295,1,0,0:0:0:0:
448,192,56295,1,0,0:0:0:0:
192,192,56533,1,0,0:0:0:0:
448,192,56533,1,0,0:0:0:0:
64,192,56533,128,0,56771:0:0:0:0:
320,192,56771,1,0,0:0:0:0:
192,192,56771,128,0,57009:0:0:0:0:
64,192,57009,1,0,0:0:0:0:
320,192,57009,1,0,0:0:0:0:
448,192,57009,128,0,57247:0:0:0:0:
64,192,57247,1,0,0:0:0:0:
192,192,57247,1,0,0:0:0:0:
192,192,57366,1,0,0:0:0:0:
320,192,57366,1,0,0:0:0:0:
320,192,57485,1,0,0:0:0:0:
448,192,57485,1,0,0:0:0:0:
64,192,57485,128,0,57723:0:0:0:0:
448,192,57723,128,0,57961:0:0:0:0:
192,192,57723,1,0,0:0:0:0:
64,192,57842,1,0,0:0:0:0:
320,192,57842,1,0,0:0:0:0:
192,192,57961,1,0,0:0:0:0:
320,192,57961,1,0,0:0:0:0:
64,192,58199,1,0,0:0:0:0:
448,192,58199,1,0,0:0:0:0:
192,192,58318,1,0,0:0:0:0:
320,192,58318,1,0,0:0:0:0:
64,192,58438,1,0,0:0:0:0:
448,192,58438,1,0,0:0:0:0:
320,192,58438,1,0,0:0:0:0:
448,192,58676,1,0,0:0:0:0:
64,192,58676,1,0,0:0:0:0:
320,192,58795,1,0,0:0:0:0:
192,192,58795,1,0,0:0:0:0:
192,192,58914,1,0,0:0:0:0:
448,192,58914,1,0,0:0:0:0:
64,192,58914,1,0,0:0:0:0:
192,192,59152,1,0,0:0:0:0:
64,192,59152,1,0,0:0:0:0:
192,192,59271,1,0,0:0:0:0:
320,192,59271,1,0,0:0:0:0:
320,192,59390,1,0,0:0:0:0:
64,192,59390,1,0,0:0:0:0:
448,192,59390,128,0,59628:0:0:0:0:
64,192,59628,128,0,59866:0:0:0:0:
192,192,59628,1,0,0:0:0:0:
192,192,59866,1,0,0:0:0:0:
320,192,59866,1,0,0:0:0:0:
448,192,59866,1,0,0:0:0:0:
448,192,60104,1,0,0:0:0:0:
448,192,60342,1,0,0:0:0:0:
320,192,60342,1,0,0:0:0:0:
64,192,60342,1,0,0:0:0:0:
192,192,60580,1,0,0:0:0:0:
320,192,60580,1,0,0:0:0:0:
192,192,60818,1,0,0:0:0:0:
448,192,60818,1,0,0:0:0:0:
64,192,60818,1,0,0:0:0:0:
320,192,61057,1,0,0:0:0:0:
192,192,61176,1,0,0:0:0:0:
448,192,61176,1,0,0:0:0:0:
320,192,61295,1,0,0:0:0:0:
192,192,61295,1,0,0:0:0:0:
64,192,61295,1,0,0:0:0:0:
64,192,61533,1,0,0:0:0:0:
320,192,61533,1,0,0:0:0:0:
448,192,61533,1,0,0:0:0:0:
448,192,61652,1,0,0:0:0:0:
320,192,61652,1,0,0:0:0:0:
192,192,61652,1,0,0:0:0:0:
192,192,61771,1,0,0:0:0:0:
320,192,61771,1,0,0:0:0:0:
64,192,61771,1,0,0:0:0:0:
192,192,62009,1,0,0:0:0:0:
64,192,62009,1,0,0:0:0:0:
320,192,62128,1,0,0:0:0:0:
192,192,62128,1,0,0:0:0:0:
64,192,62247,1,0,0:0:0:0:
448,192,62247,1,0,0:0:0:0:
320,192,62247,1,0,0:0:0:0:
192,192,62485,128,0,62723:0:0:0:0:
320,192,62723,1,0,0:0:0:0:
64,192,62723,1,0,0:0:0:0:
448,192,62723,1,0,0:0:0:0:
192,192,62961,128,0,63199:0:0:0:0:
448,192,62961,1,0,0:0:0:0:
320,192,63080,1,0,0:0:0:0:
64,192,63080,1,0,0:0:0:0:
320,192,63199,1,0,0:0:0:0:
448,192,63199,1,0,0:0:0:0:
64,192,63438,1,0,0:0:0:0:
192,192,63438,1,0,0:0:0:0:
320,192,63438,1,0,0:0:0:0:
192,192,63676,1,0,0:0:0:0:
448,192,63676,1,0,0:0:0:0:
320,192,63676,1,0,0:0:0:0:
64,192,63914,1,0,0:0:0:0:
192,192,64152,1,0,0:0:0:0:
64,192,64152,1,0,0:0:0:0:
448,192,64152,1,0,0:0:0:0:
320,192,64390,128,0,64628:0:0:0:0:
448,192,64628,1,0,0:0:0:0:
192,192,64628,128,0,64866:0:0:0:0:
64,192,64628,1,0,0:0:0:0:
320,192,64866,128,0,65104:0:0:0:0:
448,192,64866,1,0,0:0:0:0:
64,192,64985,1,0,0:0:0:0:
448,192,65104,128,0,65342:0:0:0:0:
192,192,65104,1,0,0:0:0:0:
320,192,65342,1,0,0:0:0:0:
64,192,65342,1,0,0:0:0:0:
192,192,65461,1,0,0:0:0:0:
448,192,65461,1,0,0:0:0:0:
320,192,65580,1,0,0:0:0:0:
192,192,65580,1,0,0:0:0:0:
64,192,65580,1,0,0:0:0:0:
448,192,65818,1,0,0:0:0:0:
64,192,65818,1,0,0:0:0:0:
192,192,65938,1,0,0:0:0:0:
320,192,65938,1,0,0:0:0:0:
320,192,66057,1,0,0:0:0:0:
64,192,66057,1,0,0:0:0:0:
448,192,66057,1,0,0:0:0:0:
192,192,66295,1,0,0:0:0:0:
320,192,66414,1,0,0:0:0:0:
192,192,66533,1,0,0:0:0:0:
64,192,66533,1,0,0:0:0:0:
448,192,66533,1,0,0:0:0:0:
320,192,66771,1,0,0:0:0:0:
448,192,66771,1,0,0:0:0:0:
320,192,66890,1,0,0:0:0:0:
192,192,66890,1,0,0:0:0:0:
192,192,67009,1,0,0:0:0:0:
64,192,67009,1,0,0:0:0:0:
448,192,67009,128,0,67247:0:0:0:0:
64,192,67247,128,0,67485:0:0:0:0:
320,192,67247,1,0,0:0:0:0:
320,192,67485,1,0,0:0:0:0:
448,192,67485,1,0,0:0:0:0:
192,192,67485,128,0,68914:0:0:0:0:
64,192,67723,1,0,0:0:0:0:
320,192,67961,1,0,0:0:0:0:
448,192,67961,1,0,0:0:0:0:
64,192,68199,1,0,0:0:0:0:
448,192,68199,1,0,0:0:0:0:
448,192,68318,1,0,0:0:0:0:
320,192,68438,1,0,0:0:0:0:
64,192,68438,1,0,0:0:0:0:
64,192,68557,1,0,0:0:0:0:
320,192,68557,1,0,0:0:0:0:
320,192,68676,1,0,0:0:0:0:
448,192,68676,1,0,0:0:0:0:
448,192,68795,1,0,0:0:0:0:
320,192,68914,1,0,0:0:0:0:
64,192,68914,1,0,0:0:0:0:
448,192,68914,1,0,0:0:0:0:
192,192,69152,1,0,0:0:0:0:
320,192,69152,1,0,0:0:0:0:
448,192,69271,1,0,0:0:0:0:
64,192,69271,1,0,0:0:0:0:
320,192,69390,1,0,0:0:0:0:
192,192,69390,1,0,0:0:0:0:
64,192,69390,1,0,0:0:0:0:
448,192,69628,1,0,0:0:0:0:
64,192,69747,1,0,0:0:0:0:
192,192,69747,1,0,0:0:0:0:
320,192,69866,1,0,0:0:0:0:
192,192,69866,1,0,0:0:0:0:
448,192,69866,128,0,70104:0:0:0:0:
320,192,70104,1,0,0:0:0:0:
64,192,70104,128,0,70342:0:0:0:0:
192,192,70342,1,0,0:0:0:0:
320,192,70342,1,0,0:0:0:0:
448,192,70342,1,0,0:0:0:0:
64,192,70580,1,0,0:0:0:0:
192,192,70580,1,0,0:0:0:0:
192,192,70699,1,0,0:0:0:0:
320,192,70699,1,0,0:0:0:0:
320,192,70818,1,0,0:0:0:0:
448,192,70818,1,0,0:0:0:0:
64,192,70818,1,0,0:0:0:0:
192,192,71057,1,0,0:0:0:0:
64,192,71057,1,0,0:0:0:0:
448,192,71057,1,0,0:0:0:0:
320,192,71295,1,0,0:0:0:0:
192,192,71295,1,0,0:0:0:0:
448,192,71295,1,0,0:0:0:0:
64,192,71533,1,0,0:0:0:0:
192,192,71652,1,0,0:0:0:0:
64,192,71771,1,0,0:0:0:0:
320,192,71771,1,0,0:0:0:0:
448,192,71771,1,0,0:0:0:0:
192,192,72009,128,0,72247:0:0:0:0:
320,192,72247,1,0,0:0:0:0:
64,192,72247,1,0,0:0:0:0:
192,192,72485,1,0,0:0:0:0:
448,192,72485,1,0,0:0:0:0:
320,192,72604,1,0,0:0:0:0:
64,192,72604,1,0,0:0:0:0:
192,192,72723,1,0,0:0:0:0:
320,192,72723,1,0,0:0:0:0:
448,192,72723,1,0,0:0:0:0:
64,192,72961,1,0,0:0:0:0:
192,192,72961,1,0,0:0:0:0:
320,192,73080,1,0,0:0:0:0:
448,192,73080,1,0,0:0:0:0:
320,192,73199,1,0,0:0:0:0:
192,192,73199,1,0,0:0:0:0:
64,192,73199,1,0,0:0:0:0:
448,192,73438,1,0,0:0:0:0:
320,192,73438,1,0,0:0:0:0:
192,192,73557,1,0,0:0:0:0:
320,192,73676,1,0,0:0:0:0:
64,192,73676,1,0,0:0:0:0:
448,192,73676,1,0,0:0:0:0:
192,192,73914,1,0,0:0:0:0:
320,192,73914,1,0,0:0:0:0:
192,192,74152,1,0,0:0:0:0:
64,192,74152,1,0,0:0:0:0:
448,192,74152,1,0,0:0:0:0:
320,192,74390,1,0,0:0:0:0:
192,192,74390,1,0,0:0:0:0:
64,192,74509,1,0,0:0:0:0:
320,192,74509,1,0,0:0:0:0:
192,192,74628,1,0,0:0:0:0:
320,192,74628,1,0,0:0:0:0:
448,192,74628,1,0,0:0:0:0:
64,192,74866,1,0,0:0:0:0:
192,192,74866,1,0,0:0:0:0:
320,192,74866,1,0,0:0:0:0:
448,192,75104,1,0,0:0:0:0:
64,192,75104,1,0,0:0:0:0:
320,192,75104,1,0,0:0:0:0:
192,192,75342,1,0,0:0:0:0:
448,192,75461,1,0,0:0:0:0:
320,192,75461,1,0,0:0:0:0:
192,192,75580,1,0,0:0:0:0:
64,192,75580,1,0,0:0:0:0:
192,192,75818,1,0,0:0:0:0:
448,192,75818,1,0,0:0:0:0:
320,192,76057,1,0,0:0:0:0:
192,192,76057,1,0,0:0:0:0:
64,192,76057,128,0,76295:0:0:0:0:
192,192,76295,128,0,76533:0:0:0:0:
448,192,76295,1,0,0:0:0:0:
320,192,76414,1,0,0:0:0:0:
448,192,76533,128,0,76771:0:0:0:0:
64,192,76533,1,0,0:0:0:0:
320,192,76533,1,0,0:0:0:0:
192,192,76771,1,0,0:0:0:0:
320,192,76771,128,0,77009:0:0:0:0:
64,192,77009,1,0,0:0:0:0:
192,192,77009,1,0,0:0:0:0:
448,192,77009,1,0,0:0:0:0:
320,192,77247,1,0,0:0:0:0:
64,192,77247,1,0,0:0:0:0:
64,192,77366,1,0,0:0:0:0:
320,192,77366,1,0,0:0:0:0:
192,192,77485,1,0,0:0:0:0:
320,192,77485,1,0,0:0:0:0:
448,192,77485,1,0,0:0:0:0:
192,192,77723,1,0,0:0:0:0:
448,192,77723,1,0,0:0:0:0:
320,192,77842,1,0,0:0:0:0:
192,192,77961,1,0,0:0:0:0:
64,192,77961,1,0,0:0:0:0:
448,192,77961,1,0,0:0:0:0:
192,192,78199,1,0,0:0:0:0:
64,192,78199,1,0,0:0:0:0:
192,192,78318,1,0,0:0:0:0:
320,192,78318,1,0,0:0:0:0:
320,192,78438,1,0,0:0:0:0:
64,192,78438,1,0,0:0:0:0:
448,192,78438,128,0,78676:0:0:0:0:
64,192,78676,128,0,78914:0:0:0:0:
192,192,78676,1,0,0:0:0:0:
320,192,78914,1,0,0:0:0:0:
192,192,78914,1,0,0:0:0:0:
448,192,78914,1,0,0:0:0:0:
64,192,79152,1,0,0:0:0:0:
192,192,79152,1,0,0:0:0:0:
448,192,79271,1,0,0:0:0:0:
192,192,79271,1,0,0:0:0:0:
192,192,79390,1,0,0:0:0:0:
64,192,79390,1,0,0:0:0:0:
320,192,79390,1,0,0:0:0:0:
64,192,79628,1,0,0:0:0:0:
448,192,79628,1,0,0:0:0:0:
320,192,79866,1,0,0:0:0:0:
192,192,79866,128,0,80104:0:0:0:0:
64,192,80104,1,0,0:0:0:0:
320,192,80104,128,0,80342:0:0:0:0:
448,192,80104,1,0,0:0:0:0:
192,192,80223,1,0,0:0:0:0:
448,192,80342,128,0,80580:0:0:0:0:
64,192,80342,1,0,0:0:0:0:
64,192,80580,1,0,0:0:0:0:
320,192,80580,1,0,0:0:0:0:
448,192,80699,1,0,0:0:0:0:
192,192,80699,1,0,0:0:0:0:
320,192,80818,1,0,0:0:0:0:
192,192,80818,1,0,0:0:0:0:
64,192,80818,1,0,0:0:0:0:
64,192,81057,1,0,0:0:0:0:
448,192,81057,1,0,0:0:0:0:
448,192,81176,1,0,0:0:0:0:
192,192,81176,1,0,0:0:0:0:
320,192,81295,1,0,0:0:0:0:
192,192,81295,1,0,0:0:0:0:
64,192,81295,1,0,0:0:0:0:
320,192,81533,1,0,0:0:0:0:
448,192,81533,1,0,0:0:0:0:
192,192,81652,1,0,0:0:0:0:
320,192,81652,1,0,0:0:0:0:
192,192,81771,1,0,0:0:0:0:
64,192,81771,1,0,0:0:0:0:
448,192,81771,1,0,0:0:0:0:
320,192,82009,1,0,0:0:0:0:
64,192,82009,1,0,0:0:0:0:
192,192,82128,1,0,0:0:0:0:
448,192,82128,1,0,0:0:0:0:
320,192,82247,1,0,0:0:0:0:
192,192,82247,1,0,0:0:0:0:
64,192,82247,1,0,0:0:0:0:
64,192,82485,1,0,0:0:0:0:
448,192,82485,1,0,0:0:0:0:
320,192,82723,1,0,0:0:0:0:
192,192,82723,1,0,0:0:0:0:
64,192,82723,1,0,0:0:0:0:
192,192,82961,1,0,0:0:0:0:
448,192,82961,1,0,0:0:0:0:
320,192,83199,1,0,0:0:0:0:
192,192,83199,1,0,0:0:0:0:
64,192,83199,1,0,0:0:0:0:
192,192,83438,1,0,0:0:0:0:
448,192,83438,1,0,0:0:0:0:
320,192,83676,1,0,0:0:0:0:
192,192,83676,1,0,0:0:0:0:
64,192,83676,1,0,0:0:0:0:
320,192,83914,1,0,0:0:0:0:
192,192,84033,1,0,0:0:0:0:
320,192,84152,1,0,0:0:0:0:
64,192,84152,1,0,0:0:0:0:
448,192,84152,1,0,0:0:0:0:
64,192,84271,1,0,0:0:0:0:
320,192,84271,1,0,0:0:0:0:
448,192,84271,1,0,0:0:0:0:
64,192,84390,1,0,0:0:0:0:
448,192,84390,1,0,0:0:0:0:
320,192,84390,1,0,0:0:0:0:
192,192,84509,1,0,0:0:0:0:
448,192,84628,1,0,0:0:0:0:
320,192,84747,1,0,0:0:0:0:
192,192,84866,1,0,0:0:0:0:
64,192,84985,1,0,0:0:0:0:
448,192,85104,1,0,0:0:0:0:
192,192,85342,1,0,0:0:0:0:
448,192,85580,1,0,0:0:0:0:
320,192,85818,1,0,0:0:0:0:
192,192,86057,1,0,0:0:0:0:
448,192,86295,1,0,0:0:0:0:
192,192,86533,1,0,0:0:0:0:
320,192,86771,1,0,0:0:0:0:
192,192,87009,1,0,0:0:0:0:
64,192,87247,1,0,0:0:0:0:
320,192,87485,1,0,0:0:0:0:
192,192,87723,1,0,0:0:0:0:
64,192,87961,1,0,0:0:0:0:
320,192,88199,1,0,0:0:0:0:
192,192,88318,1,0,0:0:0:0:
320,192,88438,1,0,0:0:0:0:
448,192,88676,1,0,0:0:0:0:
320,192,88914,1,0,0:0:0:0:
192,192,89152,1,0,0:0:0:0:
448,192,89390,1,0,0:0:0:0:
320,192,89628,1,0,0:0:0:0:
192,192,89866,1,0,0:0:0:0:
448,192,90104,1,0,0:0:0:0:
