osu file format v13

[General]
AudioFilename: kyuuseiargyros.mp3
AudioLeadIn: 2000
PreviewTime: 51880
Countdown: 0
SampleSet: Soft
StackLeniency: 0.7
Mode: 3
LetterboxInBreaks: 0
SpecialStyle: 0
WidescreenStoryboard: 1

[Editor]
DistanceSpacing: 0.8
BeatDivisor: 4
GridSize: 8
TimelineZoom: 2.6

[Metadata]
Title:Anime Endings Madness P.2
TitleUnicode:Anime Endings Madness P.2
Artist:FX
ArtistUnicode:FX
Creator:[FX] AEM
Version:Kyuusei Argyros [FX]
Source:
Tags:ending
BeatmapID:625257
BeatmapSetID:275629

[Difficulty]
HPDrainRate:8
CircleSize:4
OverallDifficulty:8
ApproachRate:0
SliderMultiplier:1.7
SliderTickRate:1

[Events]
//Background and Video events
//Break Periods
//Storyboard Layer 0 (Background)
//Storyboard Layer 1 (Fail)
//Storyboard Layer 2 (Pass)
//Storyboard Layer 3 (Foreground)
//Storyboard Sound Samples

[TimingPoints]
670,208.333333333333,4,2,0,5,1,0
35669,416.666666666667,4,2,0,5,1,0
35669,-50,4,2,0,5,0,0
50669,208.333333333333,4,2,0,5,1,0
65668,416.666666666667,4,2,0,5,1,0
65668,-50,4,2,0,5,0,0
74001,208.333333333333,4,2,0,5,1,0

[HitObjects]
320,192,670,5,0,0:0:0:0:
448,192,670,1,0,0:0:0:0:
192,192,722,1,0,0:0:0:0:
64,192,774,1,0,0:0:0:0:
192,192,826,1,0,0:0:0:0:
320,192,878,1,0,0:0:0:0:
448,192,930,1,0,0:0:0:0:
320,192,982,1,0,0:0:0:0:
192,192,1034,1,0,0:0:0:0:
320,192,1086,1,0,0:0:0:0:
64,192,1086,1,0,0:0:0:0:
448,192,1086,1,0,0:0:0:0:
192,192,1190,1,0,0:0:0:0:
64,192,1190,1,0,0:0:0:0:
320,192,1294,1,0,0:0:0:0:
448,192,1294,1,0,0:0:0:0:
192,192,1347,1,0,0:0:0:0:
64,192,1399,1,0,0:0:0:0:
448,192,1503,1,0,0:0:0:0:
320,192,1503,1,0,0:0:0:0:
192,192,1555,1,0,0:0:0:0:
64,192,1607,1,0,0:0:0:0:
320,192,1685,1,0,0:0:0:0:
320,192,1789,1,0,0:0:0:0:
192,192,1919,1,0,0:0:0:0:
64,192,1919,1,0,0:0:0:0:
448,192,1919,1,0,0:0:0:0:
320,192,2128,128,0,2336:0:0:0:0:
64,192,2336,1,0,0:0:0:0:
192,192,2336,1,0,0:0:0:0:
448,192,2336,1,0,0:0:0:0:
320,192,2440,1,0,0:0:0:0:
64,192,2544,1,0,0:0:0:0:
448,192,2544,1,0,0:0:0:0:
192,192,2649,1,0,0:0:0:0:
64,192,2753,1,0,0:0:0:0:
448,192,2753,1,0,0:0:0:0:
320,192,2857,1,0,0:0:0:0:
448,192,2961,1,0,0:0:0:0:
64,192,2961,1,0,0:0:0:0:
192,192,3065,1,0,0:0:0:0:
64,192,3169,1,0,0:0:0:0:
448,192,3169,1,0,0:0:0:0:
320,192,3274,1,0,0:0:0:0:
64,192,3378,1,0,0:0:0:0:
448,192,3378,1,0,0:0:0:0:
192,192,3482,1,0,0:0:0:0:
64,192,3586,1,0,0:0:0:0:
448,192,3586,1,0,0:0:0:0:
320,192,3690,1,0,0:0:0:0:
64,192,3794,1,0,0:0:0:0:
448,192,3794,1,0,0:0:0:0:
192,192,3847,1,0,0:0:0:0:
320,192,3899,1,0,0:0:0:0:
448,192,3951,1,0,0:0:0:0:
64,192,4003,1,0,0:0:0:0:
192,192,4003,1,0,0:0:0:0:
448,192,4107,1,0,0:0:0:0:
320,192,4211,1,0,0:0:0:0:
192,192,4211,1,0,0:0:0:0:
64,192,4315,1,0,0:0:0:0:
320,192,4419,1,0,0:0:0:0:
448,192,4419,1,0,0:0:0:0:
64,192,4524,1,0,0:0:0:0:
192,192,4628,1,0,0:0:0:0:
320,192,4628,1,0,0:0:0:0:
448,192,4732,1,0,0:0:0:0:
192,192,4836,1,0,0:0:0:0:
64,192,4836,1,0,0:0:0:0:
320,192,4888,1,0,0:0:0:0:
448,192,4940,1,0,0:0:0:0:
64,192,4992,1,0,0:0:0:0:
192,192,5044,1,0,0:0:0:0:
320,192,5044,1,0,0:0:0:0:
448,192,5097,1,0,0:0:0:0:
64,192,5149,1,0,0:0:0:0:
192,192,5201,1,0,0:0:0:0:
320,192,5253,1,0,0:0:0:0:
448,192,5253,1,0,0:0:0:0:
192,192,5305,1,0,0:0:0:0:
64,192,5357,1,0,0:0:0:0:
448,192,5409,1,0,0:0:0:0:
320,192,5461,1,0,0:0:0:0:
64,192,5461,1,0,0:0:0:0:
192,192,5461,1,0,0:0:0:0:
448,192,5513,1,0,0:0:0:0:
64,192,5565,1,0,0:0:0:0:
192,192,5617,1,0,0:0:0:0:
320,192,5669,1,0,0:0:0:0:
448,192,5669,1,0,0:0:0:0:
64,192,5774,1,0,0:0:0:0:
192,192,5878,1,0,0:0:0:0:
320,192,5878,1,0,0:0:0:0:
64,192,5982,1,0,0:0:0:0:
320,192,6086,1,0,0:0:0:0:
192,192,6086,1,0,0:0:0:0:
448,192,6086,1,0,0:0:0:0:
64,192,6190,1,0,0:0:0:0:
192,192,6294,1,0,0:0:0:0:
448,192,6294,1,0,0:0:0:0:
64,192,6399,1,0,0:0:0:0:
320,192,6503,1,0,0:0:0:0:
448,192,6503,1,0,0:0:0:0:
64,192,6607,1,0,0:0:0:0:
192,192,6711,1,0,0:0:0:0:
320,192,6711,1,0,0:0:0:0:
448,192,6711,1,0,0:0:0:0:
64,192,6815,1,0,0:0:0:0:
192,192,6919,1,0,0:0:0:0:
320,192,6919,1,0,0:0:0:0:
64,192,7076,1,0,0:0:0:0:
320,192,7128,1,0,0:0:0:0:
448,192,7128,1,0,0:0:0:0:
64,192,7180,1,0,0:0:0:0:
192,192,7232,1,0,0:0:0:0:
448,192,7284,1,0,0:0:0:0:
320,192,7336,1,0,0:0:0:0:
192,192,7336,1,0,0:0:0:0:
64,192,7336,1,0,0:0:0:0:
320,192,7544,1,0,0:0:0:0:
64,192,7544,1,0,0:0:0:0:
192,192,7649,1,0,0:0:0:0:
320,192,7649,1,0,0:0:0:0:
448,192,7649,1,0,0:0:0:0:
448,192,7857,1,0,0:0:0:0:
192,192,7857,1,0,0:0:0:0:
320,192,7961,1,0,0:0:0:0:
192,192,7961,1,0,0:0:0:0:
64,192,7961,1,0,0:0:0:0:
448,192,8169,1,0,0:0:0:0:
320,192,8169,1,0,0:0:0:0:
192,192,8169,1,0,0:0:0:0:
64,192,8378,1,0,0:0:0:0:
192,192,8482,1,0,0:0:0:0:
320,192,8482,1,0,0:0:0:0:
448,192,8482,1,0,0:0:0:0:
64,192,8794,1,0,0:0:0:0:
192,192,8794,1,0,0:0:0:0:
320,192,8794,128,0,9003:0:0:0:0:
448,192,9003,1,0,0:0:0:0:
64,192,9003,1,0,0:0:0:0:
192,192,9003,1,0,0:0:0:0:
320,192,9107,1,0,0:0:0:0:
64,192,9211,1,0,0:0:0:0:
448,192,9211,1,0,0:0:0:0:
192,192,9315,1,0,0:0:0:0:
64,192,9419,1,0,0:0:0:0:
448,192,9419,1,0,0:0:0:0:
320,192,9524,1,0,0:0:0:0:
64,192,9628,1,0,0:0:0:0:
448,192,9628,1,0,0:0:0:0:
192,192,9732,1,0,0:0:0:0:
64,192,9836,1,0,0:0:0:0:
448,192,9836,1,0,0:0:0:0:
320,192,9940,1,0,0:0:0:0:
64,192,10044,1,0,0:0:0:0:
448,192,10044,1,0,0:0:0:0:
192,192,10149,1,0,0:0:0:0:
64,192,10253,1,0,0:0:0:0:
448,192,10253,1,0,0:0:0:0:
320,192,10357,1,0,0:0:0:0:
64,192,10461,1,0,0:0:0:0:
448,192,10461,1,0,0:0:0:0:
192,192,10513,1,0,0:0:0:0:
320,192,10565,1,0,0:0:0:0:
448,192,10617,1,0,0:0:0:0:
64,192,10669,1,0,0:0:0:0:
192,192,10669,1,0,0:0:0:0:
448,192,10774,1,0,0:0:0:0:
192,192,10878,1,0,0:0:0:0:
320,192,10878,1,0,0:0:0:0:
64,192,10878,1,0,0:0:0:0:
448,192,10982,1,0,0:0:0:0:
320,192,11086,1,0,0:0:0:0:
192,192,11086,1,0,0:0:0:0:
448,192,11190,1,0,0:0:0:0:
64,192,11294,1,0,0:0:0:0:
320,192,11294,1,0,0:0:0:0:
192,192,11399,1,0,0:0:0:0:
448,192,11503,1,0,0:0:0:0:
320,192,11503,1,0,0:0:0:0:
192,192,11555,1,0,0:0:0:0:
64,192,11607,1,0,0:0:0:0:
448,192,11659,1,0,0:0:0:0:
320,192,11711,1,0,0:0:0:0:
192,192,11711,1,0,0:0:0:0:
64,192,11763,1,0,0:0:0:0:
448,192,11815,1,0,0:0:0:0:
320,192,11867,1,0,0:0:0:0:
192,192,11919,1,0,0:0:0:0:
64,192,11919,1,0,0:0:0:0:
320,192,11972,1,0,0:0:0:0:
448,192,12024,1,0,0:0:0:0:
64,192,12076,1,0,0:0:0:0:
320,192,12128,1,0,0:0:0:0:
448,192,12128,1,0,0:0:0:0:
192,192,12128,1,0,0:0:0:0:
64,192,12180,1,0,0:0:0:0:
448,192,12232,1,0,0:0:0:0:
320,192,12284,1,0,0:0:0:0:
64,192,12336,1,0,0:0:0:0:
192,192,12336,1,0,0:0:0:0:
448,192,12440,1,0,0:0:0:0:
192,192,12544,1,0,0:0:0:0:
64,192,12544,1,0,0:0:0:0:
320,192,12544,1,0,0:0:0:0:
448,192,12649,1,0,0:0:0:0:
320,192,12753,1,0,0:0:0:0:
64,192,12753,1,0,0:0:0:0:
448,192,12857,1,0,0:0:0:0:
320,192,12961,1,0,0:0:0:0:
192,192,12961,1,0,0:0:0:0:
448,192,13065,1,0,0:0:0:0:
192,192,13169,1,0,0:0:0:0:
64,192,13169,1,0,0:0:0:0:
448,192,13274,1,0,0:0:0:0:
320,192,13378,1,0,0:0:0:0:
192,192,13378,1,0,0:0:0:0:
64,192,13378,1,0,0:0:0:0:
448,192,13482,1,0,0:0:0:0:
320,192,13586,1,0,0:0:0:0:
192,192,13586,1,0,0:0:0:0:
448,192,13690,1,0,0:0:0:0:
192,192,13794,1,0,0:0:0:0:
64,192,13794,1,0,0:0:0:0:
448,192,13847,1,0,0:0:0:0:
320,192,13899,1,0,0:0:0:0:
192,192,13899,1,0,0:0:0:0:
64,192,13951,1,0,0:0:0:0:
320,192,14003,1,0,0:0:0:0:
448,192,14003,1,0,0:0:0:0:
192,192,14003,1,0,0:0:0:0:
64,192,14211,1,0,0:0:0:0:
320,192,14211,1,0,0:0:0:0:
320,192,14315,1,0,0:0:0:0:
192,192,14315,1,0,0:0:0:0:
448,192,14315,1,0,0:0:0:0:
448,192,14628,1,0,0:0:0:0:
192,192,14628,1,0,0:0:0:0:
192,192,14836,1,0,0:0:0:0:
64,192,14836,1,0,0:0:0:0:
320,192,14836,1,0,0:0:0:0:
320,192,15044,1,0,0:0:0:0:
192,192,15149,1,0,0:0:0:0:
64,192,15149,1,0,0:0:0:0:
448,192,15149,1,0,0:0:0:0:
320,192,15357,1,0,0:0:0:0:
192,192,15461,1,0,0:0:0:0:
64,192,15461,1,0,0:0:0:0:
448,192,15461,1,0,0:0:0:0:
320,192,15669,1,0,0:0:0:0:
448,192,15669,1,0,0:0:0:0:
192,192,15669,1,0,0:0:0:0:
448,192,15774,1,0,0:0:0:0:
320,192,15774,1,0,0:0:0:0:
192,192,15774,1,0,0:0:0:0:
320,192,15878,1,0,0:0:0:0:
448,192,15878,1,0,0:0:0:0:
192,192,15878,1,0,0:0:0:0:
448,192,15982,1,0,0:0:0:0:
320,192,15982,1,0,0:0:0:0:
192,192,15982,1,0,0:0:0:0:
64,192,16294,1,0,0:0:0:0:
192,192,16294,1,0,0:0:0:0:
320,192,16294,1,0,0:0:0:0:
320,192,16399,1,0,0:0:0:0:
192,192,16399,1,0,0:0:0:0:
64,192,16399,1,0,0:0:0:0:
64,192,16503,1,0,0:0:0:0:
192,192,16503,1,0,0:0:0:0:
320,192,16503,1,0,0:0:0:0:
448,192,16503,1,0,0:0:0:0:
448,192,16711,1,0,0:0:0:0:
320,192,16711,1,0,0:0:0:0:
192,192,16919,1,0,0:0:0:0:
64,192,16919,1,0,0:0:0:0:
448,192,17024,1,0,0:0:0:0:
320,192,17024,1,0,0:0:0:0:
192,192,17128,1,0,0:0:0:0:
320,192,17128,1,0,0:0:0:0:
64,192,17232,1,0,0:0:0:0:
320,192,17232,1,0,0:0:0:0:
448,192,17232,1,0,0:0:0:0:
320,192,17544,1,0,0:0:0:0:
448,192,17544,1,0,0:0:0:0:
192,192,17649,1,0,0:0:0:0:
64,192,17649,1,0,0:0:0:0:
448,192,17857,1,0,0:0:0:0:
320,192,17857,1,0,0:0:0:0:
192,192,17961,1,0,0:0:0:0:
64,192,17961,1,0,0:0:0:0:
64,192,18169,1,0,0:0:0:0:
448,192,18169,1,0,0:0:0:0:
192,192,18169,128,0,18378:0:0:0:0:
64,192,18378,1,0,0:0:0:0:
320,192,18378,1,0,0:0:0:0:
192,192,18482,1,0,0:0:0:0:
448,192,18482,1,0,0:0:0:0:
192,192,18690,1,0,0:0:0:0:
448,192,18690,1,0,0:0:0:0:
320,192,18794,1,0,0:0:0:0:
64,192,18794,1,0,0:0:0:0:
64,192,19107,1,0,0:0:0:0:
192,192,19107,1,0,0:0:0:0:
320,192,19211,1,0,0:0:0:0:
448,192,19211,1,0,0:0:0:0:
64,192,19419,1,0,0:0:0:0:
192,192,19419,1,0,0:0:0:0:
320,192,19524,1,0,0:0:0:0:
448,192,19524,1,0,0:0:0:0:
64,192,19628,1,0,0:0:0:0:
192,192,19628,1,0,0:0:0:0:
448,192,19732,1,0,0:0:0:0:
320,192,19836,1,0,0:0:0:0:
192,192,19836,1,0,0:0:0:0:
64,192,19836,128,0,20044:0:0:0:0:
320,192,20044,1,0,0:0:0:0:
448,192,20044,1,0,0:0:0:0:
192,192,20149,1,0,0:0:0:0:
64,192,20149,1,0,0:0:0:0:
64,192,20357,1,0,0:0:0:0:
448,192,20357,1,0,0:0:0:0:
320,192,20461,1,0,0:0:0:0:
192,192,20461,1,0,0:0:0:0:
448,192,20669,1,0,0:0:0:0:
320,192,20722,1,0,0:0:0:0:
192,192,20774,1,0,0:0:0:0:
320,192,20826,1,0,0:0:0:0:
448,192,20878,1,0,0:0:0:0:
320,192,20930,1,0,0:0:0:0:
192,192,20982,1,0,0:0:0:0:
64,192,21034,1,0,0:0:0:0:
448,192,21086,1,0,0:0:0:0:
320,192,21086,1,0,0:0:0:0:
320,192,21190,1,0,0:0:0:0:
448,192,21190,1,0,0:0:0:0:
448,192,21294,1,0,0:0:0:0:
320,192,21294,1,0,0:0:0:0:
320,192,21399,1,0,0:0:0:0:
448,192,21399,1,0,0:0:0:0:
192,192,21503,1,0,0:0:0:0:
64,192,21503,1,0,0:0:0:0:
64,192,21607,1,0,0:0:0:0:
192,192,21607,1,0,0:0:0:0:
192,192,21711,1,0,0:0:0:0:
64,192,21711,1,0,0:0:0:0:
64,192,21815,1,0,0:0:0:0:
192,192,21815,1,0,0:0:0:0:
320,192,21919,1,0,0:0:0:0:
448,192,21919,1,0,0:0:0:0:
64,192,21919,1,0,0:0:0:0:
192,192,22024,1,0,0:0:0:0:
320,192,22024,1,0,0:0:0:0:
320,192,22128,1,0,0:0:0:0:
64,192,22128,1,0,0:0:0:0:
448,192,22128,1,0,0:0:0:0:
320,192,22232,1,0,0:0:0:0:
192,192,22232,1,0,0:0:0:0:
320,192,22336,1,0,0:0:0:0:
448,192,22336,1,0,0:0:0:0:
64,192,22336,128,0,22544:0:0:0:0:
192,192,22544,1,0,0:0:0:0:
448,192,22544,1,0,0:0:0:0:
320,192,22544,1,0,0:0:0:0:
64,192,22753,1,0,0:0:0:0:
192,192,22961,1,0,0:0:0:0:
448,192,22961,1,0,0:0:0:0:
320,192,22961,1,0,0:0:0:0:
192,192,23169,1,0,0:0:0:0:
448,192,23169,1,0,0:0:0:0:
448,192,23274,1,0,0:0:0:0:
192,192,23274,1,0,0:0:0:0:
320,192,23378,1,0,0:0:0:0:
192,192,23378,1,0,0:0:0:0:
64,192,23378,1,0,0:0:0:0:
64,192,23586,1,0,0:0:0:0:
320,192,23586,1,0,0:0:0:0:
320,192,23690,1,0,0:0:0:0:
64,192,23690,1,0,0:0:0:0:
192,192,23794,1,0,0:0:0:0:
320,192,23794,1,0,0:0:0:0:
448,192,23794,1,0,0:0:0:0:
192,192,24003,1,0,0:0:0:0:
448,192,24003,1,0,0:0:0:0:
448,192,24107,1,0,0:0:0:0:
192,192,24107,1,0,0:0:0:0:
320,192,24211,1,0,0:0:0:0:
192,192,24211,1,0,0:0:0:0:
64,192,24211,1,0,0:0:0:0:
192,192,24315,1,0,0:0:0:0:
448,192,24315,1,0,0:0:0:0:
320,192,24628,1,0,0:0:0:0:
64,192,24628,1,0,0:0:0:0:
192,192,24628,1,0,0:0:0:0:
192,192,24836,1,0,0:0:0:0:
448,192,24836,1,0,0:0:0:0:
192,192,24940,1,0,0:0:0:0:
448,192,24940,1,0,0:0:0:0:
320,192,25044,1,0,0:0:0:0:
192,192,25044,1,0,0:0:0:0:
64,192,25044,1,0,0:0:0:0:
192,192,25149,1,0,0:0:0:0:
448,192,25149,1,0,0:0:0:0:
320,192,25253,1,0,0:0:0:0:
64,192,25253,1,0,0:0:0:0:
64,192,25357,1,0,0:0:0:0:
320,192,25357,1,0,0:0:0:0:
192,192,25461,1,0,0:0:0:0:
320,192,25461,1,0,0:0:0:0:
448,192,25461,1,0,0:0:0:0:
448,192,25669,1,0,0:0:0:0:
192,192,25669,1,0,0:0:0:0:
448,192,25774,1,0,0:0:0:0:
192,192,25774,1,0,0:0:0:0:
320,192,25878,1,0,0:0:0:0:
192,192,25878,1,0,0:0:0:0:
64,192,25878,1,0,0:0:0:0:
448,192,25982,1,0,0:0:0:0:
192,192,25982,1,0,0:0:0:0:
64,192,26294,1,0,0:0:0:0:
320,192,26294,1,0,0:0:0:0:
192,192,26294,1,0,0:0:0:0:
192,192,26503,1,0,0:0:0:0:
448,192,26503,1,0,0:0:0:0:
448,192,26607,1,0,0:0:0:0:
192,192,26607,1,0,0:0:0:0:
320,192,26711,1,0,0:0:0:0:
192,192,26711,1,0,0:0:0:0:
64,192,26711,1,0,0:0:0:0:
64,192,26919,1,0,0:0:0:0:
320,192,26919,1,0,0:0:0:0:
320,192,27024,1,0,0:0:0:0:
64,192,27024,1,0,0:0:0:0:
192,192,27128,1,0,0:0:0:0:
320,192,27128,1,0,0:0:0:0:
448,192,27128,1,0,0:0:0:0:
64,192,27336,1,0,0:0:0:0:
320,192,27336,1,0,0:0:0:0:
448,192,27336,1,0,0:0:0:0:
64,192,27544,1,0,0:0:0:0:
320,192,27544,1,0,0:0:0:0:
448,192,27544,1,0,0:0:0:0:
192,192,27649,1,0,0:0:0:0:
320,192,27649,1,0,0:0:0:0:
192,192,27857,1,0,0:0:0:0:
320,192,27857,1,0,0:0:0:0:
64,192,27961,1,0,0:0:0:0:
320,192,27961,1,0,0:0:0:0:
448,192,27961,1,0,0:0:0:0:
192,192,28169,1,0,0:0:0:0:
64,192,28169,1,0,0:0:0:0:
448,192,28169,1,0,0:0:0:0:
320,192,28378,1,0,0:0:0:0:
448,192,28378,1,0,0:0:0:0:
64,192,28378,1,0,0:0:0:0:
320,192,28482,1,0,0:0:0:0:
192,192,28482,1,0,0:0:0:0:
320,192,28690,1,0,0:0:0:0:
192,192,28690,1,0,0:0:0:0:
192,192,28794,1,0,0:0:0:0:
64,192,28794,1,0,0:0:0:0:
448,192,28794,1,0,0:0:0:0:
64,192,29003,1,0,0:0:0:0:
320,192,29003,1,0,0:0:0:0:
320,192,29107,1,0,0:0:0:0:
64,192,29107,1,0,0:0:0:0:
192,192,29211,1,0,0:0:0:0:
448,192,29211,1,0,0:0:0:0:
320,192,29211,1,0,0:0:0:0:
320,192,29628,1,0,0:0:0:0:
192,192,29628,1,0,0:0:0:0:
64,192,29628,1,0,0:0:0:0:
192,192,29836,1,0,0:0:0:0:
448,192,29836,1,0,0:0:0:0:
448,192,29940,1,0,0:0:0:0:
192,192,29940,1,0,0:0:0:0:
320,192,30044,1,0,0:0:0:0:
192,192,30044,1,0,0:0:0:0:
64,192,30044,1,0,0:0:0:0:
192,192,30253,1,0,0:0:0:0:
448,192,30253,1,0,0:0:0:0:
448,192,30357,1,0,0:0:0:0:
192,192,30357,1,0,0:0:0:0:
320,192,30461,1,0,0:0:0:0:
192,192,30461,1,0,0:0:0:0:
64,192,30461,1,0,0:0:0:0:
320,192,30669,1,0,0:0:0:0:
64,192,30669,1,0,0:0:0:0:
64,192,30774,1,0,0:0:0:0:
320,192,30774,1,0,0:0:0:0:
192,192,30878,1,0,0:0:0:0:
320,192,30878,1,0,0:0:0:0:
448,192,30878,1,0,0:0:0:0:
320,192,31294,1,0,0:0:0:0:
192,192,31294,1,0,0:0:0:0:
64,192,31294,1,0,0:0:0:0:
192,192,31503,1,0,0:0:0:0:
448,192,31503,1,0,0:0:0:0:
192,192,31607,1,0,0:0:0:0:
448,192,31607,1,0,0:0:0:0:
64,192,31711,1,0,0:0:0:0:
320,192,31711,1,0,0:0:0:0:
192,192,31711,1,0,0:0:0:0:
192,192,31815,1,0,0:0:0:0:
448,192,31815,1,0,0:0:0:0:
320,192,31919,1,0,0:0:0:0:
64,192,31919,1,0,0:0:0:0:
64,192,32024,1,0,0:0:0:0:
320,192,32024,1,0,0:0:0:0:
192,192,32128,1,0,0:0:0:0:
320,192,32128,1,0,0:0:0:0:
448,192,32128,1,0,0:0:0:0:
64,192,32336,1,0,0:0:0:0:
192,192,32336,1,0,0:0:0:0:
64,192,32440,1,0,0:0:0:0:
192,192,32440,1,0,0:0:0:0:
320,192,32440,1,0,0:0:0:0:
320,192,32544,1,0,0:0:0:0:
192,192,32544,1,0,0:0:0:0:
64,192,32544,1,0,0:0:0:0:
448,192,32544,1,0,0:0:0:0:
448,192,32649,1,0,0:0:0:0:
320,192,32649,1,0,0:0:0:0:
192,192,32649,1,0,0:0:0:0:
64,192,32649,1,0,0:0:0:0:
64,192,32753,1,0,0:0:0:0:
192,192,32753,1,0,0:0:0:0:
320,192,32753,1,0,0:0:0:0:
448,192,32753,1,0,0:0:0:0:
320,192,32857,1,0,0:0:0:0:
192,192,32857,1,0,0:0:0:0:
64,192,32857,1,0,0:0:0:0:
448,192,32857,1,0,0:0:0:0:
448,192,32961,1,0,0:0:0:0:
320,192,32961,1,0,0:0:0:0:
192,192,32961,1,0,0:0:0:0:
64,192,32961,1,0,0:0:0:0:
192,192,33065,1,0,0:0:0:0:
64,192,33065,1,0,0:0:0:0:
320,192,33065,1,0,0:0:0:0:
448,192,33065,1,0,0:0:0:0:
448,192,33169,1,0,0:0:0:0:
320,192,33169,1,0,0:0:0:0:
192,192,33169,1,0,0:0:0:0:
64,192,33169,1,0,0:0:0:0:
64,192,33274,1,0,0:0:0:0:
192,192,33274,1,0,0:0:0:0:
320,192,33274,1,0,0:0:0:0:
448,192,33274,1,0,0:0:0:0:
448,192,33378,1,0,0:0:0:0:
320,192,33378,1,0,0:0:0:0:
192,192,33378,1,0,0:0:0:0:
64,192,33378,1,0,0:0:0:0:
64,192,33482,1,0,0:0:0:0:
192,192,33482,1,0,0:0:0:0:
320,192,33482,1,0,0:0:0:0:
448,192,33482,1,0,0:0:0:0:
448,192,33586,1,0,0:0:0:0:
320,192,33586,1,0,0:0:0:0:
64,192,33586,1,0,0:0:0:0:
192,192,33586,1,0,0:0:0:0:
320,192,33690,1,0,0:0:0:0:
192,192,33690,1,0,0:0:0:0:
64,192,33690,1,0,0:0:0:0:
448,192,33690,1,0,0:0:0:0:
448,192,33794,1,0,0:0:0:0:
320,192,33794,1,0,0:0:0:0:
64,192,33794,1,0,0:0:0:0:
192,192,34003,1,0,0:0:0:0:
64,192,34003,1,0,0:0:0:0:
448,192,34003,1,0,0:0:0:0:
320,192,34107,1,0,0:0:0:0:
64,192,34211,1,0,0:0:0:0:
192,192,34211,1,0,0:0:0:0:
192,192,34315,1,0,0:0:0:0:
448,192,34315,1,0,0:0:0:0:
320,192,34315,1,0,0:0:0:0:
64,192,34419,1,0,0:0:0:0:
448,192,34524,1,0,0:0:0:0:
320,192,34524,1,0,0:0:0:0:
320,192,34628,1,0,0:0:0:0:
192,192,34628,1,0,0:0:0:0:
64,192,34628,1,0,0:0:0:0:
320,192,34836,1,0,0:0:0:0:
192,192,34836,1,0,0:0:0:0:
448,192,34836,1,0,0:0:0:0:
64,192,35044,1,0,0:0:0:0:
192,192,35044,1,0,0:0:0:0:
320,192,35044,1,0,0:0:0:0:
320,192,35669,1,0,0:0:0:0:
448,192,35669,1,0,0:0:0:0:
320,192,35773,1,0,0:0:0:0:
448,192,35773,1,0,0:0:0:0:
448,192,35877,1,0,0:0:0:0:
320,192,35877,1,0,0:0:0:0:
192,192,35981,1,0,0:0:0:0:
64,192,35981,1,0,0:0:0:0:
64,192,36294,1,0,0:0:0:0:
192,192,36294,1,0,0:0:0:0:
192,192,36398,1,0,0:0:0:0:
320,192,36398,1,0,0:0:0:0:
320,192,36502,1,0,0:0:0:0:
448,192,36502,1,0,0:0:0:0:
64,192,36502,1,0,0:0:0:0:
192,192,36710,1,0,0:0:0:0:
320,192,36710,1,0,0:0:0:0:
192,192,36919,1,0,0:0:0:0:
64,192,36919,1,0,0:0:0:0:
448,192,36919,1,0,0:0:0:0:
320,192,37127,1,0,0:0:0:0:
64,192,37127,1,0,0:0:0:0:
448,192,37127,1,0,0:0:0:0:
320,192,37544,1,0,0:0:0:0:
192,192,37544,1,0,0:0:0:0:
64,192,37648,1,0,0:0:0:0:
448,192,37648,1,0,0:0:0:0:
64,192,37856,1,0,0:0:0:0:
448,192,37856,1,0,0:0:0:0:
320,192,37960,1,0,0:0:0:0:
192,192,37960,1,0,0:0:0:0:
64,192,38169,1,0,0:0:0:0:
192,192,38169,1,0,0:0:0:0:
320,192,38169,1,0,0:0:0:0:
448,192,38169,1,0,0:0:0:0:
320,192,38481,1,0,0:0:0:0:
448,192,38481,1,0,0:0:0:0:
192,192,38585,1,0,0:0:0:0:
64,192,38794,1,0,0:0:0:0:
448,192,38794,1,0,0:0:0:0:
192,192,39106,1,0,0:0:0:0:
320,192,39106,1,0,0:0:0:0:
448,192,39210,1,0,0:0:0:0:
64,192,39210,1,0,0:0:0:0:
320,192,39419,1,0,0:0:0:0:
448,192,39419,1,0,0:0:0:0:
192,192,39523,1,0,0:0:0:0:
64,192,39523,1,0,0:0:0:0:
320,192,39627,1,0,0:0:0:0:
448,192,39627,1,0,0:0:0:0:
64,192,39731,1,0,0:0:0:0:
320,192,39835,1,0,0:0:0:0:
448,192,39835,1,0,0:0:0:0:
192,192,39835,1,0,0:0:0:0:
192,192,40044,1,0,0:0:0:0:
448,192,40044,1,0,0:0:0:0:
320,192,40148,1,0,0:0:0:0:
192,192,40148,1,0,0:0:0:0:
64,192,40148,1,0,0:0:0:0:
64,192,40356,1,0,0:0:0:0:
320,192,40356,1,0,0:0:0:0:
320,192,40460,1,0,0:0:0:0:
192,192,40460,1,0,0:0:0:0:
448,192,40460,1,0,0:0:0:0:
64,192,40669,1,0,0:0:0:0:
192,192,40669,1,0,0:0:0:0:
64,192,40773,1,0,0:0:0:0:
192,192,40773,1,0,0:0:0:0:
64,192,40877,1,0,0:0:0:0:
192,192,40877,1,0,0:0:0:0:
192,192,40981,1,0,0:0:0:0:
64,192,40981,1,0,0:0:0:0:
320,192,41085,1,0,0:0:0:0:
448,192,41085,1,0,0:0:0:0:
64,192,41189,1,0,0:0:0:0:
64,192,41294,1,0,0:0:0:0:
192,192,41502,1,0,0:0:0:0:
448,192,41502,1,0,0:0:0:0:
320,192,41710,1,0,0:0:0:0:
64,192,41710,1,0,0:0:0:0:
192,192,41919,1,0,0:0:0:0:
64,192,41919,1,0,0:0:0:0:
448,192,41919,1,0,0:0:0:0:
320,192,42023,1,0,0:0:0:0:
64,192,42127,1,0,0:0:0:0:
192,192,42127,1,0,0:0:0:0:
320,192,42231,1,0,0:0:0:0:
192,192,42335,1,0,0:0:0:0:
448,192,42335,1,0,0:0:0:0:
192,192,42439,1,0,0:0:0:0:
448,192,42439,1,0,0:0:0:0:
448,192,42544,1,0,0:0:0:0:
192,192,42544,1,0,0:0:0:0:
64,192,42960,1,0,0:0:0:0:
320,192,42960,1,0,0:0:0:0:
192,192,43064,1,0,0:0:0:0:
448,192,43064,1,0,0:0:0:0:
448,192,43169,1,0,0:0:0:0:
320,192,43169,1,0,0:0:0:0:
64,192,43169,1,0,0:0:0:0:
192,192,43585,1,0,0:0:0:0:
320,192,43585,1,0,0:0:0:0:
448,192,43585,1,0,0:0:0:0:
320,192,43794,1,0,0:0:0:0:
192,192,43794,1,0,0:0:0:0:
64,192,43794,1,0,0:0:0:0:
192,192,44210,1,0,0:0:0:0:
448,192,44210,1,0,0:0:0:0:
320,192,44314,1,0,0:0:0:0:
64,192,44314,1,0,0:0:0:0:
64,192,44523,1,0,0:0:0:0:
192,192,44523,1,0,0:0:0:0:
320,192,44627,1,0,0:0:0:0:
448,192,44627,1,0,0:0:0:0:
192,192,44835,1,0,0:0:0:0:
64,192,44835,1,0,0:0:0:0:
448,192,44939,1,0,0:0:0:0:
320,192,44939,1,0,0:0:0:0:
192,192,45044,1,0,0:0:0:0:
64,192,45044,1,0,0:0:0:0:
320,192,45148,1,0,0:0:0:0:
448,192,45148,1,0,0:0:0:0:
192,192,45460,1,0,0:0:0:0:
320,192,45460,1,0,0:0:0:0:
448,192,45564,1,0,0:0:0:0:
64,192,45564,1,0,0:0:0:0:
320,192,45773,1,0,0:0:0:0:
448,192,45773,1,0,0:0:0:0:
192,192,45877,1,0,0:0:0:0:
64,192,45877,1,0,0:0:0:0:
320,192,46085,1,0,0:0:0:0:
448,192,46085,1,0,0:0:0:0:
64,192,46085,1,0,0:0:0:0:
64,192,46189,1,0,0:0:0:0:
320,192,46189,1,0,0:0:0:0:
448,192,46189,1,0,0:0:0:0:
448,192,46294,1,0,0:0:0:0:
320,192,46294,1,0,0:0:0:0:
64,192,46294,1,0,0:0:0:0:
320,192,46398,1,0,0:0:0:0:
448,192,46398,1,0,0:0:0:0:
192,192,46502,1,0,0:0:0:0:
64,192,46502,1,0,0:0:0:0:
320,192,46710,1,0,0:0:0:0:
64,192,46710,1,0,0:0:0:0:
192,192,46814,1,0,0:0:0:0:
448,192,46814,1,0,0:0:0:0:
192,192,47023,1,0,0:0:0:0:
448,192,47023,1,0,0:0:0:0:
320,192,47127,1,0,0:0:0:0:
64,192,47127,1,0,0:0:0:0:
64,192,47335,1,0,0:0:0:0:
320,192,47387,1,0,0:0:0:0:
192,192,47439,1,0,0:0:0:0:
448,192,47491,1,0,0:0:0:0:
192,192,47544,1,0,0:0:0:0:
320,192,47596,1,0,0:0:0:0:
64,192,47648,1,0,0:0:0:0:
320,192,47700,1,0,0:0:0:0:
192,192,47752,1,0,0:0:0:0:
320,192,47804,1,0,0:0:0:0:
448,192,47856,1,0,0:0:0:0:
320,192,47908,1,0,0:0:0:0:
192,192,47960,1,0,0:0:0:0:
64,192,48012,1,0,0:0:0:0:
448,192,48064,1,0,0:0:0:0:
320,192,48116,1,0,0:0:0:0:
192,192,48169,1,0,0:0:0:0:
64,192,48169,1,0,0:0:0:0:
320,192,48377,1,0,0:0:0:0:
448,192,48377,1,0,0:0:0:0:
192,192,48585,1,0,0:0:0:0:
64,192,48585,1,0,0:0:0:0:
320,192,48689,1,0,0:0:0:0:
448,192,48689,1,0,0:0:0:0:
192,192,48794,1,0,0:0:0:0:
64,192,48794,1,0,0:0:0:0:
448,192,48898,1,0,0:0:0:0:
320,192,49002,1,0,0:0:0:0:
192,192,49002,1,0,0:0:0:0:
64,192,49002,1,0,0:0:0:0:
64,192,49210,1,0,0:0:0:0:
320,192,49210,1,0,0:0:0:0:
64,192,49419,1,0,0:0:0:0:
320,192,49419,1,0,0:0:0:0:
64,192,49627,1,0,0:0:0:0:
320,192,49627,1,0,0:0:0:0:
64,192,49835,1,0,0:0:0:0:
320,192,49835,1,0,0:0:0:0:
320,192,50044,1,0,0:0:0:0:
64,192,50044,1,0,0:0:0:0:
320,192,50252,1,0,0:0:0:0:
64,192,50252,1,0,0:0:0:0:
64,192,50460,1,0,0:0:0:0:
320,192,50460,1,0,0:0:0:0:
192,192,50669,1,0,0:0:0:0:
448,192,50669,1,0,0:0:0:0:
448,192,50877,1,0,0:0:0:0:
192,192,50877,1,0,0:0:0:0:
192,192,51085,1,0,0:0:0:0:
448,192,51085,1,0,0:0:0:0:
192,192,51294,1,0,0:0:0:0:
448,192,51294,1,0,0:0:0:0:
448,192,51502,1,0,0:0:0:0:
192,192,51502,1,0,0:0:0:0:
320,192,51502,1,0,0:0:0:0:
320,192,51606,1,0,0:0:0:0:
192,192,51606,1,0,0:0:0:0:
64,192,51606,1,0,0:0:0:0:
192,192,51710,1,0,0:0:0:0:
320,192,51710,1,0,0:0:0:0:
448,192,51710,1,0,0:0:0:0:
320,192,51814,1,0,0:0:0:0:
192,192,51814,1,0,0:0:0:0:
64,192,51814,1,0,0:0:0:0:
192,192,51919,1,0,0:0:0:0:
320,192,51919,1,0,0:0:0:0:
448,192,51919,1,0,0:0:0:0:
64,192,52023,1,0,0:0:0:0:
448,192,52023,128,0,52231:0:0:0:0:
64,192,52231,5,0,0:0:0:0:
320,192,52231,1,0,0:0:0:0:
192,192,52231,128,0,52439:0:0:0:0:
320,192,52439,1,0,0:0:0:0:
448,192,52439,1,0,0:0:0:0:
320,192,52544,1,0,0:0:0:0:
192,192,52544,1,0,0:0:0:0:
64,192,52544,1,0,0:0:0:0:
448,192,52648,1,0,0:0:0:0:
64,192,52752,1,0,0:0:0:0:
320,192,52752,1,0,0:0:0:0:
192,192,52856,1,0,0:0:0:0:
320,192,52856,1,0,0:0:0:0:
448,192,52856,1,0,0:0:0:0:
320,192,52960,1,0,0:0:0:0:
64,192,52960,1,0,0:0:0:0:
448,192,53064,1,0,0:0:0:0:
64,192,53168,1,0,0:0:0:0:
192,192,53168,1,0,0:0:0:0:
448,192,53273,1,0,0:0:0:0:
64,192,53377,1,0,0:0:0:0:
320,192,53377,1,0,0:0:0:0:
192,192,53377,1,0,0:0:0:0:
448,192,53481,1,0,0:0:0:0:
192,192,53585,1,0,0:0:0:0:
320,192,53585,1,0,0:0:0:0:
64,192,53689,1,0,0:0:0:0:
320,192,53689,1,0,0:0:0:0:
448,192,53689,1,0,0:0:0:0:
192,192,53793,1,0,0:0:0:0:
448,192,53898,1,0,0:0:0:0:
320,192,53898,1,0,0:0:0:0:
64,192,53898,1,0,0:0:0:0:
192,192,54106,1,0,0:0:0:0:
320,192,54106,1,0,0:0:0:0:
64,192,54210,1,0,0:0:0:0:
320,192,54210,1,0,0:0:0:0:
448,192,54210,1,0,0:0:0:0:
192,192,54418,1,0,0:0:0:0:
320,192,54418,1,0,0:0:0:0:
192,192,54627,1,0,0:0:0:0:
64,192,54627,1,0,0:0:0:0:
320,192,54627,1,0,0:0:0:0:
448,192,54627,1,0,0:0:0:0:
64,192,54835,1,0,0:0:0:0:
192,192,54835,1,0,0:0:0:0:
320,192,54835,1,0,0:0:0:0:
320,192,55043,1,0,0:0:0:0:
192,192,55043,1,0,0:0:0:0:
448,192,55043,1,0,0:0:0:0:
64,192,55252,1,0,0:0:0:0:
192,192,55356,1,0,0:0:0:0:
448,192,55356,1,0,0:0:0:0:
320,192,55460,1,0,0:0:0:0:
64,192,55460,1,0,0:0:0:0:
64,192,55564,1,0,0:0:0:0:
192,192,55564,1,0,0:0:0:0:
448,192,55564,1,0,0:0:0:0:
192,192,55773,1,0,0:0:0:0:
320,192,55773,1,0,0:0:0:0:
320,192,55877,1,0,0:0:0:0:
64,192,55877,1,0,0:0:0:0:
448,192,55877,1,0,0:0:0:0:
192,192,56085,1,0,0:0:0:0:
64,192,56085,1,0,0:0:0:0:
320,192,56189,1,0,0:0:0:0:
448,192,56189,1,0,0:0:0:0:
192,192,56293,1,0,0:0:0:0:
64,192,56293,1,0,0:0:0:0:
448,192,56293,1,0,0:0:0:0:
320,192,56502,1,0,0:0:0:0:
448,192,56502,1,0,0:0:0:0:
192,192,56606,1,0,0:0:0:0:
64,192,56606,1,0,0:0:0:0:
192,192,56710,1,0,0:0:0:0:
320,192,56710,1,0,0:0:0:0:
448,192,56710,1,0,0:0:0:0:
448,192,56918,1,0,0:0:0:0:
192,192,56918,1,0,0:0:0:0:
64,192,57023,1,0,0:0:0:0:
320,192,57127,1,0,0:0:0:0:
448,192,57127,1,0,0:0:0:0:
64,192,57231,1,0,0:0:0:0:
320,192,57231,1,0,0:0:0:0:
192,192,57231,128,0,57439:0:0:0:0:
64,192,57439,1,0,0:0:0:0:
320,192,57439,1,0,0:0:0:0:
192,192,57543,1,0,0:0:0:0:
448,192,57543,1,0,0:0:0:0:
320,192,57543,1,0,0:0:0:0:
64,192,57752,1,0,0:0:0:0:
192,192,57804,1,0,0:0:0:0:
320,192,57856,1,0,0:0:0:0:
448,192,57908,1,0,0:0:0:0:
192,192,57960,1,0,0:0:0:0:
320,192,57960,1,0,0:0:0:0:
64,192,57960,1,0,0:0:0:0:
192,192,58064,1,0,0:0:0:0:
320,192,58064,1,0,0:0:0:0:
448,192,58064,128,0,58273:0:0:0:0:
320,192,58273,1,0,0:0:0:0:
64,192,58273,1,0,0:0:0:0:
192,192,58377,1,0,0:0:0:0:
320,192,58377,1,0,0:0:0:0:
448,192,58377,1,0,0:0:0:0:
192,192,58585,1,0,0:0:0:0:
448,192,58585,1,0,0:0:0:0:
320,192,58585,1,0,0:0:0:0:
320,192,58689,1,0,0:0:0:0:
64,192,58689,1,0,0:0:0:0:
64,192,58898,1,0,0:0:0:0:
320,192,58898,1,0,0:0:0:0:
192,192,58898,128,0,59106:0:0:0:0:
320,192,59106,1,0,0:0:0:0:
448,192,59106,1,0,0:0:0:0:
320,192,59210,1,0,0:0:0:0:
192,192,59210,1,0,0:0:0:0:
64,192,59210,1,0,0:0:0:0:
64,192,59418,1,0,0:0:0:0:
448,192,59418,1,0,0:0:0:0:
320,192,59627,1,0,0:0:0:0:
192,192,59627,1,0,0:0:0:0:
64,192,59627,1,0,0:0:0:0:
320,192,59835,1,0,0:0:0:0:
192,192,59835,1,0,0:0:0:0:
448,192,60043,1,0,0:0:0:0:
320,192,60043,1,0,0:0:0:0:
64,192,60043,1,0,0:0:0:0:
192,192,60252,1,0,0:0:0:0:
64,192,60252,1,0,0:0:0:0:
192,192,60356,1,0,0:0:0:0:
448,192,60356,1,0,0:0:0:0:
320,192,60460,1,0,0:0:0:0:
64,192,60460,1,0,0:0:0:0:
320,192,60564,1,0,0:0:0:0:
448,192,60564,1,0,0:0:0:0:
192,192,60564,1,0,0:0:0:0:
320,192,60773,1,0,0:0:0:0:
192,192,60773,1,0,0:0:0:0:
320,192,60877,1,0,0:0:0:0:
448,192,60877,1,0,0:0:0:0:
64,192,60877,1,0,0:0:0:0:
192,192,61085,1,0,0:0:0:0:
320,192,61085,1,0,0:0:0:0:
64,192,61293,1,0,0:0:0:0:
192,192,61293,1,0,0:0:0:0:
448,192,61293,1,0,0:0:0:0:
320,192,61398,1,0,0:0:0:0:
192,192,61450,1,0,0:0:0:0:
320,192,61502,1,0,0:0:0:0:
64,192,61502,1,0,0:0:0:0:
448,192,61502,1,0,0:0:0:0:
192,192,61710,1,0,0:0:0:0:
320,192,61710,1,0,0:0:0:0:
192,192,61918,1,0,0:0:0:0:
64,192,61918,1,0,0:0:0:0:
448,192,61918,1,0,0:0:0:0:
320,192,61971,1,0,0:0:0:0:
192,192,62023,1,0,0:0:0:0:
64,192,62075,1,0,0:0:0:0:
320,192,62127,1,0,0:0:0:0:
192,192,62231,1,0,0:0:0:0:
64,192,62231,1,0,0:0:0:0:
448,192,62231,1,0,0:0:0:0:
448,192,62439,1,0,0:0:0:0:
192,192,62543,1,0,0:0:0:0:
320,192,62543,1,0,0:0:0:0:
64,192,62543,1,0,0:0:0:0:
64,192,62752,1,0,0:0:0:0:
320,192,62752,1,0,0:0:0:0:
320,192,62856,1,0,0:0:0:0:
64,192,62856,1,0,0:0:0:0:
320,192,62960,1,0,0:0:0:0:
192,192,62960,1,0,0:0:0:0:
448,192,62960,1,0,0:0:0:0:
64,192,63168,1,0,0:0:0:0:
320,192,63168,1,0,0:0:0:0:
192,192,63168,1,0,0:0:0:0:
320,192,63377,1,0,0:0:0:0:
192,192,63377,1,0,0:0:0:0:
448,192,63377,1,0,0:0:0:0:
192,192,63585,1,0,0:0:0:0:
320,192,63637,1,0,0:0:0:0:
192,192,63689,1,0,0:0:0:0:
448,192,63793,1,0,0:0:0:0:
64,192,63793,1,0,0:0:0:0:
320,192,63793,1,0,0:0:0:0:
192,192,63898,1,0,0:0:0:0:
64,192,63898,1,0,0:0:0:0:
320,192,63898,1,0,0:0:0:0:
192,192,64106,1,0,0:0:0:0:
320,192,64106,1,0,0:0:0:0:
64,192,64210,1,0,0:0:0:0:
320,192,64210,1,0,0:0:0:0:
448,192,64210,1,0,0:0:0:0:
192,192,64418,1,0,0:0:0:0:
448,192,64418,1,0,0:0:0:0:
64,192,64523,1,0,0:0:0:0:
448,192,64523,1,0,0:0:0:0:
192,192,64627,1,0,0:0:0:0:
320,192,64627,1,0,0:0:0:0:
320,192,64731,1,0,0:0:0:0:
192,192,64731,1,0,0:0:0:0:
64,192,64731,1,0,0:0:0:0:
448,192,64731,1,0,0:0:0:0:
320,192,64939,1,0,0:0:0:0:
448,192,64939,1,0,0:0:0:0:
448,192,65043,1,0,0:0:0:0:
320,192,65043,1,0,0:0:0:0:
192,192,65148,1,0,0:0:0:0:
64,192,65148,1,0,0:0:0:0:
64,192,65252,1,0,0:0:0:0:
192,192,65252,1,0,0:0:0:0:
448,192,65356,1,0,0:0:0:0:
192,192,65356,1,0,0:0:0:0:
320,192,65460,1,0,0:0:0:0:
64,192,65460,1,0,0:0:0:0:
64,192,65564,1,0,0:0:0:0:
320,192,65564,1,0,0:0:0:0:
320,192,65668,1,0,0:0:0:0:
192,192,65668,1,0,0:0:0:0:
448,192,65668,1,0,0:0:0:0:
192,192,65980,1,0,0:0:0:0:
320,192,66084,1,0,0:0:0:0:
448,192,66084,1,0,0:0:0:0:
64,192,66084,1,0,0:0:0:0:
320,192,66293,1,0,0:0:0:0:
448,192,66293,1,0,0:0:0:0:
64,192,66397,1,0,0:0:0:0:
192,192,66397,1,0,0:0:0:0:
192,192,66605,1,0,0:0:0:0:
64,192,66605,1,0,0:0:0:0:
320,192,66709,1,0,0:0:0:0:
448,192,66709,1,0,0:0:0:0:
192,192,66918,1,0,0:0:0:0:
64,192,66918,1,0,0:0:0:0:
448,192,66918,1,0,0:0:0:0:
64,192,67022,1,0,0:0:0:0:
192,192,67022,1,0,0:0:0:0:
64,192,67126,1,0,0:0:0:0:
192,192,67126,1,0,0:0:0:0:
64,192,67230,1,0,0:0:0:0:
192,192,67230,1,0,0:0:0:0:
320,192,67334,1,0,0:0:0:0:
448,192,67334,1,0,0:0:0:0:
192,192,67647,1,0,0:0:0:0:
64,192,67751,1,0,0:0:0:0:
320,192,67751,1,0,0:0:0:0:
448,192,67751,1,0,0:0:0:0:
448,192,67959,1,0,0:0:0:0:
192,192,67959,1,0,0:0:0:0:
320,192,68063,1,0,0:0:0:0:
64,192,68063,1,0,0:0:0:0:
192,192,68272,1,0,0:0:0:0:
448,192,68272,1,0,0:0:0:0:
320,192,68376,1,0,0:0:0:0:
64,192,68376,1,0,0:0:0:0:
320,192,68584,1,0,0:0:0:0:
448,192,68584,1,0,0:0:0:0:
64,192,68688,1,0,0:0:0:0:
192,192,68688,1,0,0:0:0:0:
320,192,68793,1,0,0:0:0:0:
448,192,68793,1,0,0:0:0:0:
64,192,68897,1,0,0:0:0:0:
192,192,69001,1,0,0:0:0:0:
320,192,69001,1,0,0:0:0:0:
448,192,69001,1,0,0:0:0:0:
448,192,69313,1,0,0:0:0:0:
64,192,69313,1,0,0:0:0:0:
320,192,69418,1,0,0:0:0:0:
192,192,69418,1,0,0:0:0:0:
64,192,69626,1,0,0:0:0:0:
192,192,69626,1,0,0:0:0:0:
320,192,69730,1,0,0:0:0:0:
448,192,69730,1,0,0:0:0:0:
64,192,69938,1,0,0:0:0:0:
192,192,69938,1,0,0:0:0:0:
320,192,70043,1,0,0:0:0:0:
448,192,70043,1,0,0:0:0:0:
192,192,70251,1,0,0:0:0:0:
64,192,70251,1,0,0:0:0:0:
448,192,70251,1,0,0:0:0:0:
320,192,70355,1,0,0:0:0:0:
192,192,70459,1,0,0:0:0:0:
64,192,70563,1,0,0:0:0:0:
192,192,70668,1,0,0:0:0:0:
320,192,70668,1,0,0:0:0:0:
448,192,70668,1,0,0:0:0:0:
192,192,70980,1,0,0:0:0:0:
448,192,70980,1,0,0:0:0:0:
320,192,71084,1,0,0:0:0:0:
192,192,71084,1,0,0:0:0:0:
64,192,71084,1,0,0:0:0:0:
64,192,71293,1,0,0:0:0:0:
320,192,71293,1,0,0:0:0:0:
192,192,71397,1,0,0:0:0:0:
448,192,71397,1,0,0:0:0:0:
320,192,71605,1,0,0:0:0:0:
64,192,71605,1,0,0:0:0:0:
192,192,71709,1,0,0:0:0:0:
320,192,71918,1,0,0:0:0:0:
448,192,71918,1,0,0:0:0:0:
64,192,71918,1,0,0:0:0:0:
320,192,72022,1,0,0:0:0:0:
448,192,72022,1,0,0:0:0:0:
320,192,72126,1,0,0:0:0:0:
448,192,72126,1,0,0:0:0:0:
320,192,72334,1,0,0:0:0:0:
64,192,72334,1,0,0:0:0:0:
192,192,72334,1,0,0:0:0:0:
64,192,72647,1,0,0:0:0:0:
192,192,72751,1,0,0:0:0:0:
320,192,72751,1,0,0:0:0:0:
448,192,72751,1,0,0:0:0:0:
64,192,72959,1,0,0:0:0:0:
320,192,72959,1,0,0:0:0:0:
192,192,73063,1,0,0:0:0:0:
448,192,73063,1,0,0:0:0:0:
192,192,73272,1,0,0:0:0:0:
448,192,73272,1,0,0:0:0:0:
320,192,73376,1,0,0:0:0:0:
64,192,73376,1,0,0:0:0:0:
64,192,73584,1,0,0:0:0:0:
448,192,73584,1,0,0:0:0:0:
192,192,73584,128,0,74001:0:0:0:0:
320,192,74001,1,0,0:0:0:0:
64,192,74001,1,0,0:0:0:0:
448,192,74001,1,0,0:0:0:0:
192,192,74209,1,0,0:0:0:0:
64,192,74209,1,0,0:0:0:0:
320,192,74261,1,0,0:0:0:0:
448,192,74261,1,0,0:0:0:0:
192,192,74313,1,0,0:0:0:0:
64,192,74313,1,0,0:0:0:0:
320,192,74417,1,0,0:0:0:0:
448,192,74417,1,0,0:0:0:0:
192,192,74469,1,0,0:0:0:0:
64,192,74469,1,0,0:0:0:0:
320,192,74521,1,0,0:0:0:0:
448,192,74521,1,0,0:0:0:0:
64,192,74626,1,0,0:0:0:0:
192,192,74678,1,0,0:0:0:0:
320,192,74730,1,0,0:0:0:0:
192,192,74782,1,0,0:0:0:0:
64,192,74834,1,0,0:0:0:0:
448,192,74834,1,0,0:0:0:0:
320,192,74886,1,0,0:0:0:0:
448,192,74938,1,0,0:0:0:0:
320,192,74990,1,0,0:0:0:0:
448,192,75042,1,0,0:0:0:0:
64,192,75042,1,0,0:0:0:0:
192,192,75042,1,0,0:0:0:0:
320,192,75251,1,0,0:0:0:0:
64,192,75251,1,0,0:0:0:0:
192,192,75303,1,0,0:0:0:0:
448,192,75355,1,0,0:0:0:0:
320,192,75407,1,0,0:0:0:0:
192,192,75459,1,0,0:0:0:0:
64,192,75511,1,0,0:0:0:0:
192,192,75563,1,0,0:0:0:0:
320,192,75615,1,0,0:0:0:0:
64,192,75667,1,0,0:0:0:0:
448,192,75667,1,0,0:0:0:0:
192,192,75667,1,0,0:0:0:0:
320,192,75771,1,0,0:0:0:0:
64,192,75876,1,0,0:0:0:0:
448,192,75876,1,0,0:0:0:0:
192,192,75980,1,0,0:0:0:0:
64,192,76084,1,0,0:0:0:0:
448,192,76084,1,0,0:0:0:0:
320,192,76188,1,0,0:0:0:0:
64,192,76292,1,0,0:0:0:0:
448,192,76292,1,0,0:0:0:0:
192,192,76396,1,0,0:0:0:0:
448,192,76501,1,0,0:0:0:0:
64,192,76501,1,0,0:0:0:0:
320,192,76605,1,0,0:0:0:0:
448,192,76709,1,0,0:0:0:0:
64,192,76709,1,0,0:0:0:0:
192,192,76813,1,0,0:0:0:0:
448,192,76917,1,0,0:0:0:0:
64,192,76917,1,0,0:0:0:0:
320,192,77021,1,0,0:0:0:0:
448,192,77126,1,0,0:0:0:0:
64,192,77126,1,0,0:0:0:0:
192,192,77178,1,0,0:0:0:0:
320,192,77230,1,0,0:0:0:0:
448,192,77282,1,0,0:0:0:0:
64,192,77334,1,0,0:0:0:0:
192,192,77334,1,0,0:0:0:0:
448,192,77438,1,0,0:0:0:0:
320,192,77542,1,0,0:0:0:0:
192,192,77542,1,0,0:0:0:0:
64,192,77542,1,0,0:0:0:0:
448,192,77646,1,0,0:0:0:0:
320,192,77751,1,0,0:0:0:0:
192,192,77751,1,0,0:0:0:0:
448,192,77855,1,0,0:0:0:0:
320,192,77959,1,0,0:0:0:0:
64,192,77959,1,0,0:0:0:0:
192,192,78063,1,0,0:0:0:0:
448,192,78167,1,0,0:0:0:0:
320,192,78167,1,0,0:0:0:0:
192,192,78219,1,0,0:0:0:0:
64,192,78271,1,0,0:0:0:0:
448,192,78323,1,0,0:0:0:0:
192,192,78376,1,0,0:0:0:0:
320,192,78376,1,0,0:0:0:0:
64,192,78428,1,0,0:0:0:0:
448,192,78480,1,0,0:0:0:0:
320,192,78532,1,0,0:0:0:0:
192,192,78584,1,0,0:0:0:0:
64,192,78584,1,0,0:0:0:0:
320,192,78636,1,0,0:0:0:0:
448,192,78688,1,0,0:0:0:0:
64,192,78740,1,0,0:0:0:0:
448,192,78792,1,0,0:0:0:0:
192,192,78792,1,0,0:0:0:0:
320,192,78792,1,0,0:0:0:0:
64,192,78844,1,0,0:0:0:0:
448,192,78896,1,0,0:0:0:0:
320,192,78948,1,0,0:0:0:0:
192,192,79000,1,0,0:0:0:0:
64,192,79000,1,0,0:0:0:0:
448,192,79105,1,0,0:0:0:0:
192,192,79209,1,0,0:0:0:0:
64,192,79209,1,0,0:0:0:0:
320,192,79209,1,0,0:0:0:0:
448,192,79313,1,0,0:0:0:0:
64,192,79417,1,0,0:0:0:0:
320,192,79417,1,0,0:0:0:0:
448,192,79521,1,0,0:0:0:0:
320,192,79625,1,0,0:0:0:0:
192,192,79625,1,0,0:0:0:0:
448,192,79730,1,0,0:0:0:0:
192,192,79834,1,0,0:0:0:0:
64,192,79834,1,0,0:0:0:0:
448,192,79938,1,0,0:0:0:0:
64,192,80042,1,0,0:0:0:0:
192,192,80042,1,0,0:0:0:0:
320,192,80042,1,0,0:0:0:0:
448,192,80146,1,0,0:0:0:0:
192,192,80250,1,0,0:0:0:0:
320,192,80250,1,0,0:0:0:0:
448,192,80355,1,0,0:0:0:0:
64,192,80459,1,0,0:0:0:0:
192,192,80459,1,0,0:0:0:0:
320,192,80511,1,0,0:0:0:0:
448,192,80563,1,0,0:0:0:0:
320,192,80615,1,0,0:0:0:0:
64,192,80667,1,0,0:0:0:0:
192,192,80667,1,0,0:0:0:0:
448,192,80719,1,0,0:0:0:0:
320,192,80771,1,0,0:0:0:0:
192,192,80823,1,0,0:0:0:0:
64,192,80875,1,0,0:0:0:0:
448,192,80875,1,0,0:0:0:0:
320,192,80928,1,0,0:0:0:0:
192,192,80980,1,0,0:0:0:0:
64,192,80980,1,0,0:0:0:0:
320,192,81032,1,0,0:0:0:0:
448,192,81084,1,0,0:0:0:0:
320,192,81136,1,0,0:0:0:0:
192,192,81188,1,0,0:0:0:0:
64,192,81240,1,0,0:0:0:0:
320,192,81292,1,0,0:0:0:0:
448,192,81292,1,0,0:0:0:0:
192,192,81344,1,0,0:0:0:0:
64,192,81396,1,0,0:0:0:0:
320,192,81448,1,0,0:0:0:0:
192,192,81500,1,0,0:0:0:0:
64,192,81500,1,0,0:0:0:0:
448,192,81500,1,0,0:0:0:0:
64,192,81709,1,0,0:0:0:0:
448,192,81813,1,0,0:0:0:0:
192,192,81813,1,0,0:0:0:0:
320,192,81813,1,0,0:0:0:0:
448,192,82021,1,0,0:0:0:0:
64,192,82125,1,0,0:0:0:0:
192,192,82125,1,0,0:0:0:0:
320,192,82125,1,0,0:0:0:0:
64,192,82334,1,0,0:0:0:0:
448,192,82334,1,0,0:0:0:0:
192,192,82334,1,0,0:0:0:0:
192,192,82438,1,0,0:0:0:0:
448,192,82542,1,0,0:0:0:0:
64,192,82542,1,0,0:0:0:0:
320,192,82542,1,0,0:0:0:0:
320,192,82646,1,0,0:0:0:0:
64,192,82750,1,0,0:0:0:0:
448,192,82750,1,0,0:0:0:0:
192,192,82750,1,0,0:0:0:0:
192,192,82855,1,0,0:0:0:0:
448,192,82959,1,0,0:0:0:0:
64,192,82959,1,0,0:0:0:0:
320,192,82959,1,0,0:0:0:0:
320,192,83063,1,0,0:0:0:0:
64,192,83167,1,0,0:0:0:0:
448,192,83167,1,0,0:0:0:0:
192,192,83167,1,0,0:0:0:0:
192,192,83271,1,0,0:0:0:0:
64,192,83375,1,0,0:0:0:0:
448,192,83375,1,0,0:0:0:0:
320,192,83375,1,0,0:0:0:0:
320,192,83480,1,0,0:0:0:0:
64,192,83584,1,0,0:0:0:0:
448,192,83584,1,0,0:0:0:0:
192,192,83584,1,0,0:0:0:0:
192,192,83688,1,0,0:0:0:0:
448,192,83792,1,0,0:0:0:0:
64,192,83792,1,0,0:0:0:0:
320,192,83844,1,0,0:0:0:0:
192,192,83896,1,0,0:0:0:0:
64,192,83948,1,0,0:0:0:0:
320,192,84000,1,0,0:0:0:0:
448,192,84000,1,0,0:0:0:0:
64,192,84105,1,0,0:0:0:0:
320,192,84209,1,0,0:0:0:0:
192,192,84209,1,0,0:0:0:0:
448,192,84209,1,0,0:0:0:0:
64,192,84313,1,0,0:0:0:0:
320,192,84417,1,0,0:0:0:0:
192,192,84417,1,0,0:0:0:0:
64,192,84521,1,0,0:0:0:0:
192,192,84625,1,0,0:0:0:0:
448,192,84625,1,0,0:0:0:0:
320,192,84730,1,0,0:0:0:0:
64,192,84834,1,0,0:0:0:0:
192,192,84834,1,0,0:0:0:0:
320,192,84886,1,0,0:0:0:0:
448,192,84938,1,0,0:0:0:0:
64,192,84990,1,0,0:0:0:0:
320,192,85042,1,0,0:0:0:0:
192,192,85042,1,0,0:0:0:0:
448,192,85094,1,0,0:0:0:0:
64,192,85146,1,0,0:0:0:0:
192,192,85198,1,0,0:0:0:0:
448,192,85250,1,0,0:0:0:0:
320,192,85250,1,0,0:0:0:0:
192,192,85303,1,0,0:0:0:0:
64,192,85355,1,0,0:0:0:0:
448,192,85407,1,0,0:0:0:0:
64,192,85459,1,0,0:0:0:0:
320,192,85459,1,0,0:0:0:0:
192,192,85459,1,0,0:0:0:0:
448,192,85511,1,0,0:0:0:0:
64,192,85563,1,0,0:0:0:0:
192,192,85615,1,0,0:0:0:0:
320,192,85667,1,0,0:0:0:0:
448,192,85667,1,0,0:0:0:0:
64,192,85771,1,0,0:0:0:0:
320,192,85875,1,0,0:0:0:0:
192,192,85875,1,0,0:0:0:0:
448,192,85875,1,0,0:0:0:0:
64,192,85980,1,0,0:0:0:0:
448,192,86084,1,0,0:0:0:0:
192,192,86084,1,0,0:0:0:0:
64,192,86188,1,0,0:0:0:0:
192,192,86292,1,0,0:0:0:0:
320,192,86292,1,0,0:0:0:0:
64,192,86396,1,0,0:0:0:0:
320,192,86500,1,0,0:0:0:0:
448,192,86500,1,0,0:0:0:0:
64,192,86605,1,0,0:0:0:0:
192,192,86709,1,0,0:0:0:0:
320,192,86709,1,0,0:0:0:0:
448,192,86709,1,0,0:0:0:0:
64,192,86813,1,0,0:0:0:0:
192,192,86917,1,0,0:0:0:0:
320,192,86917,1,0,0:0:0:0:
64,192,87021,1,0,0:0:0:0:
448,192,87125,1,0,0:0:0:0:
320,192,87125,1,0,0:0:0:0:
192,192,87178,1,0,0:0:0:0:
320,192,87230,1,0,0:0:0:0:
448,192,87282,1,0,0:0:0:0:
64,192,87334,1,0,0:0:0:0:
192,192,87334,1,0,0:0:0:0:
448,192,87438,1,0,0:0:0:0:
320,192,87542,1,0,0:0:0:0:
192,192,87542,1,0,0:0:0:0:
448,192,87646,1,0,0:0:0:0:
64,192,87646,1,0,0:0:0:0:
320,192,87646,1,0,0:0:0:0:
192,192,87750,1,0,0:0:0:0:
320,192,87855,1,0,0:0:0:0:
192,192,87959,1,0,0:0:0:0:
64,192,87959,1,0,0:0:0:0:
448,192,87959,1,0,0:0:0:0:
320,192,88167,1,0,0:0:0:0:
448,192,88167,1,0,0:0:0:0:
192,192,88167,1,0,0:0:0:0:
64,192,88271,1,0,0:0:0:0:
448,192,88375,1,0,0:0:0:0:
320,192,88480,1,0,0:0:0:0:
64,192,88480,1,0,0:0:0:0:
192,192,88480,1,0,0:0:0:0:
448,192,88584,1,0,0:0:0:0:
64,192,88688,1,0,0:0:0:0:
192,192,88792,1,0,0:0:0:0:
448,192,88792,1,0,0:0:0:0:
320,192,88792,1,0,0:0:0:0:
192,192,89000,1,0,0:0:0:0:
320,192,89000,1,0,0:0:0:0:
448,192,89000,1,0,0:0:0:0:
64,192,89000,1,0,0:0:0:0:
