osu file format v13

[General]
AudioFilename: koiwamilktea.mp3
AudioLeadIn: 2000
PreviewTime: 49307
Countdown: 0
SampleSet: None
StackLeniency: 0.7
Mode: 3
LetterboxInBreaks: 0
SpecialStyle: 0
WidescreenStoryboard: 1

[Editor]
DistanceSpacing: 1.2
BeatDivisor: 4
GridSize: 8
TimelineZoom: 1.9

[Metadata]
Title:Anime Endings Madness P.2
TitleUnicode:Anime Endings Madness P.2
Artist:FX
ArtistUnicode:FX
Creator:[FX] AEM
Version:Koi wa Milk Tea [FX]
Source:
Tags:ending
BeatmapID:625255
BeatmapSetID:275629

[Difficulty]
HPDrainRate:8
CircleSize:4
OverallDifficulty:8
ApproachRate:0
SliderMultiplier:1.76
SliderTickRate:1

[Events]
//Background and Video events
//Break Periods
//Storyboard Layer 0 (Background)
//Storyboard Layer 1 (Fail)
//Storyboard Layer 2 (Pass)
//Storyboard Layer 3 (Foreground)
//Storyboard Sound Samples

[TimingPoints]
865,491.803278688525,4,2,0,20,1,0

[HitObjects]
64,192,865,128,0,2094:0:0:0:0:
320,192,2094,1,0,0:0:0:0:
192,192,2094,1,0,0:0:0:0:
320,192,2217,1,0,0:0:0:0:
448,192,2217,1,0,0:0:0:0:
192,192,2340,1,0,0:0:0:0:
64,192,2340,1,0,0:0:0:0:
448,192,2340,128,0,2832:0:0:0:0:
320,192,2832,1,0,0:0:0:0:
192,192,2832,1,0,0:0:0:0:
64,192,2832,1,0,0:0:0:0:
448,192,2955,1,0,0:0:0:0:
64,192,3078,1,0,0:0:0:0:
448,192,3201,1,0,0:0:0:0:
192,192,3201,1,0,0:0:0:0:
320,192,3201,1,0,0:0:0:0:
64,192,3324,1,0,0:0:0:0:
448,192,3446,1,0,0:0:0:0:
320,192,3569,1,0,0:0:0:0:
64,192,3569,1,0,0:0:0:0:
192,192,3569,1,0,0:0:0:0:
64,192,3692,1,0,0:0:0:0:
448,192,3692,1,0,0:0:0:0:
320,192,3815,1,0,0:0:0:0:
448,192,3815,1,0,0:0:0:0:
192,192,3815,1,0,0:0:0:0:
64,192,3938,1,0,0:0:0:0:
320,192,4061,1,0,0:0:0:0:
64,192,4184,1,0,0:0:0:0:
448,192,4307,128,0,4553:0:0:0:0:
320,192,4430,1,0,0:0:0:0:
192,192,4553,128,0,4799:0:0:0:0:
320,192,4676,1,0,0:0:0:0:
64,192,4799,1,0,0:0:0:0:
320,192,4799,1,0,0:0:0:0:
448,192,4799,1,0,0:0:0:0:
192,192,4922,1,0,0:0:0:0:
448,192,5045,1,0,0:0:0:0:
320,192,5168,1,0,0:0:0:0:
192,192,5168,1,0,0:0:0:0:
64,192,5168,1,0,0:0:0:0:
448,192,5291,1,0,0:0:0:0:
64,192,5414,1,0,0:0:0:0:
192,192,5537,1,0,0:0:0:0:
320,192,5537,1,0,0:0:0:0:
448,192,5537,1,0,0:0:0:0:
64,192,5660,1,0,0:0:0:0:
448,192,5660,1,0,0:0:0:0:
320,192,5783,1,0,0:0:0:0:
192,192,5783,1,0,0:0:0:0:
64,192,5783,1,0,0:0:0:0:
320,192,5905,1,0,0:0:0:0:
320,192,6028,1,0,0:0:0:0:
448,192,6151,1,0,0:0:0:0:
320,192,6274,1,0,0:0:0:0:
64,192,6274,128,0,6766:0:0:0:0:
448,192,6520,1,0,0:0:0:0:
192,192,6520,128,0,6766:0:0:0:0:
320,192,6520,1,0,0:0:0:0:
448,192,6643,1,0,0:0:0:0:
320,192,6643,1,0,0:0:0:0:
320,192,6766,1,0,0:0:0:0:
448,192,6766,1,0,0:0:0:0:
64,192,7012,1,0,0:0:0:0:
192,192,7135,1,0,0:0:0:0:
448,192,7135,1,0,0:0:0:0:
320,192,7135,1,0,0:0:0:0:
64,192,7258,1,0,0:0:0:0:
448,192,7381,1,0,0:0:0:0:
320,192,7504,1,0,0:0:0:0:
192,192,7504,1,0,0:0:0:0:
64,192,7627,1,0,0:0:0:0:
192,192,7750,1,0,0:0:0:0:
320,192,7750,1,0,0:0:0:0:
448,192,7750,128,0,7996:0:0:0:0:
64,192,7873,1,0,0:0:0:0:
320,192,7996,128,0,8242:0:0:0:0:
448,192,8119,1,0,0:0:0:0:
192,192,8242,128,0,8487:0:0:0:0:
64,192,8365,1,0,0:0:0:0:
320,192,8487,128,0,8733:0:0:0:0:
448,192,8610,1,0,0:0:0:0:
64,192,8733,1,0,0:0:0:0:
192,192,8733,1,0,0:0:0:0:
448,192,8733,1,0,0:0:0:0:
320,192,8856,1,0,0:0:0:0:
64,192,8979,1,0,0:0:0:0:
320,192,9102,1,0,0:0:0:0:
448,192,9102,1,0,0:0:0:0:
192,192,9102,1,0,0:0:0:0:
64,192,9225,1,0,0:0:0:0:
448,192,9348,1,0,0:0:0:0:
320,192,9471,1,0,0:0:0:0:
64,192,9471,1,0,0:0:0:0:
448,192,9594,1,0,0:0:0:0:
192,192,9717,1,0,0:0:0:0:
320,192,9717,1,0,0:0:0:0:
64,192,9717,1,0,0:0:0:0:
64,192,9881,1,0,0:0:0:0:
192,192,9881,1,0,0:0:0:0:
320,192,9881,1,0,0:0:0:0:
64,192,10045,1,0,0:0:0:0:
192,192,10045,1,0,0:0:0:0:
320,192,10045,1,0,0:0:0:0:
320,192,10209,1,0,0:0:0:0:
192,192,10209,1,0,0:0:0:0:
64,192,10209,1,0,0:0:0:0:
448,192,10270,1,0,0:0:0:0:
320,192,10332,1,0,0:0:0:0:
192,192,10393,1,0,0:0:0:0:
64,192,10455,1,0,0:0:0:0:
448,192,10516,1,0,0:0:0:0:
320,192,10578,1,0,0:0:0:0:
192,192,10639,1,0,0:0:0:0:
64,192,10701,1,0,0:0:0:0:
320,192,10701,1,0,0:0:0:0:
448,192,10701,1,0,0:0:0:0:
192,192,10824,1,0,0:0:0:0:
320,192,10824,1,0,0:0:0:0:
448,192,10946,1,0,0:0:0:0:
320,192,11069,1,0,0:0:0:0:
192,192,11069,1,0,0:0:0:0:
64,192,11069,1,0,0:0:0:0:
448,192,11192,1,0,0:0:0:0:
320,192,11192,1,0,0:0:0:0:
64,192,11315,1,0,0:0:0:0:
192,192,11438,1,0,0:0:0:0:
320,192,11438,1,0,0:0:0:0:
448,192,11438,1,0,0:0:0:0:
192,192,11561,1,0,0:0:0:0:
64,192,11561,1,0,0:0:0:0:
192,192,11684,1,0,0:0:0:0:
448,192,11684,1,0,0:0:0:0:
320,192,11684,1,0,0:0:0:0:
64,192,11807,1,0,0:0:0:0:
320,192,11930,1,0,0:0:0:0:
448,192,11930,1,0,0:0:0:0:
192,192,12053,1,0,0:0:0:0:
64,192,12053,1,0,0:0:0:0:
192,192,12176,1,0,0:0:0:0:
320,192,12176,1,0,0:0:0:0:
448,192,12176,1,0,0:0:0:0:
64,192,12299,1,0,0:0:0:0:
320,192,12422,1,0,0:0:0:0:
192,192,12422,1,0,0:0:0:0:
64,192,12545,1,0,0:0:0:0:
448,192,12545,1,0,0:0:0:0:
192,192,12668,1,0,0:0:0:0:
320,192,12668,1,0,0:0:0:0:
64,192,12668,1,0,0:0:0:0:
448,192,12791,1,0,0:0:0:0:
192,192,12914,1,0,0:0:0:0:
64,192,13037,1,0,0:0:0:0:
320,192,13037,1,0,0:0:0:0:
192,192,13160,1,0,0:0:0:0:
320,192,13160,1,0,0:0:0:0:
448,192,13160,1,0,0:0:0:0:
64,192,13283,1,0,0:0:0:0:
192,192,13405,1,0,0:0:0:0:
320,192,13405,1,0,0:0:0:0:
64,192,13528,1,0,0:0:0:0:
448,192,13528,1,0,0:0:0:0:
320,192,13651,1,0,0:0:0:0:
192,192,13651,1,0,0:0:0:0:
64,192,13651,1,0,0:0:0:0:
320,192,13897,1,0,0:0:0:0:
448,192,13897,1,0,0:0:0:0:
64,192,14020,1,0,0:0:0:0:
320,192,14143,1,0,0:0:0:0:
192,192,14143,128,0,14389:0:0:0:0:
448,192,14143,1,0,0:0:0:0:
64,192,14389,1,0,0:0:0:0:
320,192,14389,128,0,14635:0:0:0:0:
192,192,14635,1,0,0:0:0:0:
64,192,14635,1,0,0:0:0:0:
448,192,14635,1,0,0:0:0:0:
320,192,14758,1,0,0:0:0:0:
64,192,14881,1,0,0:0:0:0:
320,192,15004,1,0,0:0:0:0:
192,192,15004,1,0,0:0:0:0:
64,192,15127,1,0,0:0:0:0:
320,192,15127,1,0,0:0:0:0:
448,192,15127,1,0,0:0:0:0:
192,192,15250,1,0,0:0:0:0:
448,192,15373,1,0,0:0:0:0:
64,192,15373,1,0,0:0:0:0:
320,192,15496,1,0,0:0:0:0:
192,192,15496,1,0,0:0:0:0:
192,192,15619,1,0,0:0:0:0:
64,192,15619,1,0,0:0:0:0:
448,192,15619,1,0,0:0:0:0:
320,192,15742,1,0,0:0:0:0:
64,192,15865,1,0,0:0:0:0:
192,192,15987,1,0,0:0:0:0:
448,192,15987,1,0,0:0:0:0:
320,192,16110,1,0,0:0:0:0:
192,192,16110,1,0,0:0:0:0:
64,192,16110,1,0,0:0:0:0:
320,192,16233,1,0,0:0:0:0:
320,192,16356,1,0,0:0:0:0:
192,192,16356,128,0,16602:0:0:0:0:
448,192,16479,1,0,0:0:0:0:
64,192,16602,1,0,0:0:0:0:
320,192,16602,1,0,0:0:0:0:
448,192,16602,1,0,0:0:0:0:
192,192,16848,1,0,0:0:0:0:
448,192,16848,1,0,0:0:0:0:
320,192,16971,1,0,0:0:0:0:
192,192,16971,1,0,0:0:0:0:
64,192,16971,1,0,0:0:0:0:
448,192,17094,1,0,0:0:0:0:
320,192,17340,1,0,0:0:0:0:
448,192,17340,1,0,0:0:0:0:
192,192,17340,1,0,0:0:0:0:
64,192,17586,1,0,0:0:0:0:
192,192,17586,1,0,0:0:0:0:
320,192,17586,1,0,0:0:0:0:
448,192,17586,1,0,0:0:0:0:
320,192,17832,1,0,0:0:0:0:
192,192,17955,1,0,0:0:0:0:
64,192,17955,1,0,0:0:0:0:
320,192,18078,1,0,0:0:0:0:
448,192,18078,1,0,0:0:0:0:
64,192,18139,1,0,0:0:0:0:
192,192,18201,1,0,0:0:0:0:
320,192,18262,1,0,0:0:0:0:
448,192,18324,1,0,0:0:0:0:
64,192,18385,1,0,0:0:0:0:
192,192,18446,1,0,0:0:0:0:
320,192,18508,1,0,0:0:0:0:
448,192,18569,1,0,0:0:0:0:
192,192,18569,1,0,0:0:0:0:
64,192,18569,1,0,0:0:0:0:
320,192,19061,1,0,0:0:0:0:
448,192,19061,1,0,0:0:0:0:
192,192,19799,1,0,0:0:0:0:
192,192,19922,1,0,0:0:0:0:
64,192,20045,1,0,0:0:0:0:
320,192,20045,1,0,0:0:0:0:
448,192,20045,1,0,0:0:0:0:
192,192,20537,1,0,0:0:0:0:
64,192,20537,1,0,0:0:0:0:
448,192,20537,1,0,0:0:0:0:
448,192,20660,1,0,0:0:0:0:
192,192,20783,1,0,0:0:0:0:
320,192,20783,1,0,0:0:0:0:
64,192,20905,1,0,0:0:0:0:
320,192,20905,1,0,0:0:0:0:
448,192,20905,1,0,0:0:0:0:
64,192,21028,1,0,0:0:0:0:
192,192,21151,1,0,0:0:0:0:
320,192,21151,1,0,0:0:0:0:
192,192,21274,1,0,0:0:0:0:
64,192,21274,1,0,0:0:0:0:
448,192,21274,1,0,0:0:0:0:
448,192,21397,1,0,0:0:0:0:
320,192,21520,1,0,0:0:0:0:
192,192,21520,1,0,0:0:0:0:
64,192,21520,1,0,0:0:0:0:
448,192,21643,1,0,0:0:0:0:
320,192,21766,1,0,0:0:0:0:
192,192,21766,1,0,0:0:0:0:
64,192,21889,1,0,0:0:0:0:
320,192,22012,1,0,0:0:0:0:
192,192,22012,1,0,0:0:0:0:
448,192,22012,1,0,0:0:0:0:
448,192,22135,1,0,0:0:0:0:
64,192,22258,1,0,0:0:0:0:
192,192,22258,1,0,0:0:0:0:
320,192,22258,1,0,0:0:0:0:
64,192,22381,1,0,0:0:0:0:
192,192,22504,1,0,0:0:0:0:
320,192,22504,1,0,0:0:0:0:
448,192,22504,1,0,0:0:0:0:
448,192,22996,1,0,0:0:0:0:
448,192,23119,1,0,0:0:0:0:
192,192,23242,1,0,0:0:0:0:
320,192,23365,1,0,0:0:0:0:
192,192,23487,1,0,0:0:0:0:
64,192,23487,1,0,0:0:0:0:
448,192,23487,1,0,0:0:0:0:
64,192,24471,1,0,0:0:0:0:
192,192,24471,1,0,0:0:0:0:
320,192,24471,1,0,0:0:0:0:
448,192,24594,1,0,0:0:0:0:
64,192,24717,1,0,0:0:0:0:
320,192,24840,1,0,0:0:0:0:
192,192,24840,1,0,0:0:0:0:
448,192,24840,1,0,0:0:0:0:
64,192,24963,1,0,0:0:0:0:
448,192,25086,1,0,0:0:0:0:
320,192,25209,1,0,0:0:0:0:
192,192,25209,1,0,0:0:0:0:
64,192,25209,1,0,0:0:0:0:
320,192,25332,1,0,0:0:0:0:
64,192,25455,1,0,0:0:0:0:
192,192,25455,1,0,0:0:0:0:
448,192,25455,1,0,0:0:0:0:
64,192,25578,1,0,0:0:0:0:
320,192,25701,1,0,0:0:0:0:
320,192,25824,1,0,0:0:0:0:
192,192,25946,1,0,0:0:0:0:
64,192,25946,1,0,0:0:0:0:
448,192,25946,1,0,0:0:0:0:
64,192,26069,1,0,0:0:0:0:
320,192,26192,1,0,0:0:0:0:
448,192,26192,1,0,0:0:0:0:
192,192,26192,1,0,0:0:0:0:
448,192,26315,1,0,0:0:0:0:
320,192,26438,1,0,0:0:0:0:
192,192,26438,1,0,0:0:0:0:
64,192,26438,1,0,0:0:0:0:
64,192,26930,1,0,0:0:0:0:
320,192,27053,1,0,0:0:0:0:
192,192,27176,1,0,0:0:0:0:
448,192,27299,1,0,0:0:0:0:
320,192,27422,1,0,0:0:0:0:
192,192,27422,1,0,0:0:0:0:
64,192,27422,1,0,0:0:0:0:
192,192,27668,1,0,0:0:0:0:
320,192,27668,1,0,0:0:0:0:
448,192,27668,1,0,0:0:0:0:
320,192,27914,1,0,0:0:0:0:
192,192,27914,1,0,0:0:0:0:
64,192,27914,1,0,0:0:0:0:
448,192,28160,1,0,0:0:0:0:
64,192,28160,1,0,0:0:0:0:
64,192,28283,1,0,0:0:0:0:
448,192,28283,1,0,0:0:0:0:
320,192,28405,1,0,0:0:0:0:
64,192,28405,1,0,0:0:0:0:
192,192,28405,1,0,0:0:0:0:
448,192,28528,1,0,0:0:0:0:
64,192,28651,1,0,0:0:0:0:
192,192,28774,1,0,0:0:0:0:
320,192,28774,1,0,0:0:0:0:
448,192,28774,1,0,0:0:0:0:
64,192,28897,1,0,0:0:0:0:
448,192,29020,1,0,0:0:0:0:
320,192,29143,1,0,0:0:0:0:
192,192,29143,1,0,0:0:0:0:
64,192,29143,1,0,0:0:0:0:
448,192,29266,1,0,0:0:0:0:
320,192,29389,1,0,0:0:0:0:
64,192,29389,1,0,0:0:0:0:
448,192,29389,1,0,0:0:0:0:
64,192,29512,1,0,0:0:0:0:
320,192,29635,1,0,0:0:0:0:
192,192,29758,1,0,0:0:0:0:
320,192,29881,1,0,0:0:0:0:
64,192,29881,1,0,0:0:0:0:
448,192,29881,1,0,0:0:0:0:
448,192,30004,1,0,0:0:0:0:
320,192,30127,1,0,0:0:0:0:
192,192,30127,1,0,0:0:0:0:
64,192,30127,1,0,0:0:0:0:
64,192,30250,1,0,0:0:0:0:
192,192,30373,1,0,0:0:0:0:
320,192,30373,1,0,0:0:0:0:
448,192,30373,1,0,0:0:0:0:
448,192,30619,1,0,0:0:0:0:
448,192,30865,1,0,0:0:0:0:
448,192,31110,1,0,0:0:0:0:
320,192,31110,1,0,0:0:0:0:
64,192,31233,1,0,0:0:0:0:
320,192,31356,1,0,0:0:0:0:
448,192,31356,1,0,0:0:0:0:
192,192,31356,1,0,0:0:0:0:
320,192,31602,1,0,0:0:0:0:
192,192,31602,1,0,0:0:0:0:
64,192,31602,1,0,0:0:0:0:
192,192,31848,1,0,0:0:0:0:
320,192,31848,1,0,0:0:0:0:
448,192,31848,1,0,0:0:0:0:
320,192,32094,1,0,0:0:0:0:
64,192,32094,1,0,0:0:0:0:
64,192,32217,1,0,0:0:0:0:
320,192,32217,1,0,0:0:0:0:
192,192,32340,1,0,0:0:0:0:
320,192,32340,1,0,0:0:0:0:
448,192,32340,1,0,0:0:0:0:
64,192,32463,1,0,0:0:0:0:
448,192,32586,1,0,0:0:0:0:
320,192,32709,1,0,0:0:0:0:
192,192,32709,1,0,0:0:0:0:
64,192,32709,1,0,0:0:0:0:
448,192,32832,1,0,0:0:0:0:
64,192,32955,1,0,0:0:0:0:
192,192,33078,1,0,0:0:0:0:
320,192,33078,1,0,0:0:0:0:
448,192,33078,1,0,0:0:0:0:
64,192,33201,1,0,0:0:0:0:
448,192,33201,1,0,0:0:0:0:
320,192,33324,1,0,0:0:0:0:
192,192,33324,1,0,0:0:0:0:
64,192,33324,1,0,0:0:0:0:
448,192,33446,1,0,0:0:0:0:
192,192,33569,1,0,0:0:0:0:
448,192,33692,1,0,0:0:0:0:
320,192,33815,1,0,0:0:0:0:
192,192,33815,1,0,0:0:0:0:
64,192,33815,1,0,0:0:0:0:
64,192,33938,1,0,0:0:0:0:
192,192,34061,1,0,0:0:0:0:
320,192,34061,1,0,0:0:0:0:
448,192,34061,1,0,0:0:0:0:
448,192,34184,1,0,0:0:0:0:
320,192,34307,1,0,0:0:0:0:
192,192,34307,1,0,0:0:0:0:
64,192,34307,1,0,0:0:0:0:
64,192,34553,1,0,0:0:0:0:
192,192,34553,1,0,0:0:0:0:
320,192,34553,1,0,0:0:0:0:
320,192,34799,1,0,0:0:0:0:
192,192,34799,1,0,0:0:0:0:
64,192,34799,1,0,0:0:0:0:
64,192,35045,1,0,0:0:0:0:
192,192,35045,1,0,0:0:0:0:
320,192,35045,1,0,0:0:0:0:
320,192,35291,1,0,0:0:0:0:
64,192,35291,1,0,0:0:0:0:
448,192,35291,1,0,0:0:0:0:
448,192,35455,1,0,0:0:0:0:
320,192,35455,1,0,0:0:0:0:
64,192,35455,1,0,0:0:0:0:
64,192,35619,1,0,0:0:0:0:
320,192,35619,1,0,0:0:0:0:
448,192,35619,1,0,0:0:0:0:
64,192,35783,1,0,0:0:0:0:
320,192,35783,1,0,0:0:0:0:
448,192,35783,1,0,0:0:0:0:
192,192,35844,1,0,0:0:0:0:
320,192,35905,1,0,0:0:0:0:
448,192,35967,1,0,0:0:0:0:
64,192,36028,1,0,0:0:0:0:
192,192,36090,1,0,0:0:0:0:
320,192,36151,1,0,0:0:0:0:
448,192,36213,1,0,0:0:0:0:
320,192,36274,1,0,0:0:0:0:
192,192,36274,1,0,0:0:0:0:
64,192,36274,1,0,0:0:0:0:
320,192,36643,1,0,0:0:0:0:
192,192,36643,1,0,0:0:0:0:
64,192,36766,1,0,0:0:0:0:
320,192,36766,1,0,0:0:0:0:
448,192,36766,1,0,0:0:0:0:
64,192,37012,1,0,0:0:0:0:
448,192,37012,1,0,0:0:0:0:
192,192,37012,1,0,0:0:0:0:
320,192,37135,1,0,0:0:0:0:
192,192,37258,1,0,0:0:0:0:
64,192,37258,1,0,0:0:0:0:
448,192,37258,1,0,0:0:0:0:
192,192,37504,1,0,0:0:0:0:
192,192,37627,1,0,0:0:0:0:
320,192,37750,1,0,0:0:0:0:
448,192,37750,1,0,0:0:0:0:
64,192,37750,1,0,0:0:0:0:
320,192,37873,1,0,0:0:0:0:
192,192,37996,1,0,0:0:0:0:
64,192,37996,1,0,0:0:0:0:
192,192,38119,1,0,0:0:0:0:
320,192,38242,1,0,0:0:0:0:
64,192,38242,1,0,0:0:0:0:
448,192,38242,1,0,0:0:0:0:
192,192,38610,1,0,0:0:0:0:
320,192,38610,1,0,0:0:0:0:
192,192,38733,1,0,0:0:0:0:
64,192,38733,1,0,0:0:0:0:
448,192,38733,1,0,0:0:0:0:
64,192,38979,1,0,0:0:0:0:
448,192,38979,1,0,0:0:0:0:
320,192,39225,1,0,0:0:0:0:
192,192,39225,1,0,0:0:0:0:
448,192,39225,1,0,0:0:0:0:
64,192,39471,1,0,0:0:0:0:
320,192,39471,1,0,0:0:0:0:
448,192,39471,1,0,0:0:0:0:
64,192,39594,1,0,0:0:0:0:
192,192,39717,1,0,0:0:0:0:
320,192,39717,1,0,0:0:0:0:
448,192,39717,1,0,0:0:0:0:
448,192,39840,1,0,0:0:0:0:
448,192,39963,1,0,0:0:0:0:
448,192,40086,1,0,0:0:0:0:
320,192,40209,1,0,0:0:0:0:
192,192,40209,1,0,0:0:0:0:
64,192,40209,1,0,0:0:0:0:
320,192,40455,1,0,0:0:0:0:
192,192,40578,1,0,0:0:0:0:
448,192,40578,1,0,0:0:0:0:
320,192,40701,1,0,0:0:0:0:
448,192,40701,1,0,0:0:0:0:
64,192,40701,1,0,0:0:0:0:
64,192,40946,1,0,0:0:0:0:
192,192,40946,1,0,0:0:0:0:
320,192,40946,1,0,0:0:0:0:
448,192,41069,1,0,0:0:0:0:
320,192,41192,1,0,0:0:0:0:
192,192,41192,1,0,0:0:0:0:
64,192,41192,1,0,0:0:0:0:
448,192,41438,1,0,0:0:0:0:
448,192,41561,1,0,0:0:0:0:
64,192,41684,1,0,0:0:0:0:
192,192,41684,1,0,0:0:0:0:
64,192,41807,1,0,0:0:0:0:
320,192,41930,1,0,0:0:0:0:
448,192,41930,1,0,0:0:0:0:
320,192,42053,1,0,0:0:0:0:
192,192,42176,1,0,0:0:0:0:
64,192,42176,1,0,0:0:0:0:
448,192,42176,1,0,0:0:0:0:
192,192,42422,1,0,0:0:0:0:
64,192,42545,1,0,0:0:0:0:
320,192,42545,1,0,0:0:0:0:
192,192,42668,1,0,0:0:0:0:
320,192,42668,1,0,0:0:0:0:
448,192,42668,1,0,0:0:0:0:
64,192,42914,1,0,0:0:0:0:
192,192,42914,1,0,0:0:0:0:
320,192,42914,1,0,0:0:0:0:
64,192,43160,1,0,0:0:0:0:
192,192,43160,1,0,0:0:0:0:
448,192,43160,1,0,0:0:0:0:
192,192,43405,1,0,0:0:0:0:
64,192,43405,1,0,0:0:0:0:
448,192,43405,1,0,0:0:0:0:
320,192,43528,1,0,0:0:0:0:
192,192,43651,1,0,0:0:0:0:
64,192,43651,1,0,0:0:0:0:
448,192,43651,1,0,0:0:0:0:
64,192,43897,1,0,0:0:0:0:
192,192,43897,1,0,0:0:0:0:
448,192,43897,1,0,0:0:0:0:
320,192,43959,1,0,0:0:0:0:
192,192,44020,1,0,0:0:0:0:
64,192,44082,1,0,0:0:0:0:
320,192,44143,1,0,0:0:0:0:
192,192,44143,1,0,0:0:0:0:
448,192,44143,1,0,0:0:0:0:
64,192,44512,1,0,0:0:0:0:
448,192,44512,1,0,0:0:0:0:
192,192,44635,1,0,0:0:0:0:
320,192,44635,1,0,0:0:0:0:
64,192,44635,1,0,0:0:0:0:
192,192,44881,1,0,0:0:0:0:
448,192,44881,1,0,0:0:0:0:
448,192,45004,1,0,0:0:0:0:
320,192,45127,1,0,0:0:0:0:
64,192,45127,1,0,0:0:0:0:
64,192,45250,1,0,0:0:0:0:
448,192,45373,1,0,0:0:0:0:
320,192,45496,1,0,0:0:0:0:
192,192,45619,1,0,0:0:0:0:
64,192,45619,1,0,0:0:0:0:
448,192,45619,1,0,0:0:0:0:
320,192,45865,1,0,0:0:0:0:
192,192,45865,1,0,0:0:0:0:
192,192,45987,1,0,0:0:0:0:
64,192,46110,1,0,0:0:0:0:
320,192,46110,1,0,0:0:0:0:
448,192,46110,1,0,0:0:0:0:
192,192,46233,1,0,0:0:0:0:
448,192,46356,1,0,0:0:0:0:
192,192,46479,1,0,0:0:0:0:
64,192,46479,1,0,0:0:0:0:
192,192,46602,1,0,0:0:0:0:
448,192,46602,1,0,0:0:0:0:
320,192,46602,1,0,0:0:0:0:
320,192,46848,1,0,0:0:0:0:
64,192,46848,1,0,0:0:0:0:
192,192,46848,1,0,0:0:0:0:
448,192,47094,1,0,0:0:0:0:
320,192,47094,1,0,0:0:0:0:
192,192,47094,1,0,0:0:0:0:
64,192,47217,1,0,0:0:0:0:
448,192,47340,1,0,0:0:0:0:
192,192,47340,1,0,0:0:0:0:
192,192,47463,1,0,0:0:0:0:
320,192,47463,1,0,0:0:0:0:
64,192,47463,1,0,0:0:0:0:
448,192,47586,1,0,0:0:0:0:
64,192,47709,1,0,0:0:0:0:
320,192,47709,1,0,0:0:0:0:
320,192,47832,1,0,0:0:0:0:
192,192,47832,1,0,0:0:0:0:
448,192,47832,1,0,0:0:0:0:
448,192,47955,1,0,0:0:0:0:
64,192,48078,1,0,0:0:0:0:
192,192,48078,1,0,0:0:0:0:
320,192,48078,1,0,0:0:0:0:
64,192,48201,1,0,0:0:0:0:
448,192,48324,1,0,0:0:0:0:
320,192,48385,1,0,0:0:0:0:
192,192,48446,1,0,0:0:0:0:
64,192,48508,1,0,0:0:0:0:
448,192,48569,128,0,49061:0:0:0:0:
320,192,48815,128,0,49061:0:0:0:0:
192,192,48815,1,0,0:0:0:0:
192,192,49061,1,0,0:0:0:0:
64,192,49061,1,0,0:0:0:0:
64,192,50045,1,0,0:0:0:0:
320,192,50045,1,0,0:0:0:0:
448,192,50045,1,0,0:0:0:0:
192,192,50168,1,0,0:0:0:0:
448,192,50291,1,0,0:0:0:0:
192,192,50414,1,0,0:0:0:0:
320,192,50414,1,0,0:0:0:0:
64,192,50537,1,0,0:0:0:0:
192,192,50537,1,0,0:0:0:0:
448,192,50537,1,0,0:0:0:0:
64,192,50783,1,0,0:0:0:0:
320,192,50783,1,0,0:0:0:0:
448,192,50783,1,0,0:0:0:0:
192,192,50905,1,0,0:0:0:0:
64,192,51028,1,0,0:0:0:0:
320,192,51028,1,0,0:0:0:0:
448,192,51028,1,0,0:0:0:0:
448,192,51274,1,0,0:0:0:0:
64,192,51274,1,0,0:0:0:0:
320,192,51397,1,0,0:0:0:0:
192,192,51397,1,0,0:0:0:0:
64,192,51520,1,0,0:0:0:0:
320,192,51520,1,0,0:0:0:0:
448,192,51520,1,0,0:0:0:0:
64,192,51766,1,0,0:0:0:0:
64,192,51889,1,0,0:0:0:0:
320,192,52012,1,0,0:0:0:0:
192,192,52012,1,0,0:0:0:0:
448,192,52012,1,0,0:0:0:0:
64,192,52135,1,0,0:0:0:0:
448,192,52258,1,0,0:0:0:0:
64,192,52381,1,0,0:0:0:0:
320,192,52381,1,0,0:0:0:0:
192,192,52504,1,0,0:0:0:0:
320,192,52504,1,0,0:0:0:0:
448,192,52504,1,0,0:0:0:0:
64,192,52627,1,0,0:0:0:0:
192,192,52750,1,0,0:0:0:0:
448,192,52750,1,0,0:0:0:0:
320,192,52873,1,0,0:0:0:0:
64,192,52873,1,0,0:0:0:0:
192,192,52996,1,0,0:0:0:0:
64,192,52996,1,0,0:0:0:0:
448,192,52996,1,0,0:0:0:0:
64,192,53242,1,0,0:0:0:0:
320,192,53242,1,0,0:0:0:0:
192,192,53365,1,0,0:0:0:0:
448,192,53365,1,0,0:0:0:0:
320,192,53487,1,0,0:0:0:0:
64,192,53487,1,0,0:0:0:0:
448,192,53487,1,0,0:0:0:0:
320,192,53610,1,0,0:0:0:0:
320,192,53733,128,0,53979:0:0:0:0:
192,192,53979,1,0,0:0:0:0:
64,192,53979,1,0,0:0:0:0:
448,192,53979,1,0,0:0:0:0:
64,192,54225,1,0,0:0:0:0:
192,192,54348,1,0,0:0:0:0:
448,192,54348,1,0,0:0:0:0:
320,192,54471,1,0,0:0:0:0:
192,192,54471,1,0,0:0:0:0:
64,192,54471,1,0,0:0:0:0:
320,192,54717,1,0,0:0:0:0:
448,192,54717,1,0,0:0:0:0:
192,192,54840,1,0,0:0:0:0:
320,192,54963,1,0,0:0:0:0:
64,192,54963,1,0,0:0:0:0:
448,192,54963,1,0,0:0:0:0:
64,192,55086,1,0,0:0:0:0:
448,192,55209,1,0,0:0:0:0:
320,192,55332,1,0,0:0:0:0:
192,192,55332,1,0,0:0:0:0:
64,192,55455,1,0,0:0:0:0:
320,192,55455,1,0,0:0:0:0:
448,192,55455,1,0,0:0:0:0:
448,192,55701,128,0,55946:0:0:0:0:
64,192,55946,1,0,0:0:0:0:
192,192,55946,1,0,0:0:0:0:
320,192,55946,1,0,0:0:0:0:
192,192,56110,1,0,0:0:0:0:
320,192,56110,1,0,0:0:0:0:
448,192,56110,1,0,0:0:0:0:
320,192,56274,1,0,0:0:0:0:
192,192,56274,1,0,0:0:0:0:
64,192,56274,1,0,0:0:0:0:
192,192,56438,1,0,0:0:0:0:
320,192,56438,1,0,0:0:0:0:
448,192,56438,1,0,0:0:0:0:
64,192,56602,1,0,0:0:0:0:
192,192,56602,1,0,0:0:0:0:
320,192,56602,1,0,0:0:0:0:
320,192,56766,1,0,0:0:0:0:
192,192,56766,1,0,0:0:0:0:
448,192,56766,1,0,0:0:0:0:
320,192,56930,1,0,0:0:0:0:
192,192,56930,1,0,0:0:0:0:
64,192,56930,1,0,0:0:0:0:
64,192,57094,1,0,0:0:0:0:
192,192,57094,1,0,0:0:0:0:
320,192,57094,1,0,0:0:0:0:
64,192,57258,1,0,0:0:0:0:
192,192,57258,1,0,0:0:0:0:
320,192,57258,1,0,0:0:0:0:
320,192,57422,1,0,0:0:0:0:
192,192,57422,1,0,0:0:0:0:
448,192,57422,1,0,0:0:0:0:
64,192,57422,128,0,57668:0:0:0:0:
448,192,57668,128,0,57914:0:0:0:0:
192,192,57668,1,0,0:0:0:0:
320,192,57791,1,0,0:0:0:0:
192,192,57914,1,0,0:0:0:0:
64,192,57914,1,0,0:0:0:0:
320,192,57914,1,0,0:0:0:0:
448,192,58160,1,0,0:0:0:0:
320,192,58283,1,0,0:0:0:0:
64,192,58283,1,0,0:0:0:0:
192,192,58405,1,0,0:0:0:0:
320,192,58405,1,0,0:0:0:0:
448,192,58405,1,0,0:0:0:0:
64,192,58651,1,0,0:0:0:0:
320,192,58651,1,0,0:0:0:0:
64,192,58774,1,0,0:0:0:0:
192,192,58897,1,0,0:0:0:0:
448,192,58897,1,0,0:0:0:0:
320,192,58897,1,0,0:0:0:0:
448,192,59020,1,0,0:0:0:0:
448,192,59143,1,0,0:0:0:0:
448,192,59266,1,0,0:0:0:0:
192,192,59266,1,0,0:0:0:0:
192,192,59389,1,0,0:0:0:0:
320,192,59389,1,0,0:0:0:0:
64,192,59389,128,0,59635:0:0:0:0:
192,192,59635,1,0,0:0:0:0:
320,192,59635,1,0,0:0:0:0:
448,192,59635,128,0,59881:0:0:0:0:
320,192,59881,1,0,0:0:0:0:
192,192,59881,1,0,0:0:0:0:
64,192,59881,1,0,0:0:0:0:
192,192,60127,1,0,0:0:0:0:
64,192,60250,1,0,0:0:0:0:
320,192,60250,1,0,0:0:0:0:
320,192,60373,1,0,0:0:0:0:
192,192,60373,1,0,0:0:0:0:
448,192,60373,1,0,0:0:0:0:
64,192,60496,1,0,0:0:0:0:
192,192,60619,1,0,0:0:0:0:
320,192,60619,1,0,0:0:0:0:
448,192,60742,1,0,0:0:0:0:
192,192,60865,1,0,0:0:0:0:
320,192,60865,1,0,0:0:0:0:
64,192,60865,1,0,0:0:0:0:
320,192,61110,1,0,0:0:0:0:
192,192,61233,1,0,0:0:0:0:
448,192,61233,1,0,0:0:0:0:
320,192,61356,1,0,0:0:0:0:
192,192,61356,1,0,0:0:0:0:
64,192,61356,128,0,61602:0:0:0:0:
320,192,61479,1,0,0:0:0:0:
448,192,61602,128,0,61848:0:0:0:0:
192,192,61602,1,0,0:0:0:0:
192,192,61725,1,0,0:0:0:0:
320,192,61848,1,0,0:0:0:0:
192,192,61848,1,0,0:0:0:0:
64,192,61848,1,0,0:0:0:0:
64,192,62094,1,0,0:0:0:0:
320,192,62217,1,0,0:0:0:0:
448,192,62217,1,0,0:0:0:0:
320,192,62340,1,0,0:0:0:0:
64,192,62340,1,0,0:0:0:0:
192,192,62340,1,0,0:0:0:0:
192,192,62586,1,0,0:0:0:0:
448,192,62586,1,0,0:0:0:0:
320,192,62709,1,0,0:0:0:0:
192,192,62832,1,0,0:0:0:0:
448,192,62832,1,0,0:0:0:0:
64,192,62832,1,0,0:0:0:0:
448,192,63078,1,0,0:0:0:0:
192,192,63201,1,0,0:0:0:0:
64,192,63201,1,0,0:0:0:0:
192,192,63324,1,0,0:0:0:0:
320,192,63324,1,0,0:0:0:0:
448,192,63324,1,0,0:0:0:0:
448,192,63569,1,0,0:0:0:0:
320,192,63631,1,0,0:0:0:0:
192,192,63692,1,0,0:0:0:0:
64,192,63754,1,0,0:0:0:0:
192,192,63815,1,0,0:0:0:0:
448,192,63815,1,0,0:0:0:0:
320,192,63815,128,0,64307:0:0:0:0:
192,192,64184,1,0,0:0:0:0:
64,192,64307,1,0,0:0:0:0:
448,192,64307,1,0,0:0:0:0:
192,192,64307,1,0,0:0:0:0:
320,192,64553,1,0,0:0:0:0:
448,192,64553,1,0,0:0:0:0:
192,192,64676,1,0,0:0:0:0:
64,192,64676,1,0,0:0:0:0:
192,192,64799,1,0,0:0:0:0:
320,192,64799,1,0,0:0:0:0:
448,192,64799,1,0,0:0:0:0:
320,192,65045,1,0,0:0:0:0:
448,192,65045,1,0,0:0:0:0:
448,192,65168,1,0,0:0:0:0:
192,192,65168,1,0,0:0:0:0:
320,192,65291,1,0,0:0:0:0:
64,192,65291,1,0,0:0:0:0:
192,192,65291,1,0,0:0:0:0:
64,192,65414,1,0,0:0:0:0:
64,192,65537,1,0,0:0:0:0:
320,192,65598,1,0,0:0:0:0:
192,192,65660,1,0,0:0:0:0:
448,192,65721,1,0,0:0:0:0:
320,192,65783,1,0,0:0:0:0:
192,192,65783,1,0,0:0:0:0:
64,192,65783,1,0,0:0:0:0:
320,192,66151,1,0,0:0:0:0:
448,192,66151,1,0,0:0:0:0:
64,192,66151,1,0,0:0:0:0:
64,192,66520,1,0,0:0:0:0:
320,192,66520,1,0,0:0:0:0:
192,192,66520,1,0,0:0:0:0:
192,192,66766,1,0,0:0:0:0:
320,192,66766,1,0,0:0:0:0:
448,192,66766,1,0,0:0:0:0:
64,192,67135,1,0,0:0:0:0:
192,192,67135,1,0,0:0:0:0:
448,192,67135,1,0,0:0:0:0:
64,192,67504,1,0,0:0:0:0:
192,192,67504,1,0,0:0:0:0:
320,192,67504,1,0,0:0:0:0:
192,192,67750,1,0,0:0:0:0:
320,192,67750,1,0,0:0:0:0:
448,192,67750,1,0,0:0:0:0:
64,192,68119,1,0,0:0:0:0:
320,192,68119,1,0,0:0:0:0:
448,192,68119,1,0,0:0:0:0:
192,192,68487,1,0,0:0:0:0:
320,192,68487,1,0,0:0:0:0:
448,192,68487,1,0,0:0:0:0:
320,192,68733,1,0,0:0:0:0:
192,192,68733,1,0,0:0:0:0:
64,192,68733,1,0,0:0:0:0:
320,192,69102,1,0,0:0:0:0:
192,192,69102,1,0,0:0:0:0:
448,192,69225,1,0,0:0:0:0:
64,192,69225,128,0,69471:0:0:0:0:
320,192,69471,128,0,69717:0:0:0:0:
64,192,69717,1,0,0:0:0:0:
448,192,69717,1,0,0:0:0:0:
192,192,69717,1,0,0:0:0:0:
320,192,69840,1,0,0:0:0:0:
64,192,69963,1,0,0:0:0:0:
320,192,70086,1,0,0:0:0:0:
192,192,70086,1,0,0:0:0:0:
320,192,70209,1,0,0:0:0:0:
448,192,70209,1,0,0:0:0:0:
64,192,70209,1,0,0:0:0:0:
448,192,70455,1,0,0:0:0:0:
192,192,70455,1,0,0:0:0:0:
320,192,70578,1,0,0:0:0:0:
192,192,70701,1,0,0:0:0:0:
64,192,70701,1,0,0:0:0:0:
448,192,70701,1,0,0:0:0:0:
64,192,70946,1,0,0:0:0:0:
448,192,70946,1,0,0:0:0:0:
320,192,71069,1,0,0:0:0:0:
192,192,71069,1,0,0:0:0:0:
448,192,71192,1,0,0:0:0:0:
192,192,71192,1,0,0:0:0:0:
64,192,71192,1,0,0:0:0:0:
448,192,71315,1,0,0:0:0:0:
320,192,71438,1,0,0:0:0:0:
320,192,71561,1,0,0:0:0:0:
192,192,71684,1,0,0:0:0:0:
64,192,71684,1,0,0:0:0:0:
448,192,71684,1,0,0:0:0:0:
320,192,71807,1,0,0:0:0:0:
64,192,71930,1,0,0:0:0:0:
448,192,72053,1,0,0:0:0:0:
192,192,72053,1,0,0:0:0:0:
64,192,72176,1,0,0:0:0:0:
192,192,72176,1,0,0:0:0:0:
320,192,72176,1,0,0:0:0:0:
448,192,72299,1,0,0:0:0:0:
64,192,72422,1,0,0:0:0:0:
320,192,72422,1,0,0:0:0:0:
192,192,72545,1,0,0:0:0:0:
448,192,72545,1,0,0:0:0:0:
448,192,72668,1,0,0:0:0:0:
320,192,72668,1,0,0:0:0:0:
64,192,72668,1,0,0:0:0:0:
320,192,72791,1,0,0:0:0:0:
448,192,72914,1,0,0:0:0:0:
192,192,72914,1,0,0:0:0:0:
320,192,73037,1,0,0:0:0:0:
64,192,73037,1,0,0:0:0:0:
192,192,73160,1,0,0:0:0:0:
448,192,73160,1,0,0:0:0:0:
64,192,73160,1,0,0:0:0:0:
192,192,73283,1,0,0:0:0:0:
192,192,73405,128,0,73651:0:0:0:0:
64,192,73651,1,0,0:0:0:0:
320,192,73651,1,0,0:0:0:0:
448,192,73651,1,0,0:0:0:0:
448,192,73897,1,0,0:0:0:0:
64,192,74020,1,0,0:0:0:0:
320,192,74020,1,0,0:0:0:0:
448,192,74143,1,0,0:0:0:0:
192,192,74143,1,0,0:0:0:0:
320,192,74143,1,0,0:0:0:0:
64,192,74389,1,0,0:0:0:0:
192,192,74389,1,0,0:0:0:0:
448,192,74389,1,0,0:0:0:0:
320,192,74512,1,0,0:0:0:0:
192,192,74635,1,0,0:0:0:0:
64,192,74635,1,0,0:0:0:0:
448,192,74635,1,0,0:0:0:0:
448,192,74758,1,0,0:0:0:0:
64,192,74881,1,0,0:0:0:0:
320,192,75004,1,0,0:0:0:0:
192,192,75004,1,0,0:0:0:0:
64,192,75127,1,0,0:0:0:0:
192,192,75127,1,0,0:0:0:0:
448,192,75127,1,0,0:0:0:0:
64,192,75373,128,0,75619:0:0:0:0:
320,192,75619,1,0,0:0:0:0:
448,192,75619,1,0,0:0:0:0:
192,192,75619,1,0,0:0:0:0:
320,192,75783,1,0,0:0:0:0:
64,192,75783,1,0,0:0:0:0:
192,192,75783,1,0,0:0:0:0:
448,192,75946,1,0,0:0:0:0:
320,192,75946,1,0,0:0:0:0:
192,192,75946,1,0,0:0:0:0:
192,192,76110,1,0,0:0:0:0:
64,192,76110,1,0,0:0:0:0:
320,192,76110,1,0,0:0:0:0:
192,192,76274,1,0,0:0:0:0:
448,192,76274,1,0,0:0:0:0:
320,192,76274,1,0,0:0:0:0:
192,192,76438,1,0,0:0:0:0:
64,192,76438,1,0,0:0:0:0:
320,192,76438,1,0,0:0:0:0:
192,192,76602,1,0,0:0:0:0:
448,192,76602,1,0,0:0:0:0:
320,192,76602,1,0,0:0:0:0:
320,192,76766,1,0,0:0:0:0:
448,192,76766,1,0,0:0:0:0:
192,192,76766,1,0,0:0:0:0:
192,192,76930,1,0,0:0:0:0:
448,192,76930,1,0,0:0:0:0:
320,192,76930,1,0,0:0:0:0:
64,192,77094,1,0,0:0:0:0:
320,192,77094,1,0,0:0:0:0:
448,192,77094,128,0,77340:0:0:0:0:
192,192,77094,1,0,0:0:0:0:
192,192,77217,1,0,0:0:0:0:
64,192,77340,128,0,77586:0:0:0:0:
320,192,77340,1,0,0:0:0:0:
448,192,77463,1,0,0:0:0:0:
320,192,77586,1,0,0:0:0:0:
192,192,77586,1,0,0:0:0:0:
448,192,77586,1,0,0:0:0:0:
64,192,77832,1,0,0:0:0:0:
448,192,77955,1,0,0:0:0:0:
192,192,77955,1,0,0:0:0:0:
192,192,78078,1,0,0:0:0:0:
320,192,78078,1,0,0:0:0:0:
64,192,78078,1,0,0:0:0:0:
448,192,78324,1,0,0:0:0:0:
192,192,78324,1,0,0:0:0:0:
448,192,78446,1,0,0:0:0:0:
192,192,78569,1,0,0:0:0:0:
64,192,78569,1,0,0:0:0:0:
320,192,78569,1,0,0:0:0:0:
64,192,78692,1,0,0:0:0:0:
64,192,78815,1,0,0:0:0:0:
320,192,78938,1,0,0:0:0:0:
64,192,78938,1,0,0:0:0:0:
448,192,79061,128,0,79307:0:0:0:0:
320,192,79061,1,0,0:0:0:0:
192,192,79061,1,0,0:0:0:0:
320,192,79307,1,0,0:0:0:0:
64,192,79307,128,0,79553:0:0:0:0:
192,192,79307,1,0,0:0:0:0:
192,192,79553,1,0,0:0:0:0:
320,192,79553,1,0,0:0:0:0:
448,192,79553,1,0,0:0:0:0:
320,192,79799,1,0,0:0:0:0:
192,192,79922,1,0,0:0:0:0:
448,192,79922,1,0,0:0:0:0:
192,192,80045,1,0,0:0:0:0:
320,192,80045,1,0,0:0:0:0:
64,192,80045,1,0,0:0:0:0:
448,192,80168,1,0,0:0:0:0:
192,192,80291,1,0,0:0:0:0:
320,192,80291,1,0,0:0:0:0:
64,192,80414,1,0,0:0:0:0:
448,192,80537,1,0,0:0:0:0:
192,192,80537,1,0,0:0:0:0:
320,192,80537,1,0,0:0:0:0:
192,192,80783,1,0,0:0:0:0:
320,192,80905,1,0,0:0:0:0:
64,192,80905,1,0,0:0:0:0:
448,192,81028,128,0,81274:0:0:0:0:
320,192,81028,1,0,0:0:0:0:
192,192,81028,1,0,0:0:0:0:
192,192,81151,1,0,0:0:0:0:
320,192,81274,1,0,0:0:0:0:
64,192,81274,128,0,81520:0:0:0:0:
320,192,81397,1,0,0:0:0:0:
448,192,81520,1,0,0:0:0:0:
320,192,81520,1,0,0:0:0:0:
192,192,81520,1,0,0:0:0:0:
448,192,81766,1,0,0:0:0:0:
192,192,81889,1,0,0:0:0:0:
64,192,81889,1,0,0:0:0:0:
320,192,82012,1,0,0:0:0:0:
448,192,82012,1,0,0:0:0:0:
192,192,82012,1,0,0:0:0:0:
320,192,82258,1,0,0:0:0:0:
64,192,82258,1,0,0:0:0:0:
192,192,82381,1,0,0:0:0:0:
64,192,82504,1,0,0:0:0:0:
448,192,82504,1,0,0:0:0:0:
320,192,82504,1,0,0:0:0:0:
64,192,82750,1,0,0:0:0:0:
448,192,82873,1,0,0:0:0:0:
320,192,82873,1,0,0:0:0:0:
192,192,82996,1,0,0:0:0:0:
64,192,82996,1,0,0:0:0:0:
320,192,82996,1,0,0:0:0:0:
64,192,83242,1,0,0:0:0:0:
192,192,83303,1,0,0:0:0:0:
320,192,83365,1,0,0:0:0:0:
448,192,83426,1,0,0:0:0:0:
192,192,83487,128,0,83979:0:0:0:0:
320,192,83487,1,0,0:0:0:0:
64,192,83487,1,0,0:0:0:0:
320,192,83856,1,0,0:0:0:0:
64,192,83979,1,0,0:0:0:0:
448,192,83979,1,0,0:0:0:0:
320,192,83979,1,0,0:0:0:0:
192,192,84225,1,0,0:0:0:0:
64,192,84225,1,0,0:0:0:0:
320,192,84348,1,0,0:0:0:0:
448,192,84348,1,0,0:0:0:0:
192,192,84471,1,0,0:0:0:0:
320,192,84471,1,0,0:0:0:0:
64,192,84471,1,0,0:0:0:0:
448,192,84840,128,0,85455:0:0:0:0:
320,192,85455,1,0,0:0:0:0:
192,192,85455,1,0,0:0:0:0:
64,192,85455,1,0,0:0:0:0:
64,192,85824,1,0,0:0:0:0:
192,192,85824,1,0,0:0:0:0:
320,192,85824,1,0,0:0:0:0:
64,192,86192,1,0,0:0:0:0:
320,192,86192,1,0,0:0:0:0:
192,192,86192,1,0,0:0:0:0:
64,192,86438,1,0,0:0:0:0:
192,192,86438,1,0,0:0:0:0:
320,192,86438,1,0,0:0:0:0:
64,192,86807,1,0,0:0:0:0:
320,192,86807,1,0,0:0:0:0:
448,192,86807,1,0,0:0:0:0:
192,192,87176,1,0,0:0:0:0:
320,192,87176,1,0,0:0:0:0:
448,192,87176,1,0,0:0:0:0:
192,192,87422,1,0,0:0:0:0:
64,192,87422,1,0,0:0:0:0:
320,192,87422,1,0,0:0:0:0:
448,192,87422,1,0,0:0:0:0:
