osu file format v13

[General]
AudioFilename: fallen.mp3
AudioLeadIn: 2000
PreviewTime: 52517
Countdown: 0
SampleSet: None
StackLeniency: 0.7
Mode: 3
LetterboxInBreaks: 0
SpecialStyle: 0
WidescreenStoryboard: 1

[Editor]
DistanceSpacing: 1
BeatDivisor: 4
GridSize: 4
TimelineZoom: 2.4

[Metadata]
Title:Anime Endings Madness P.2
TitleUnicode:Anime Endings Madness P.2
Artist:FX
ArtistUnicode:FX
Creator:[FX] AEM
Version:Fallen [FX]
Source:
Tags:ending
BeatmapID:625249
BeatmapSetID:275629

[Difficulty]
HPDrainRate:8
CircleSize:4
OverallDifficulty:8
ApproachRate:0
SliderMultiplier:1.8
SliderTickRate:2

[Events]
//Background and Video events
//Break Periods
//Storyboard Layer 0 (Background)
//Storyboard Layer 1 (Fail)
//Storyboard Layer 2 (Pass)
//Storyboard Layer 3 (Foreground)
//Storyboard Sound Samples

[TimingPoints]
290,310.880829015544,4,2,0,20,1,0

[HitObjects]
64,192,290,5,0,0:0:0:0:
320,192,290,1,0,0:0:0:0:
64,192,445,1,0,0:0:0:0:
64,192,600,1,0,0:0:0:0:
64,192,756,1,0,0:0:0:0:
64,192,911,1,0,0:0:0:0:
64,192,1067,1,0,0:0:0:0:
64,192,1222,1,0,0:0:0:0:
64,192,1378,1,0,0:0:0:0:
192,192,1533,1,0,0:0:0:0:
448,192,1533,1,0,0:0:0:0:
192,192,1688,1,0,0:0:0:0:
192,192,1844,1,0,0:0:0:0:
192,192,1999,1,0,0:0:0:0:
192,192,2155,1,0,0:0:0:0:
192,192,2310,1,0,0:0:0:0:
192,192,2466,1,0,0:0:0:0:
192,192,2621,1,0,0:0:0:0:
64,192,2777,1,0,0:0:0:0:
320,192,2777,1,0,0:0:0:0:
320,192,2932,1,0,0:0:0:0:
320,192,3087,1,0,0:0:0:0:
320,192,3243,1,0,0:0:0:0:
320,192,3398,1,0,0:0:0:0:
320,192,3554,1,0,0:0:0:0:
320,192,3709,1,0,0:0:0:0:
320,192,3865,1,0,0:0:0:0:
192,192,4020,1,0,0:0:0:0:
448,192,4020,1,0,0:0:0:0:
448,192,4176,1,0,0:0:0:0:
448,192,4331,1,0,0:0:0:0:
448,192,4486,1,0,0:0:0:0:
448,192,4642,1,0,0:0:0:0:
64,192,4642,1,0,0:0:0:0:
64,192,4797,1,0,0:0:0:0:
64,192,4953,1,0,0:0:0:0:
64,192,5108,1,0,0:0:0:0:
192,192,5264,1,0,0:0:0:0:
448,192,5264,1,0,0:0:0:0:
448,192,5419,1,0,0:0:0:0:
192,192,5574,1,0,0:0:0:0:
448,192,5574,1,0,0:0:0:0:
448,192,5730,1,0,0:0:0:0:
448,192,5885,1,0,0:0:0:0:
192,192,5885,1,0,0:0:0:0:
448,192,6041,1,0,0:0:0:0:
192,192,6196,1,0,0:0:0:0:
448,192,6196,1,0,0:0:0:0:
64,192,6352,1,0,0:0:0:0:
320,192,6352,1,0,0:0:0:0:
64,192,6507,1,0,0:0:0:0:
64,192,6663,1,0,0:0:0:0:
320,192,6663,1,0,0:0:0:0:
448,192,6818,1,0,0:0:0:0:
192,192,6818,1,0,0:0:0:0:
448,192,6973,1,0,0:0:0:0:
448,192,7129,1,0,0:0:0:0:
448,192,7284,1,0,0:0:0:0:
448,192,7440,1,0,0:0:0:0:
320,192,7595,1,0,0:0:0:0:
192,192,7595,1,0,0:0:0:0:
64,192,7751,1,0,0:0:0:0:
448,192,7751,1,0,0:0:0:0:
320,192,7906,1,0,0:0:0:0:
448,192,8062,1,0,0:0:0:0:
320,192,8217,1,0,0:0:0:0:
448,192,8372,1,0,0:0:0:0:
320,192,8528,1,0,0:0:0:0:
448,192,8683,1,0,0:0:0:0:
320,192,8839,1,0,0:0:0:0:
192,192,8839,1,0,0:0:0:0:
448,192,8994,1,0,0:0:0:0:
320,192,9150,1,0,0:0:0:0:
192,192,9150,1,0,0:0:0:0:
448,192,9305,1,0,0:0:0:0:
64,192,9305,1,0,0:0:0:0:
320,192,9460,1,0,0:0:0:0:
448,192,9616,1,0,0:0:0:0:
320,192,9771,1,0,0:0:0:0:
64,192,9927,1,0,0:0:0:0:
448,192,9927,1,0,0:0:0:0:
192,192,10082,1,0,0:0:0:0:
320,192,10082,1,0,0:0:0:0:
64,192,10238,1,0,0:0:0:0:
320,192,10238,1,0,0:0:0:0:
448,192,10238,128,0,10549:0:0:0:0:
64,192,10393,1,0,0:0:0:0:
192,192,10549,1,0,0:0:0:0:
320,192,10549,1,0,0:0:0:0:
64,192,10704,1,0,0:0:0:0:
448,192,10704,1,0,0:0:0:0:
448,192,10859,1,0,0:0:0:0:
448,192,11015,1,0,0:0:0:0:
64,192,11170,1,0,0:0:0:0:
448,192,11170,1,0,0:0:0:0:
192,192,11326,1,0,0:0:0:0:
320,192,11326,1,0,0:0:0:0:
192,192,11481,1,0,0:0:0:0:
448,192,11481,1,0,0:0:0:0:
64,192,11481,1,0,0:0:0:0:
448,192,11637,1,0,0:0:0:0:
64,192,11637,1,0,0:0:0:0:
192,192,11792,1,0,0:0:0:0:
64,192,11948,1,0,0:0:0:0:
448,192,11948,1,0,0:0:0:0:
64,192,12103,1,0,0:0:0:0:
64,192,12258,1,0,0:0:0:0:
64,192,12414,1,0,0:0:0:0:
448,192,12414,1,0,0:0:0:0:
320,192,12569,1,0,0:0:0:0:
192,192,12569,1,0,0:0:0:0:
64,192,12725,1,0,0:0:0:0:
320,192,12725,1,0,0:0:0:0:
448,192,12725,128,0,13036:0:0:0:0:
64,192,12880,1,0,0:0:0:0:
192,192,13036,1,0,0:0:0:0:
320,192,13036,1,0,0:0:0:0:
448,192,13191,1,0,0:0:0:0:
64,192,13191,1,0,0:0:0:0:
448,192,13346,1,0,0:0:0:0:
448,192,13502,1,0,0:0:0:0:
64,192,13657,1,0,0:0:0:0:
448,192,13657,1,0,0:0:0:0:
64,192,13813,1,0,0:0:0:0:
320,192,13813,1,0,0:0:0:0:
192,192,13968,1,0,0:0:0:0:
448,192,13968,1,0,0:0:0:0:
320,192,13968,1,0,0:0:0:0:
64,192,14124,1,0,0:0:0:0:
448,192,14124,1,0,0:0:0:0:
192,192,14279,1,0,0:0:0:0:
320,192,14279,1,0,0:0:0:0:
64,192,14590,1,0,0:0:0:0:
192,192,14590,1,0,0:0:0:0:
320,192,14590,1,0,0:0:0:0:
64,192,14745,1,0,0:0:0:0:
320,192,14745,1,0,0:0:0:0:
192,192,15056,1,0,0:0:0:0:
448,192,15212,1,0,0:0:0:0:
320,192,15212,1,0,0:0:0:0:
64,192,15212,1,0,0:0:0:0:
64,192,15367,1,0,0:0:0:0:
448,192,15367,1,0,0:0:0:0:
320,192,15523,1,0,0:0:0:0:
448,192,15678,1,0,0:0:0:0:
320,192,15834,1,0,0:0:0:0:
448,192,15989,1,0,0:0:0:0:
320,192,16300,1,0,0:0:0:0:
64,192,16455,1,0,0:0:0:0:
192,192,16455,1,0,0:0:0:0:
448,192,16455,1,0,0:0:0:0:
64,192,16611,1,0,0:0:0:0:
448,192,16611,1,0,0:0:0:0:
64,192,16766,1,0,0:0:0:0:
320,192,16766,1,0,0:0:0:0:
64,192,16922,1,0,0:0:0:0:
64,192,17077,1,0,0:0:0:0:
320,192,17077,1,0,0:0:0:0:
64,192,17233,1,0,0:0:0:0:
64,192,17388,1,0,0:0:0:0:
320,192,17543,1,0,0:0:0:0:
192,192,17543,1,0,0:0:0:0:
192,192,17699,1,0,0:0:0:0:
448,192,17699,1,0,0:0:0:0:
64,192,17699,1,0,0:0:0:0:
448,192,17854,1,0,0:0:0:0:
64,192,17854,1,0,0:0:0:0:
448,192,18010,1,0,0:0:0:0:
192,192,18010,1,0,0:0:0:0:
320,192,18321,1,0,0:0:0:0:
64,192,18321,1,0,0:0:0:0:
64,192,18476,1,0,0:0:0:0:
448,192,18787,1,0,0:0:0:0:
64,192,18942,1,0,0:0:0:0:
320,192,18942,1,0,0:0:0:0:
192,192,19098,1,0,0:0:0:0:
320,192,19253,1,0,0:0:0:0:
448,192,19409,128,0,19720:0:0:0:0:
320,192,19720,128,0,20030:0:0:0:0:
192,192,20030,128,0,20186:0:0:0:0:
448,192,22673,5,0,0:0:0:0:
320,192,22673,1,0,0:0:0:0:
64,192,22673,1,0,0:0:0:0:
192,192,22673,1,0,0:0:0:0:
64,192,22828,1,0,0:0:0:0:
320,192,22828,1,0,0:0:0:0:
320,192,22984,1,0,0:0:0:0:
192,192,22984,1,0,0:0:0:0:
448,192,22984,1,0,0:0:0:0:
64,192,22984,1,0,0:0:0:0:
64,192,23139,1,0,0:0:0:0:
448,192,23139,1,0,0:0:0:0:
192,192,23295,1,0,0:0:0:0:
64,192,23295,1,0,0:0:0:0:
320,192,23295,1,0,0:0:0:0:
192,192,23450,1,0,0:0:0:0:
320,192,23450,1,0,0:0:0:0:
448,192,23606,1,0,0:0:0:0:
64,192,23606,1,0,0:0:0:0:
320,192,23606,1,0,0:0:0:0:
192,192,23761,1,0,0:0:0:0:
320,192,23761,1,0,0:0:0:0:
448,192,23916,1,0,0:0:0:0:
64,192,23916,1,0,0:0:0:0:
192,192,23916,1,0,0:0:0:0:
448,192,24072,1,0,0:0:0:0:
192,192,24072,1,0,0:0:0:0:
64,192,24227,1,0,0:0:0:0:
320,192,24227,1,0,0:0:0:0:
448,192,24227,1,0,0:0:0:0:
192,192,24383,1,0,0:0:0:0:
64,192,24383,1,0,0:0:0:0:
320,192,24538,1,0,0:0:0:0:
192,192,24538,1,0,0:0:0:0:
448,192,24538,1,0,0:0:0:0:
64,192,24694,1,0,0:0:0:0:
448,192,24694,1,0,0:0:0:0:
320,192,24849,1,0,0:0:0:0:
192,192,24849,1,0,0:0:0:0:
64,192,24849,1,0,0:0:0:0:
448,192,25005,1,0,0:0:0:0:
320,192,25005,1,0,0:0:0:0:
448,192,25160,1,0,0:0:0:0:
320,192,25160,1,0,0:0:0:0:
192,192,25160,1,0,0:0:0:0:
64,192,25160,1,0,0:0:0:0:
64,192,25315,1,0,0:0:0:0:
192,192,25315,1,0,0:0:0:0:
64,192,25393,1,0,0:0:0:0:
192,192,25393,1,0,0:0:0:0:
448,192,25471,1,0,0:0:0:0:
64,192,25549,1,0,0:0:0:0:
192,192,25549,1,0,0:0:0:0:
448,192,25626,1,0,0:0:0:0:
320,192,25626,1,0,0:0:0:0:
64,192,25704,1,0,0:0:0:0:
320,192,25782,1,0,0:0:0:0:
192,192,25782,1,0,0:0:0:0:
448,192,25782,1,0,0:0:0:0:
192,192,25937,1,0,0:0:0:0:
64,192,25937,1,0,0:0:0:0:
320,192,25937,1,0,0:0:0:0:
320,192,26093,1,0,0:0:0:0:
192,192,26093,1,0,0:0:0:0:
448,192,26093,1,0,0:0:0:0:
64,192,26248,1,0,0:0:0:0:
448,192,26248,1,0,0:0:0:0:
320,192,26403,1,0,0:0:0:0:
64,192,26403,1,0,0:0:0:0:
192,192,26403,128,0,26559:0:0:0:0:
448,192,26559,1,0,0:0:0:0:
320,192,26559,1,0,0:0:0:0:
64,192,26714,1,0,0:0:0:0:
192,192,26714,1,0,0:0:0:0:
448,192,26714,1,0,0:0:0:0:
320,192,26870,1,0,0:0:0:0:
448,192,26870,1,0,0:0:0:0:
64,192,26948,1,0,0:0:0:0:
192,192,26948,1,0,0:0:0:0:
448,192,27025,1,0,0:0:0:0:
320,192,27025,1,0,0:0:0:0:
64,192,27181,1,0,0:0:0:0:
192,192,27181,1,0,0:0:0:0:
320,192,27181,1,0,0:0:0:0:
448,192,27336,1,0,0:0:0:0:
320,192,27336,1,0,0:0:0:0:
64,192,27336,1,0,0:0:0:0:
192,192,27336,1,0,0:0:0:0:
64,192,27492,1,0,0:0:0:0:
448,192,27492,1,0,0:0:0:0:
448,192,27647,1,0,0:0:0:0:
192,192,27647,1,0,0:0:0:0:
320,192,27647,1,0,0:0:0:0:
64,192,27802,1,0,0:0:0:0:
448,192,27802,1,0,0:0:0:0:
320,192,27802,1,0,0:0:0:0:
320,192,27958,1,0,0:0:0:0:
448,192,27958,1,0,0:0:0:0:
192,192,27958,1,0,0:0:0:0:
64,192,27958,1,0,0:0:0:0:
192,192,28113,1,0,0:0:0:0:
320,192,28113,1,0,0:0:0:0:
64,192,28269,1,0,0:0:0:0:
192,192,28269,1,0,0:0:0:0:
448,192,28269,1,0,0:0:0:0:
64,192,28424,1,0,0:0:0:0:
448,192,28424,1,0,0:0:0:0:
192,192,28424,1,0,0:0:0:0:
320,192,28580,1,0,0:0:0:0:
448,192,28580,1,0,0:0:0:0:
192,192,28580,1,0,0:0:0:0:
64,192,28580,1,0,0:0:0:0:
448,192,28735,1,0,0:0:0:0:
64,192,28735,1,0,0:0:0:0:
320,192,28891,1,0,0:0:0:0:
192,192,28891,1,0,0:0:0:0:
448,192,28891,1,0,0:0:0:0:
192,192,29046,1,0,0:0:0:0:
320,192,29046,1,0,0:0:0:0:
448,192,29046,1,0,0:0:0:0:
320,192,29201,1,0,0:0:0:0:
192,192,29201,1,0,0:0:0:0:
448,192,29201,1,0,0:0:0:0:
64,192,29201,1,0,0:0:0:0:
448,192,29357,1,0,0:0:0:0:
64,192,29357,1,0,0:0:0:0:
192,192,29512,1,0,0:0:0:0:
64,192,29512,1,0,0:0:0:0:
320,192,29668,1,0,0:0:0:0:
192,192,29668,1,0,0:0:0:0:
320,192,29823,1,0,0:0:0:0:
64,192,29823,1,0,0:0:0:0:
448,192,29823,1,0,0:0:0:0:
192,192,29823,1,0,0:0:0:0:
64,192,29979,1,0,0:0:0:0:
320,192,29979,1,0,0:0:0:0:
192,192,30134,1,0,0:0:0:0:
64,192,30134,1,0,0:0:0:0:
448,192,30134,1,0,0:0:0:0:
448,192,30289,1,0,0:0:0:0:
320,192,30289,1,0,0:0:0:0:
64,192,30289,1,0,0:0:0:0:
192,192,30367,1,0,0:0:0:0:
448,192,30523,1,0,0:0:0:0:
64,192,30523,1,0,0:0:0:0:
192,192,30523,1,0,0:0:0:0:
320,192,30600,1,0,0:0:0:0:
64,192,30678,1,0,0:0:0:0:
192,192,30678,1,0,0:0:0:0:
448,192,30678,1,0,0:0:0:0:
64,192,30756,1,0,0:0:0:0:
192,192,30756,1,0,0:0:0:0:
448,192,30756,1,0,0:0:0:0:
448,192,30834,1,0,0:0:0:0:
320,192,30834,1,0,0:0:0:0:
192,192,30911,1,0,0:0:0:0:
320,192,30911,1,0,0:0:0:0:
64,192,30911,1,0,0:0:0:0:
448,192,31067,1,0,0:0:0:0:
192,192,31067,1,0,0:0:0:0:
320,192,31222,1,0,0:0:0:0:
64,192,31222,1,0,0:0:0:0:
192,192,31222,1,0,0:0:0:0:
192,192,31378,1,0,0:0:0:0:
448,192,31378,1,0,0:0:0:0:
320,192,31533,1,0,0:0:0:0:
192,192,31533,1,0,0:0:0:0:
64,192,31533,1,0,0:0:0:0:
448,192,31533,1,0,0:0:0:0:
192,192,31688,1,0,0:0:0:0:
320,192,31688,1,0,0:0:0:0:
448,192,31688,1,0,0:0:0:0:
64,192,31688,1,0,0:0:0:0:
320,192,31844,1,0,0:0:0:0:
192,192,31844,1,0,0:0:0:0:
64,192,31844,1,0,0:0:0:0:
448,192,31844,1,0,0:0:0:0:
192,192,31999,1,0,0:0:0:0:
320,192,31999,1,0,0:0:0:0:
448,192,31999,1,0,0:0:0:0:
64,192,32051,1,0,0:0:0:0:
192,192,32103,1,0,0:0:0:0:
320,192,32155,1,0,0:0:0:0:
448,192,32155,1,0,0:0:0:0:
192,192,32233,1,0,0:0:0:0:
320,192,32310,1,0,0:0:0:0:
448,192,32310,1,0,0:0:0:0:
64,192,32310,1,0,0:0:0:0:
192,192,32466,1,0,0:0:0:0:
64,192,32466,1,0,0:0:0:0:
448,192,32466,1,0,0:0:0:0:
320,192,32505,1,0,0:0:0:0:
192,192,32543,1,0,0:0:0:0:
64,192,32582,1,0,0:0:0:0:
448,192,32621,1,0,0:0:0:0:
320,192,32621,128,0,35108:0:0:0:0:
192,192,33243,1,0,0:0:0:0:
448,192,33243,1,0,0:0:0:0:
64,192,33709,1,0,0:0:0:0:
192,192,34176,1,0,0:0:0:0:
64,192,34486,1,0,0:0:0:0:
448,192,34953,1,0,0:0:0:0:
192,192,35108,128,0,37595:0:0:0:0:
64,192,35108,1,0,0:0:0:0:
320,192,35419,1,0,0:0:0:0:
64,192,35730,1,0,0:0:0:0:
448,192,36196,1,0,0:0:0:0:
320,192,36663,1,0,0:0:0:0:
64,192,36973,1,0,0:0:0:0:
64,192,37440,1,0,0:0:0:0:
320,192,37595,128,0,40082:0:0:0:0:
448,192,37595,1,0,0:0:0:0:
448,192,37751,1,0,0:0:0:0:
64,192,37906,1,0,0:0:0:0:
448,192,38217,1,0,0:0:0:0:
448,192,38372,1,0,0:0:0:0:
64,192,38528,1,0,0:0:0:0:
448,192,38839,1,0,0:0:0:0:
448,192,38994,1,0,0:0:0:0:
64,192,39150,1,0,0:0:0:0:
64,192,39460,1,0,0:0:0:0:
64,192,39616,1,0,0:0:0:0:
448,192,39771,1,0,0:0:0:0:
192,192,39927,1,0,0:0:0:0:
64,192,40082,128,0,41326:0:0:0:0:
448,192,40082,1,0,0:0:0:0:
448,192,40238,1,0,0:0:0:0:
192,192,40393,1,0,0:0:0:0:
448,192,40704,1,0,0:0:0:0:
320,192,40859,1,0,0:0:0:0:
448,192,41015,1,0,0:0:0:0:
192,192,41170,1,0,0:0:0:0:
320,192,41326,1,0,0:0:0:0:
192,192,41481,1,0,0:0:0:0:
64,192,41637,1,0,0:0:0:0:
320,192,41792,1,0,0:0:0:0:
192,192,41948,1,0,0:0:0:0:
448,192,42103,1,0,0:0:0:0:
320,192,42336,1,0,0:0:0:0:
320,192,42414,1,0,0:0:0:0:
320,192,42492,1,0,0:0:0:0:
192,192,42569,1,0,0:0:0:0:
64,192,42569,1,0,0:0:0:0:
448,192,42569,1,0,0:0:0:0:
320,192,42725,1,0,0:0:0:0:
448,192,42880,1,0,0:0:0:0:
192,192,42880,1,0,0:0:0:0:
64,192,42880,1,0,0:0:0:0:
320,192,43036,1,0,0:0:0:0:
448,192,43191,1,0,0:0:0:0:
192,192,43191,1,0,0:0:0:0:
64,192,43191,1,0,0:0:0:0:
320,192,43346,1,0,0:0:0:0:
192,192,43502,1,0,0:0:0:0:
64,192,43502,1,0,0:0:0:0:
448,192,43502,1,0,0:0:0:0:
64,192,43657,1,0,0:0:0:0:
320,192,43657,1,0,0:0:0:0:
320,192,43813,1,0,0:0:0:0:
64,192,43813,1,0,0:0:0:0:
448,192,43813,1,0,0:0:0:0:
192,192,43968,1,0,0:0:0:0:
320,192,43968,1,0,0:0:0:0:
320,192,44124,1,0,0:0:0:0:
64,192,44124,1,0,0:0:0:0:
448,192,44124,1,0,0:0:0:0:
192,192,44279,1,0,0:0:0:0:
320,192,44435,1,0,0:0:0:0:
64,192,44435,1,0,0:0:0:0:
448,192,44435,1,0,0:0:0:0:
192,192,44590,1,0,0:0:0:0:
320,192,44590,1,0,0:0:0:0:
320,192,44745,1,0,0:0:0:0:
64,192,44745,1,0,0:0:0:0:
448,192,44745,1,0,0:0:0:0:
192,192,44901,1,0,0:0:0:0:
448,192,44901,1,0,0:0:0:0:
192,192,45056,1,0,0:0:0:0:
64,192,45056,1,0,0:0:0:0:
448,192,45056,1,0,0:0:0:0:
320,192,45212,1,0,0:0:0:0:
64,192,45212,1,0,0:0:0:0:
192,192,45367,1,0,0:0:0:0:
320,192,45367,1,0,0:0:0:0:
448,192,45367,1,0,0:0:0:0:
64,192,45523,1,0,0:0:0:0:
192,192,45678,1,0,0:0:0:0:
320,192,45678,1,0,0:0:0:0:
448,192,45678,1,0,0:0:0:0:
64,192,45834,1,0,0:0:0:0:
192,192,45989,1,0,0:0:0:0:
320,192,45989,1,0,0:0:0:0:
448,192,45989,1,0,0:0:0:0:
64,192,46144,1,0,0:0:0:0:
320,192,46144,1,0,0:0:0:0:
192,192,46300,1,0,0:0:0:0:
64,192,46300,1,0,0:0:0:0:
320,192,46300,1,0,0:0:0:0:
192,192,46455,1,0,0:0:0:0:
448,192,46455,1,0,0:0:0:0:
192,192,46611,1,0,0:0:0:0:
320,192,46611,1,0,0:0:0:0:
64,192,46611,1,0,0:0:0:0:
192,192,46766,1,0,0:0:0:0:
448,192,46766,1,0,0:0:0:0:
192,192,46922,1,0,0:0:0:0:
64,192,46922,1,0,0:0:0:0:
320,192,46922,1,0,0:0:0:0:
64,192,47077,1,0,0:0:0:0:
320,192,47077,1,0,0:0:0:0:
192,192,47233,1,0,0:0:0:0:
448,192,47233,1,0,0:0:0:0:
320,192,47233,1,0,0:0:0:0:
192,192,47388,1,0,0:0:0:0:
448,192,47388,1,0,0:0:0:0:
64,192,47543,1,0,0:0:0:0:
192,192,47543,1,0,0:0:0:0:
320,192,47543,1,0,0:0:0:0:
448,192,47543,1,0,0:0:0:0:
64,192,47699,1,0,0:0:0:0:
448,192,47854,1,0,0:0:0:0:
64,192,47854,1,0,0:0:0:0:
320,192,47854,1,0,0:0:0:0:
448,192,48010,1,0,0:0:0:0:
64,192,48165,1,0,0:0:0:0:
192,192,48165,1,0,0:0:0:0:
448,192,48165,1,0,0:0:0:0:
64,192,48321,1,0,0:0:0:0:
64,192,48476,1,0,0:0:0:0:
448,192,48476,1,0,0:0:0:0:
320,192,48476,1,0,0:0:0:0:
320,192,48631,1,0,0:0:0:0:
448,192,48787,1,0,0:0:0:0:
64,192,48787,1,0,0:0:0:0:
192,192,48787,1,0,0:0:0:0:
192,192,48942,1,0,0:0:0:0:
64,192,49098,1,0,0:0:0:0:
448,192,49098,1,0,0:0:0:0:
320,192,49098,1,0,0:0:0:0:
320,192,49253,1,0,0:0:0:0:
64,192,49409,1,0,0:0:0:0:
448,192,49409,1,0,0:0:0:0:
192,192,49409,1,0,0:0:0:0:
64,192,49564,1,0,0:0:0:0:
64,192,49720,1,0,0:0:0:0:
448,192,49720,1,0,0:0:0:0:
320,192,49720,1,0,0:0:0:0:
448,192,49875,1,0,0:0:0:0:
64,192,50030,1,0,0:0:0:0:
192,192,50030,1,0,0:0:0:0:
448,192,50030,1,0,0:0:0:0:
192,192,50186,1,0,0:0:0:0:
320,192,50186,1,0,0:0:0:0:
320,192,50264,1,0,0:0:0:0:
448,192,50264,1,0,0:0:0:0:
64,192,50341,1,0,0:0:0:0:
192,192,50341,1,0,0:0:0:0:
448,192,50497,1,0,0:0:0:0:
320,192,50497,1,0,0:0:0:0:
320,192,50652,1,0,0:0:0:0:
64,192,50652,1,0,0:0:0:0:
192,192,50652,1,0,0:0:0:0:
192,192,50808,1,0,0:0:0:0:
320,192,50808,1,0,0:0:0:0:
448,192,50808,1,0,0:0:0:0:
320,192,50963,1,0,0:0:0:0:
64,192,50963,1,0,0:0:0:0:
192,192,50963,1,0,0:0:0:0:
320,192,51119,1,0,0:0:0:0:
192,192,51119,1,0,0:0:0:0:
448,192,51119,1,0,0:0:0:0:
64,192,51274,1,0,0:0:0:0:
192,192,51274,1,0,0:0:0:0:
320,192,51274,1,0,0:0:0:0:
448,192,51274,1,0,0:0:0:0:
192,192,51352,1,0,0:0:0:0:
320,192,51352,1,0,0:0:0:0:
64,192,51352,1,0,0:0:0:0:
448,192,51352,1,0,0:0:0:0:
320,192,51429,1,0,0:0:0:0:
192,192,51429,1,0,0:0:0:0:
64,192,51429,1,0,0:0:0:0:
448,192,51429,1,0,0:0:0:0:
448,192,51507,1,0,0:0:0:0:
320,192,51507,1,0,0:0:0:0:
192,192,51507,1,0,0:0:0:0:
64,192,51507,1,0,0:0:0:0:
320,192,51585,1,0,0:0:0:0:
64,192,51585,1,0,0:0:0:0:
192,192,51585,1,0,0:0:0:0:
448,192,51585,1,0,0:0:0:0:
192,192,51663,1,0,0:0:0:0:
448,192,51663,1,0,0:0:0:0:
320,192,51663,1,0,0:0:0:0:
64,192,51663,1,0,0:0:0:0:
64,192,51740,1,0,0:0:0:0:
192,192,51740,1,0,0:0:0:0:
320,192,51740,1,0,0:0:0:0:
448,192,51740,1,0,0:0:0:0:
192,192,51818,1,0,0:0:0:0:
448,192,51818,1,0,0:0:0:0:
320,192,51818,1,0,0:0:0:0:
64,192,51818,1,0,0:0:0:0:
64,192,51896,1,0,0:0:0:0:
192,192,51896,1,0,0:0:0:0:
448,192,51896,1,0,0:0:0:0:
320,192,51896,1,0,0:0:0:0:
448,192,52051,1,0,0:0:0:0:
320,192,52090,1,0,0:0:0:0:
192,192,52129,1,0,0:0:0:0:
64,192,52168,1,0,0:0:0:0:
192,192,52207,1,0,0:0:0:0:
320,192,52245,1,0,0:0:0:0:
448,192,52284,1,0,0:0:0:0:
320,192,52362,1,0,0:0:0:0:
192,192,52362,1,0,0:0:0:0:
64,192,52362,1,0,0:0:0:0:
192,192,52673,1,0,0:0:0:0:
320,192,52673,1,0,0:0:0:0:
64,192,52673,1,0,0:0:0:0:
320,192,52828,1,0,0:0:0:0:
192,192,52828,1,0,0:0:0:0:
448,192,52828,1,0,0:0:0:0:
64,192,52828,1,0,0:0:0:0:
64,192,52984,1,0,0:0:0:0:
448,192,52984,1,0,0:0:0:0:
192,192,53139,1,0,0:0:0:0:
448,192,53139,1,0,0:0:0:0:
320,192,53139,1,0,0:0:0:0:
320,192,53295,1,0,0:0:0:0:
64,192,53295,1,0,0:0:0:0:
64,192,53450,1,0,0:0:0:0:
192,192,53450,1,0,0:0:0:0:
448,192,53450,1,0,0:0:0:0:
320,192,53450,1,0,0:0:0:0:
448,192,53606,1,0,0:0:0:0:
192,192,53606,1,0,0:0:0:0:
192,192,53761,1,0,0:0:0:0:
64,192,53761,1,0,0:0:0:0:
320,192,53761,1,0,0:0:0:0:
192,192,53916,1,0,0:0:0:0:
448,192,53916,1,0,0:0:0:0:
64,192,54072,1,0,0:0:0:0:
320,192,54072,1,0,0:0:0:0:
192,192,54072,1,0,0:0:0:0:
448,192,54072,1,0,0:0:0:0:
320,192,54227,1,0,0:0:0:0:
192,192,54227,1,0,0:0:0:0:
448,192,54383,1,0,0:0:0:0:
320,192,54383,1,0,0:0:0:0:
64,192,54383,1,0,0:0:0:0:
320,192,54538,1,0,0:0:0:0:
64,192,54538,1,0,0:0:0:0:
64,192,54694,1,0,0:0:0:0:
192,192,54694,1,0,0:0:0:0:
320,192,54694,1,0,0:0:0:0:
448,192,54694,1,0,0:0:0:0:
320,192,54849,1,0,0:0:0:0:
448,192,54849,1,0,0:0:0:0:
192,192,54849,128,0,55160:0:0:0:0:
64,192,55160,1,0,0:0:0:0:
320,192,55160,1,0,0:0:0:0:
448,192,55315,1,0,0:0:0:0:
320,192,55315,1,0,0:0:0:0:
192,192,55315,1,0,0:0:0:0:
64,192,55315,1,0,0:0:0:0:
192,192,55471,1,0,0:0:0:0:
448,192,55471,1,0,0:0:0:0:
64,192,55626,1,0,0:0:0:0:
448,192,55626,1,0,0:0:0:0:
320,192,55626,1,0,0:0:0:0:
320,192,55782,1,0,0:0:0:0:
64,192,55782,1,0,0:0:0:0:
320,192,55937,1,0,0:0:0:0:
448,192,55937,1,0,0:0:0:0:
192,192,55937,1,0,0:0:0:0:
64,192,55937,1,0,0:0:0:0:
192,192,56093,1,0,0:0:0:0:
448,192,56093,1,0,0:0:0:0:
64,192,56248,1,0,0:0:0:0:
192,192,56248,1,0,0:0:0:0:
320,192,56326,1,0,0:0:0:0:
448,192,56326,1,0,0:0:0:0:
192,192,56403,1,0,0:0:0:0:
64,192,56403,1,0,0:0:0:0:
448,192,56559,1,0,0:0:0:0:
64,192,56559,1,0,0:0:0:0:
320,192,56559,1,0,0:0:0:0:
192,192,56559,1,0,0:0:0:0:
448,192,56714,1,0,0:0:0:0:
320,192,56714,1,0,0:0:0:0:
448,192,56792,1,0,0:0:0:0:
320,192,56792,1,0,0:0:0:0:
192,192,56870,1,0,0:0:0:0:
64,192,56870,1,0,0:0:0:0:
192,192,57025,1,0,0:0:0:0:
320,192,57025,1,0,0:0:0:0:
192,192,57181,1,0,0:0:0:0:
448,192,57181,1,0,0:0:0:0:
320,192,57181,1,0,0:0:0:0:
64,192,57181,1,0,0:0:0:0:
448,192,57336,1,0,0:0:0:0:
192,192,57336,1,0,0:0:0:0:
64,192,57336,128,0,57647:0:0:0:0:
192,192,57647,1,0,0:0:0:0:
320,192,57647,1,0,0:0:0:0:
320,192,57802,1,0,0:0:0:0:
64,192,57802,1,0,0:0:0:0:
448,192,57802,1,0,0:0:0:0:
448,192,57958,1,0,0:0:0:0:
320,192,58036,1,0,0:0:0:0:
192,192,58113,1,0,0:0:0:0:
448,192,58113,1,0,0:0:0:0:
64,192,58113,1,0,0:0:0:0:
320,192,58269,1,0,0:0:0:0:
320,192,58424,1,0,0:0:0:0:
192,192,58424,1,0,0:0:0:0:
448,192,58424,1,0,0:0:0:0:
64,192,58424,1,0,0:0:0:0:
192,192,58580,1,0,0:0:0:0:
448,192,58735,1,0,0:0:0:0:
320,192,58735,1,0,0:0:0:0:
64,192,58735,1,0,0:0:0:0:
192,192,58891,1,0,0:0:0:0:
320,192,59046,1,0,0:0:0:0:
192,192,59046,1,0,0:0:0:0:
64,192,59046,1,0,0:0:0:0:
448,192,59046,1,0,0:0:0:0:
448,192,59201,1,0,0:0:0:0:
64,192,59357,1,0,0:0:0:0:
192,192,59357,1,0,0:0:0:0:
320,192,59357,1,0,0:0:0:0:
192,192,59512,1,0,0:0:0:0:
448,192,59512,1,0,0:0:0:0:
448,192,59668,1,0,0:0:0:0:
320,192,59668,1,0,0:0:0:0:
192,192,59668,1,0,0:0:0:0:
64,192,59668,1,0,0:0:0:0:
64,192,59823,1,0,0:0:0:0:
192,192,59823,1,0,0:0:0:0:
320,192,59823,128,0,60134:0:0:0:0:
192,192,60134,1,0,0:0:0:0:
448,192,60134,1,0,0:0:0:0:
448,192,60289,1,0,0:0:0:0:
64,192,60289,1,0,0:0:0:0:
320,192,60289,1,0,0:0:0:0:
192,192,60445,1,0,0:0:0:0:
64,192,60600,1,0,0:0:0:0:
320,192,60600,1,0,0:0:0:0:
448,192,60600,1,0,0:0:0:0:
192,192,60756,1,0,0:0:0:0:
448,192,60756,1,0,0:0:0:0:
320,192,60911,1,0,0:0:0:0:
192,192,60911,1,0,0:0:0:0:
448,192,60911,1,0,0:0:0:0:
64,192,60911,1,0,0:0:0:0:
192,192,61067,1,0,0:0:0:0:
320,192,61067,1,0,0:0:0:0:
64,192,61378,1,0,0:0:0:0:
320,192,61378,1,0,0:0:0:0:
448,192,61378,1,0,0:0:0:0:
192,192,61455,1,0,0:0:0:0:
448,192,61611,1,0,0:0:0:0:
192,192,61611,1,0,0:0:0:0:
320,192,61611,1,0,0:0:0:0:
64,192,61688,1,0,0:0:0:0:
64,192,61844,1,0,0:0:0:0:
192,192,61844,1,0,0:0:0:0:
320,192,61844,1,0,0:0:0:0:
448,192,61844,1,0,0:0:0:0:
448,192,61922,1,0,0:0:0:0:
320,192,61922,1,0,0:0:0:0:
192,192,61922,1,0,0:0:0:0:
64,192,61922,1,0,0:0:0:0:
64,192,61999,1,0,0:0:0:0:
192,192,61999,1,0,0:0:0:0:
320,192,61999,1,0,0:0:0:0:
448,192,61999,1,0,0:0:0:0:
448,192,62077,1,0,0:0:0:0:
320,192,62077,1,0,0:0:0:0:
192,192,62077,1,0,0:0:0:0:
64,192,62077,1,0,0:0:0:0:
64,192,62155,1,0,0:0:0:0:
192,192,62155,1,0,0:0:0:0:
320,192,62155,1,0,0:0:0:0:
448,192,62155,1,0,0:0:0:0:
448,192,62233,1,0,0:0:0:0:
320,192,62233,1,0,0:0:0:0:
192,192,62233,1,0,0:0:0:0:
64,192,62233,1,0,0:0:0:0:
64,192,62310,1,0,0:0:0:0:
192,192,62310,1,0,0:0:0:0:
448,192,62310,1,0,0:0:0:0:
320,192,62621,1,0,0:0:0:0:
192,192,62621,1,0,0:0:0:0:
64,192,62777,1,0,0:0:0:0:
192,192,62777,1,0,0:0:0:0:
320,192,62777,1,0,0:0:0:0:
448,192,62777,1,0,0:0:0:0:
64,192,62932,1,0,0:0:0:0:
448,192,62932,1,0,0:0:0:0:
192,192,63087,1,0,0:0:0:0:
320,192,63087,1,0,0:0:0:0:
64,192,63087,1,0,0:0:0:0:
192,192,63243,1,0,0:0:0:0:
448,192,63243,1,0,0:0:0:0:
320,192,63398,1,0,0:0:0:0:
448,192,63398,1,0,0:0:0:0:
192,192,63398,1,0,0:0:0:0:
64,192,63398,1,0,0:0:0:0:
320,192,63554,1,0,0:0:0:0:
448,192,63554,1,0,0:0:0:0:
320,192,63709,1,0,0:0:0:0:
64,192,63709,1,0,0:0:0:0:
192,192,63709,1,0,0:0:0:0:
192,192,63865,1,0,0:0:0:0:
448,192,63865,1,0,0:0:0:0:
64,192,64020,1,0,0:0:0:0:
448,192,64020,1,0,0:0:0:0:
320,192,64020,1,0,0:0:0:0:
192,192,64020,1,0,0:0:0:0:
64,192,64176,1,0,0:0:0:0:
320,192,64176,1,0,0:0:0:0:
64,192,64331,1,0,0:0:0:0:
192,192,64331,1,0,0:0:0:0:
448,192,64331,1,0,0:0:0:0:
320,192,64486,1,0,0:0:0:0:
192,192,64486,1,0,0:0:0:0:
448,192,64486,1,0,0:0:0:0:
64,192,64642,1,0,0:0:0:0:
192,192,64642,1,0,0:0:0:0:
320,192,64642,1,0,0:0:0:0:
448,192,64642,1,0,0:0:0:0:
320,192,64797,1,0,0:0:0:0:
448,192,64797,1,0,0:0:0:0:
64,192,64797,128,0,65108:0:0:0:0:
320,192,65108,1,0,0:0:0:0:
192,192,65108,1,0,0:0:0:0:
64,192,65264,1,0,0:0:0:0:
192,192,65264,1,0,0:0:0:0:
320,192,65264,1,0,0:0:0:0:
448,192,65264,1,0,0:0:0:0:
64,192,65419,1,0,0:0:0:0:
320,192,65419,1,0,0:0:0:0:
192,192,65574,1,0,0:0:0:0:
448,192,65574,1,0,0:0:0:0:
320,192,65574,1,0,0:0:0:0:
64,192,65730,1,0,0:0:0:0:
448,192,65885,1,0,0:0:0:0:
320,192,65885,1,0,0:0:0:0:
192,192,65885,1,0,0:0:0:0:
64,192,65885,1,0,0:0:0:0:
320,192,66041,1,0,0:0:0:0:
192,192,66196,1,0,0:0:0:0:
64,192,66196,1,0,0:0:0:0:
448,192,66196,1,0,0:0:0:0:
320,192,66274,1,0,0:0:0:0:
192,192,66352,1,0,0:0:0:0:
64,192,66429,1,0,0:0:0:0:
192,192,66507,1,0,0:0:0:0:
320,192,66507,1,0,0:0:0:0:
320,192,66585,1,0,0:0:0:0:
192,192,66585,1,0,0:0:0:0:
448,192,66663,1,0,0:0:0:0:
64,192,66663,1,0,0:0:0:0:
448,192,66740,1,0,0:0:0:0:
64,192,66740,1,0,0:0:0:0:
192,192,66818,1,0,0:0:0:0:
320,192,66818,1,0,0:0:0:0:
64,192,66973,1,0,0:0:0:0:
448,192,66973,1,0,0:0:0:0:
64,192,67129,1,0,0:0:0:0:
192,192,67129,1,0,0:0:0:0:
320,192,67129,1,0,0:0:0:0:
448,192,67129,1,0,0:0:0:0:
192,192,67284,1,0,0:0:0:0:
320,192,67284,1,0,0:0:0:0:
448,192,67284,128,0,67595:0:0:0:0:
320,192,67595,1,0,0:0:0:0:
192,192,67595,1,0,0:0:0:0:
320,192,67751,1,0,0:0:0:0:
64,192,67751,1,0,0:0:0:0:
192,192,67751,1,0,0:0:0:0:
448,192,67751,1,0,0:0:0:0:
64,192,67906,1,0,0:0:0:0:
448,192,67906,1,0,0:0:0:0:
192,192,68062,1,0,0:0:0:0:
320,192,68062,1,0,0:0:0:0:
64,192,68062,1,0,0:0:0:0:
320,192,68217,1,0,0:0:0:0:
192,192,68217,1,0,0:0:0:0:
192,192,68372,1,0,0:0:0:0:
320,192,68372,1,0,0:0:0:0:
64,192,68372,1,0,0:0:0:0:
448,192,68372,1,0,0:0:0:0:
64,192,68528,1,0,0:0:0:0:
448,192,68528,1,0,0:0:0:0:
320,192,68683,1,0,0:0:0:0:
192,192,68683,1,0,0:0:0:0:
448,192,68683,1,0,0:0:0:0:
64,192,68839,1,0,0:0:0:0:
192,192,68839,1,0,0:0:0:0:
448,192,68916,1,0,0:0:0:0:
320,192,68994,1,0,0:0:0:0:
64,192,68994,1,0,0:0:0:0:
192,192,68994,1,0,0:0:0:0:
64,192,69150,1,0,0:0:0:0:
320,192,69150,1,0,0:0:0:0:
192,192,69305,1,0,0:0:0:0:
448,192,69305,1,0,0:0:0:0:
320,192,69305,1,0,0:0:0:0:
192,192,69460,1,0,0:0:0:0:
448,192,69460,1,0,0:0:0:0:
320,192,69460,1,0,0:0:0:0:
64,192,69616,1,0,0:0:0:0:
192,192,69616,1,0,0:0:0:0:
320,192,69616,1,0,0:0:0:0:
448,192,69616,1,0,0:0:0:0:
192,192,69771,1,0,0:0:0:0:
320,192,69771,1,0,0:0:0:0:
64,192,69771,128,0,70082:0:0:0:0:
192,192,70082,1,0,0:0:0:0:
320,192,70082,1,0,0:0:0:0:
64,192,70238,1,0,0:0:0:0:
192,192,70238,1,0,0:0:0:0:
320,192,70238,1,0,0:0:0:0:
448,192,70238,1,0,0:0:0:0:
64,192,70393,1,0,0:0:0:0:
192,192,70549,1,0,0:0:0:0:
320,192,70549,1,0,0:0:0:0:
448,192,70549,1,0,0:0:0:0:
448,192,70704,1,0,0:0:0:0:
192,192,70704,1,0,0:0:0:0:
320,192,70704,1,0,0:0:0:0:
64,192,70859,1,0,0:0:0:0:
192,192,70859,1,0,0:0:0:0:
320,192,70859,1,0,0:0:0:0:
192,192,71015,1,0,0:0:0:0:
64,192,71015,1,0,0:0:0:0:
448,192,71015,1,0,0:0:0:0:
320,192,71015,1,0,0:0:0:0:
320,192,71326,1,0,0:0:0:0:
448,192,71326,1,0,0:0:0:0:
192,192,71326,1,0,0:0:0:0:
64,192,71326,1,0,0:0:0:0:
192,192,71559,1,0,0:0:0:0:
64,192,71637,1,0,0:0:0:0:
320,192,71637,1,0,0:0:0:0:
448,192,71637,1,0,0:0:0:0:
192,192,71792,1,0,0:0:0:0:
192,192,71870,1,0,0:0:0:0:
64,192,71948,1,0,0:0:0:0:
320,192,71948,1,0,0:0:0:0:
448,192,71948,1,0,0:0:0:0:
192,192,72103,1,0,0:0:0:0:
64,192,72258,1,0,0:0:0:0:
448,192,72258,1,0,0:0:0:0:
320,192,72258,1,0,0:0:0:0:
192,192,72569,1,0,0:0:0:0:
448,192,72569,1,0,0:0:0:0:
320,192,72569,1,0,0:0:0:0:
448,192,72725,1,0,0:0:0:0:
192,192,72725,1,0,0:0:0:0:
320,192,72725,1,0,0:0:0:0:
64,192,72725,1,0,0:0:0:0:
448,192,72880,1,0,0:0:0:0:
192,192,72880,1,0,0:0:0:0:
320,192,73036,1,0,0:0:0:0:
192,192,73036,1,0,0:0:0:0:
64,192,73036,1,0,0:0:0:0:
448,192,73191,1,0,0:0:0:0:
192,192,73346,1,0,0:0:0:0:
64,192,73346,1,0,0:0:0:0:
320,192,73346,1,0,0:0:0:0:
448,192,73346,1,0,0:0:0:0:
64,192,73502,1,0,0:0:0:0:
192,192,73657,1,0,0:0:0:0:
448,192,73657,1,0,0:0:0:0:
320,192,73657,1,0,0:0:0:0:
64,192,73813,1,0,0:0:0:0:
320,192,73968,1,0,0:0:0:0:
448,192,73968,1,0,0:0:0:0:
192,192,73968,1,0,0:0:0:0:
64,192,73968,1,0,0:0:0:0:
320,192,74124,1,0,0:0:0:0:
64,192,74279,1,0,0:0:0:0:
192,192,74279,1,0,0:0:0:0:
448,192,74279,1,0,0:0:0:0:
192,192,74435,1,0,0:0:0:0:
320,192,74435,1,0,0:0:0:0:
448,192,74590,1,0,0:0:0:0:
320,192,74590,1,0,0:0:0:0:
192,192,74590,1,0,0:0:0:0:
64,192,74590,1,0,0:0:0:0:
64,192,74745,1,0,0:0:0:0:
192,192,74745,1,0,0:0:0:0:
448,192,74745,1,0,0:0:0:0:
320,192,75056,1,0,0:0:0:0:
320,192,75134,1,0,0:0:0:0:
448,192,75212,1,0,0:0:0:0:
64,192,75212,1,0,0:0:0:0:
192,192,75212,1,0,0:0:0:0:
64,192,75367,1,0,0:0:0:0:
192,192,75523,1,0,0:0:0:0:
448,192,75523,1,0,0:0:0:0:
320,192,75678,1,0,0:0:0:0:
64,192,75756,1,0,0:0:0:0:
192,192,75834,1,0,0:0:0:0:
448,192,75834,1,0,0:0:0:0:
320,192,75834,1,0,0:0:0:0:
64,192,75989,1,0,0:0:0:0:
448,192,76144,1,0,0:0:0:0:
320,192,76144,1,0,0:0:0:0:
320,192,76222,1,0,0:0:0:0:
448,192,76222,1,0,0:0:0:0:
320,192,76300,1,0,0:0:0:0:
448,192,76300,1,0,0:0:0:0:
192,192,76378,1,0,0:0:0:0:
64,192,76378,1,0,0:0:0:0:
192,192,76455,1,0,0:0:0:0:
320,192,76455,1,0,0:0:0:0:
448,192,76455,1,0,0:0:0:0:
64,192,76611,1,0,0:0:0:0:
192,192,76611,1,0,0:0:0:0:
64,192,76688,1,0,0:0:0:0:
192,192,76688,1,0,0:0:0:0:
64,192,76766,1,0,0:0:0:0:
192,192,76766,1,0,0:0:0:0:
320,192,76844,1,0,0:0:0:0:
448,192,76844,1,0,0:0:0:0:
64,192,76922,1,0,0:0:0:0:
320,192,76922,1,0,0:0:0:0:
192,192,76922,1,0,0:0:0:0:
448,192,77077,1,0,0:0:0:0:
64,192,77077,1,0,0:0:0:0:
192,192,77077,1,0,0:0:0:0:
192,192,77233,1,0,0:0:0:0:
320,192,77233,1,0,0:0:0:0:
64,192,77233,128,0,77543:0:0:0:0:
448,192,77233,128,0,77543:0:0:0:0:
192,192,77543,1,0,0:0:0:0:
320,192,77543,1,0,0:0:0:0:
320,192,77699,1,0,0:0:0:0:
64,192,77699,1,0,0:0:0:0:
192,192,77699,1,0,0:0:0:0:
448,192,77699,1,0,0:0:0:0:
64,192,78010,1,0,0:0:0:0:
320,192,78010,1,0,0:0:0:0:
192,192,78010,1,0,0:0:0:0:
192,192,78165,1,0,0:0:0:0:
320,192,78165,1,0,0:0:0:0:
448,192,78165,1,0,0:0:0:0:
320,192,78321,1,0,0:0:0:0:
192,192,78321,1,0,0:0:0:0:
448,192,78321,1,0,0:0:0:0:
64,192,78321,1,0,0:0:0:0:
64,192,78476,128,0,79098:0:0:0:0:
192,192,78476,128,0,78942:0:0:0:0:
320,192,78476,128,0,78787:0:0:0:0:
448,192,79564,1,0,0:0:0:0:
320,192,79720,1,0,0:0:0:0:
64,192,79875,1,0,0:0:0:0:
192,192,79875,1,0,0:0:0:0:
448,192,79875,1,0,0:0:0:0:
320,192,79875,1,0,0:0:0:0:
64,192,80030,1,0,0:0:0:0:
448,192,80030,1,0,0:0:0:0:
192,192,80030,1,0,0:0:0:0:
448,192,80186,1,0,0:0:0:0:
320,192,80186,1,0,0:0:0:0:
192,192,80186,1,0,0:0:0:0:
64,192,80186,1,0,0:0:0:0:
192,192,80341,1,0,0:0:0:0:
320,192,80341,1,0,0:0:0:0:
448,192,80497,1,0,0:0:0:0:
64,192,80497,1,0,0:0:0:0:
320,192,80497,1,0,0:0:0:0:
64,192,80652,1,0,0:0:0:0:
320,192,80652,1,0,0:0:0:0:
448,192,80652,1,0,0:0:0:0:
192,192,80808,1,0,0:0:0:0:
64,192,80808,1,0,0:0:0:0:
320,192,80808,1,0,0:0:0:0:
448,192,80808,1,0,0:0:0:0:
192,192,80963,1,0,0:0:0:0:
448,192,80963,1,0,0:0:0:0:
192,192,81119,1,0,0:0:0:0:
64,192,81119,1,0,0:0:0:0:
320,192,81119,1,0,0:0:0:0:
320,192,81274,1,0,0:0:0:0:
192,192,81274,1,0,0:0:0:0:
448,192,81274,1,0,0:0:0:0:
64,192,81429,1,0,0:0:0:0:
192,192,81429,1,0,0:0:0:0:
320,192,81429,1,0,0:0:0:0:
448,192,81429,1,0,0:0:0:0:
64,192,81585,1,0,0:0:0:0:
448,192,81585,1,0,0:0:0:0:
192,192,81740,1,0,0:0:0:0:
320,192,81740,1,0,0:0:0:0:
64,192,81740,1,0,0:0:0:0:
320,192,81896,1,0,0:0:0:0:
448,192,81896,1,0,0:0:0:0:
320,192,82051,1,0,0:0:0:0:
192,192,82051,1,0,0:0:0:0:
64,192,82051,1,0,0:0:0:0:
448,192,82051,1,0,0:0:0:0:
64,192,82207,1,0,0:0:0:0:
448,192,82207,1,0,0:0:0:0:
192,192,82362,1,0,0:0:0:0:
448,192,82362,1,0,0:0:0:0:
320,192,82362,1,0,0:0:0:0:
64,192,82517,1,0,0:0:0:0:
192,192,82517,1,0,0:0:0:0:
320,192,82595,1,0,0:0:0:0:
448,192,82673,1,0,0:0:0:0:
64,192,82751,1,0,0:0:0:0:
192,192,82751,1,0,0:0:0:0:
64,192,82828,1,0,0:0:0:0:
192,192,82828,1,0,0:0:0:0:
320,192,82906,1,0,0:0:0:0:
448,192,82906,1,0,0:0:0:0:
320,192,83139,1,0,0:0:0:0:
192,192,83139,1,0,0:0:0:0:
64,192,83295,1,0,0:0:0:0:
448,192,83295,1,0,0:0:0:0:
192,192,83295,1,0,0:0:0:0:
320,192,83450,1,0,0:0:0:0:
192,192,83450,1,0,0:0:0:0:
192,192,83761,1,0,0:0:0:0:
320,192,83761,1,0,0:0:0:0:
448,192,83916,1,0,0:0:0:0:
320,192,83916,1,0,0:0:0:0:
192,192,83916,1,0,0:0:0:0:
64,192,83916,1,0,0:0:0:0:
448,192,84072,1,0,0:0:0:0:
320,192,84072,1,0,0:0:0:0:
192,192,84150,1,0,0:0:0:0:
64,192,84150,1,0,0:0:0:0:
448,192,84227,1,0,0:0:0:0:
320,192,84227,1,0,0:0:0:0:
192,192,84383,1,0,0:0:0:0:
320,192,84383,1,0,0:0:0:0:
64,192,84538,1,0,0:0:0:0:
320,192,84538,1,0,0:0:0:0:
192,192,84538,1,0,0:0:0:0:
448,192,84538,1,0,0:0:0:0:
192,192,84694,1,0,0:0:0:0:
448,192,84694,1,0,0:0:0:0:
64,192,84849,1,0,0:0:0:0:
192,192,84849,1,0,0:0:0:0:
320,192,84849,1,0,0:0:0:0:
64,192,85005,1,0,0:0:0:0:
320,192,85005,1,0,0:0:0:0:
64,192,85160,1,0,0:0:0:0:
192,192,85160,1,0,0:0:0:0:
320,192,85160,1,0,0:0:0:0:
448,192,85160,1,0,0:0:0:0:
448,192,85315,1,0,0:0:0:0:
64,192,85471,1,0,0:0:0:0:
192,192,85471,1,0,0:0:0:0:
320,192,85471,1,0,0:0:0:0:
448,192,85626,1,0,0:0:0:0:
192,192,85626,1,0,0:0:0:0:
320,192,85626,1,0,0:0:0:0:
64,192,85782,1,0,0:0:0:0:
192,192,85782,1,0,0:0:0:0:
320,192,85782,1,0,0:0:0:0:
448,192,85782,1,0,0:0:0:0:
64,192,85937,1,0,0:0:0:0:
320,192,85937,1,0,0:0:0:0:
192,192,86093,1,0,0:0:0:0:
320,192,86093,1,0,0:0:0:0:
64,192,86093,1,0,0:0:0:0:
192,192,86248,1,0,0:0:0:0:
448,192,86248,1,0,0:0:0:0:
448,192,86403,1,0,0:0:0:0:
192,192,86403,1,0,0:0:0:0:
320,192,86403,1,0,0:0:0:0:
64,192,86403,1,0,0:0:0:0:
64,192,86559,1,0,0:0:0:0:
192,192,86559,1,0,0:0:0:0:
448,192,86714,1,0,0:0:0:0:
192,192,86714,1,0,0:0:0:0:
320,192,86714,1,0,0:0:0:0:
320,192,86870,1,0,0:0:0:0:
64,192,86870,1,0,0:0:0:0:
448,192,87025,1,0,0:0:0:0:
192,192,87025,1,0,0:0:0:0:
320,192,87025,1,0,0:0:0:0:
64,192,87025,1,0,0:0:0:0:
320,192,87181,1,0,0:0:0:0:
192,192,87181,1,0,0:0:0:0:
192,192,87492,1,0,0:0:0:0:
320,192,87492,1,0,0:0:0:0:
320,192,87647,1,0,0:0:0:0:
64,192,87647,1,0,0:0:0:0:
192,192,87647,1,0,0:0:0:0:
448,192,87647,1,0,0:0:0:0:
448,192,87802,1,0,0:0:0:0:
320,192,87854,1,0,0:0:0:0:
192,192,87906,1,0,0:0:0:0:
64,192,87958,1,0,0:0:0:0:
320,192,87958,1,0,0:0:0:0:
448,192,87958,1,0,0:0:0:0:
192,192,88113,1,0,0:0:0:0:
320,192,88113,1,0,0:0:0:0:
64,192,88269,1,0,0:0:0:0:
192,192,88269,1,0,0:0:0:0:
320,192,88269,1,0,0:0:0:0:
448,192,88269,1,0,0:0:0:0:
448,192,88424,1,0,0:0:0:0:
64,192,88580,1,0,0:0:0:0:
192,192,88580,1,0,0:0:0:0:
320,192,88580,1,0,0:0:0:0:
320,192,88657,1,0,0:0:0:0:
64,192,88657,1,0,0:0:0:0:
448,192,88735,1,0,0:0:0:0:
192,192,88735,1,0,0:0:0:0:
320,192,88735,1,0,0:0:0:0:
448,192,88891,1,0,0:0:0:0:
320,192,88891,1,0,0:0:0:0:
192,192,88891,1,0,0:0:0:0:
192,192,88968,1,0,0:0:0:0:
448,192,88968,1,0,0:0:0:0:
64,192,89046,1,0,0:0:0:0:
320,192,89046,1,0,0:0:0:0:
192,192,89046,1,0,0:0:0:0:
64,192,89201,1,0,0:0:0:0:
192,192,89201,1,0,0:0:0:0:
448,192,89201,1,0,0:0:0:0:
64,192,89279,1,0,0:0:0:0:
448,192,89279,1,0,0:0:0:0:
320,192,89357,1,0,0:0:0:0:
192,192,89357,1,0,0:0:0:0:
64,192,89357,1,0,0:0:0:0:
448,192,89512,1,0,0:0:0:0:
320,192,89512,1,0,0:0:0:0:
192,192,89512,1,0,0:0:0:0:
64,192,89512,1,0,0:0:0:0:
192,192,89590,1,0,0:0:0:0:
64,192,89590,1,0,0:0:0:0:
320,192,89590,1,0,0:0:0:0:
448,192,89590,1,0,0:0:0:0:
64,192,89668,1,0,0:0:0:0:
192,192,89668,1,0,0:0:0:0:
448,192,89668,1,0,0:0:0:0:
320,192,89745,1,0,0:0:0:0:
192,192,89745,1,0,0:0:0:0:
