osu file format v13

[General]
AudioFilename: elementariodeaimashou.mp3
AudioLeadIn: 2000
PreviewTime: 55094
Countdown: 0
SampleSet: None
StackLeniency: 0.7
Mode: 3
LetterboxInBreaks: 0
SpecialStyle: 1
WidescreenStoryboard: 1

[Editor]
DistanceSpacing: 1
BeatDivisor: 4
GridSize: 4
TimelineZoom: 2.2

[Metadata]
Title:Anime Endings Madness P.2
TitleUnicode:Anime Endings Madness P.2
Artist:FX
ArtistUnicode:FX
Creator:[FX] AEM
Version:Elementario de Aimashou! [FX]
Source:
Tags:ending
BeatmapID:625247
BeatmapSetID:275629

[Difficulty]
HPDrainRate:8
CircleSize:4
OverallDifficulty:8
ApproachRate:0
SliderMultiplier:1.4
SliderTickRate:1

[Events]
//Background and Video events
//Break Periods
//Storyboard Layer 0 (Background)
//Storyboard Layer 1 (Fail)
//Storyboard Layer 2 (Pass)
//Storyboard Layer 3 (Foreground)
//Storyboard Sound Samples

[TimingPoints]
601,379.746835443038,4,2,0,20,1,0

[HitObjects]
320,192,411,5,0,0:0:0:0:
192,192,506,1,0,0:0:0:0:
320,192,601,1,0,0:0:0:0:
64,192,601,1,0,0:0:0:0:
448,192,601,128,0,1170:0:0:0:0:
64,192,790,1,0,0:0:0:0:
64,192,980,1,0,0:0:0:0:
192,192,1170,128,0,1740:0:0:0:0:
448,192,1550,1,0,0:0:0:0:
320,192,1740,128,0,2119:0:0:0:0:
64,192,1930,1,0,0:0:0:0:
448,192,1930,1,0,0:0:0:0:
448,192,2119,128,0,2689:0:0:0:0:
192,192,2119,1,0,0:0:0:0:
64,192,2119,1,0,0:0:0:0:
192,192,2309,1,0,0:0:0:0:
192,192,2499,1,0,0:0:0:0:
320,192,2689,128,0,3259:0:0:0:0:
64,192,2689,1,0,0:0:0:0:
448,192,3069,1,0,0:0:0:0:
192,192,3259,128,0,3638:0:0:0:0:
64,192,3259,1,0,0:0:0:0:
448,192,3449,1,0,0:0:0:0:
64,192,3638,128,0,4398:0:0:0:0:
320,192,3638,1,0,0:0:0:0:
448,192,3638,1,0,0:0:0:0:
320,192,3828,1,0,0:0:0:0:
448,192,4018,1,0,0:0:0:0:
192,192,4208,1,0,0:0:0:0:
448,192,4398,128,0,4968:0:0:0:0:
192,192,4588,1,0,0:0:0:0:
64,192,4778,1,0,0:0:0:0:
192,192,4968,128,0,5537:0:0:0:0:
320,192,4968,1,0,0:0:0:0:
64,192,5157,1,0,0:0:0:0:
448,192,5347,1,0,0:0:0:0:
64,192,5537,1,0,0:0:0:0:
320,192,5537,1,0,0:0:0:0:
192,192,5727,1,0,0:0:0:0:
448,192,5727,1,0,0:0:0:0:
320,192,5822,1,0,0:0:0:0:
64,192,5917,1,0,0:0:0:0:
192,192,5917,1,0,0:0:0:0:
448,192,6107,1,0,0:0:0:0:
64,192,6107,1,0,0:0:0:0:
320,192,6297,1,0,0:0:0:0:
192,192,6297,1,0,0:0:0:0:
64,192,6487,1,0,0:0:0:0:
192,192,6550,1,0,0:0:0:0:
320,192,6613,1,0,0:0:0:0:
64,192,6676,1,0,1:0:0:0:
448,192,6676,1,0,0:0:0:0:
192,192,6676,1,0,0:0:0:0:
320,192,6866,1,0,0:0:0:0:
64,192,6866,1,0,0:0:0:0:
320,192,7056,1,0,0:0:0:0:
192,192,7056,1,0,0:0:0:0:
448,192,7056,1,0,0:0:0:0:
448,192,7246,1,0,0:0:0:0:
64,192,7246,1,0,0:0:0:0:
192,192,7436,1,0,0:0:0:0:
64,192,7436,1,0,0:0:0:0:
320,192,7436,1,0,0:0:0:0:
320,192,7626,1,0,0:0:0:0:
64,192,7816,1,0,0:0:0:0:
192,192,7816,1,0,0:0:0:0:
448,192,7816,1,0,0:0:0:0:
192,192,8006,1,0,0:0:0:0:
320,192,8006,1,0,0:0:0:0:
64,192,8195,1,0,0:0:0:0:
320,192,8195,1,0,0:0:0:0:
448,192,8195,1,0,0:0:0:0:
192,192,8385,1,0,0:0:0:0:
320,192,8385,1,0,0:0:0:0:
64,192,8575,1,0,0:0:0:0:
320,192,8575,1,0,0:0:0:0:
448,192,8575,1,0,0:0:0:0:
192,192,8765,1,0,0:0:0:0:
320,192,8860,1,0,0:0:0:0:
64,192,8955,1,0,0:0:0:0:
192,192,8955,1,0,0:0:0:0:
448,192,8955,1,0,0:0:0:0:
320,192,9145,1,0,0:0:0:0:
192,192,9145,1,0,0:0:0:0:
448,192,9335,1,0,0:0:0:0:
64,192,9335,1,0,0:0:0:0:
192,192,9335,1,0,0:0:0:0:
64,192,9525,1,0,0:0:0:0:
320,192,9525,1,0,0:0:0:0:
192,192,9714,1,0,0:0:0:0:
448,192,9714,1,0,0:0:0:0:
320,192,9714,1,0,0:0:0:0:
64,192,9904,1,0,0:0:0:0:
320,192,9904,1,0,0:0:0:0:
192,192,10094,1,0,0:0:0:0:
64,192,10094,1,0,0:0:0:0:
320,192,10189,1,0,0:0:0:0:
192,192,10284,1,0,0:0:0:0:
192,192,10474,1,0,0:0:0:0:
320,192,10474,1,0,0:0:0:0:
64,192,10474,1,0,0:0:0:0:
320,192,10664,1,0,0:0:0:0:
448,192,10664,1,0,0:0:0:0:
448,192,10854,1,0,0:0:0:0:
192,192,10854,1,0,0:0:0:0:
64,192,10854,1,0,0:0:0:0:
64,192,11044,1,0,0:0:0:0:
320,192,11044,1,0,0:0:0:0:
320,192,11233,1,0,0:0:0:0:
448,192,11233,1,0,0:0:0:0:
192,192,11233,1,0,0:0:0:0:
64,192,11423,1,0,0:0:0:0:
192,192,11423,1,0,0:0:0:0:
192,192,11613,1,0,0:0:0:0:
320,192,11613,1,0,0:0:0:0:
448,192,11613,1,0,0:0:0:0:
64,192,11803,1,0,0:0:0:0:
192,192,11898,1,0,0:0:0:0:
448,192,11993,1,0,0:0:0:0:
64,192,11993,1,0,0:0:0:0:
320,192,11993,1,0,0:0:0:0:
192,192,12183,1,0,0:0:0:0:
448,192,12278,1,0,0:0:0:0:
320,192,12278,1,0,0:0:0:0:
64,192,12373,1,0,0:0:0:0:
192,192,12373,1,0,0:0:0:0:
320,192,12563,1,0,0:0:0:0:
448,192,12563,1,0,0:0:0:0:
192,192,12563,1,0,0:0:0:0:
64,192,12752,1,0,0:0:0:0:
192,192,12752,1,0,0:0:0:0:
448,192,12752,128,0,13227:0:0:0:0:
64,192,13322,1,0,0:0:0:0:
192,192,13322,1,0,0:0:0:0:
320,192,13322,128,0,13797:0:0:0:0:
64,192,13892,128,0,15031:0:0:0:0:
192,192,13892,128,0,15031:0:0:0:0:
448,192,13892,1,0,0:0:0:0:
320,192,15031,128,0,15601:0:0:0:0:
448,192,15031,128,0,15601:0:0:0:0:
64,192,15790,1,0,1:0:0:0:
192,192,15790,1,0,1:0:0:0:
448,192,15790,1,0,0:0:0:0:
320,192,15980,1,0,0:0:0:0:
192,192,15980,1,0,0:0:0:0:
64,192,16170,1,0,0:0:0:0:
320,192,16170,1,0,0:0:0:0:
448,192,16170,1,0,0:0:0:0:
192,192,16360,1,0,0:0:0:0:
64,192,16550,1,0,0:0:0:0:
320,192,16550,1,0,0:0:0:0:
448,192,16550,1,0,0:0:0:0:
192,192,16645,1,0,0:0:0:0:
320,192,16740,1,0,0:0:0:0:
448,192,16835,1,0,0:0:0:0:
64,192,16930,1,0,0:0:0:0:
192,192,16930,1,0,0:0:0:0:
192,192,17119,1,0,0:0:0:0:
448,192,17119,1,0,0:0:0:0:
320,192,17309,1,0,0:0:0:0:
64,192,17309,1,0,0:0:0:0:
192,192,17309,1,0,0:0:0:0:
448,192,17499,1,0,0:0:0:0:
320,192,17499,1,0,0:0:0:0:
192,192,17689,1,0,0:0:0:0:
64,192,17689,1,0,0:0:0:0:
320,192,17879,1,0,0:0:0:0:
192,192,17879,1,0,0:0:0:0:
192,192,18069,1,0,0:0:0:0:
448,192,18069,1,0,0:0:0:0:
64,192,18069,1,0,0:0:0:0:
320,192,18164,1,0,0:0:0:0:
192,192,18259,1,0,0:0:0:0:
64,192,18354,1,0,0:0:0:0:
448,192,18449,1,0,0:0:0:0:
320,192,18449,1,0,0:0:0:0:
64,192,18638,1,0,0:0:0:0:
192,192,18638,1,0,0:0:0:0:
448,192,18828,1,0,0:0:0:0:
192,192,18828,1,0,0:0:0:0:
320,192,18828,1,0,0:0:0:0:
320,192,19018,1,0,0:0:0:0:
64,192,19018,1,0,0:0:0:0:
448,192,19208,1,0,0:0:0:0:
192,192,19208,1,0,0:0:0:0:
320,192,19208,1,0,0:0:0:0:
64,192,19398,1,0,0:0:0:0:
192,192,19398,1,0,0:0:0:0:
320,192,19588,1,0,0:0:0:0:
448,192,19588,1,0,0:0:0:0:
64,192,19588,1,0,0:0:0:0:
192,192,19683,1,0,0:0:0:0:
320,192,19778,1,0,0:0:0:0:
448,192,19873,1,0,0:0:0:0:
192,192,19968,1,0,0:0:0:0:
64,192,19968,1,0,0:0:0:0:
320,192,20157,1,0,0:0:0:0:
448,192,20157,1,0,0:0:0:0:
64,192,20347,1,0,0:0:0:0:
192,192,20347,1,0,0:0:0:0:
320,192,20347,1,0,0:0:0:0:
448,192,20537,1,0,0:0:0:0:
192,192,20537,1,0,0:0:0:0:
320,192,20727,1,0,0:0:0:0:
64,192,20727,1,0,0:0:0:0:
192,192,20917,1,0,0:0:0:0:
320,192,20917,1,0,0:0:0:0:
448,192,21107,1,0,0:0:0:0:
64,192,21107,1,0,0:0:0:0:
192,192,21107,1,0,0:0:0:0:
320,192,21202,1,0,0:0:0:0:
192,192,21297,1,0,0:0:0:0:
64,192,21392,1,0,0:0:0:0:
320,192,21487,1,0,0:0:0:0:
448,192,21487,1,0,0:0:0:0:
192,192,21676,1,0,0:0:0:0:
448,192,21676,1,0,0:0:0:0:
64,192,21866,1,0,0:0:0:0:
320,192,21866,1,0,0:0:0:0:
192,192,21866,1,0,0:0:0:0:
64,192,22056,1,0,0:0:0:0:
448,192,22056,1,0,0:0:0:0:
192,192,22246,1,0,0:0:0:0:
448,192,22246,1,0,0:0:0:0:
320,192,22246,1,0,0:0:0:0:
64,192,22436,1,0,0:0:0:0:
320,192,22436,1,0,0:0:0:0:
448,192,22626,1,0,0:0:0:0:
64,192,22626,1,0,0:0:0:0:
320,192,22626,1,0,0:0:0:0:
192,192,22721,1,0,0:0:0:0:
320,192,22816,1,0,0:0:0:0:
448,192,22911,1,0,0:0:0:0:
64,192,23006,1,0,0:0:0:0:
192,192,23006,1,0,0:0:0:0:
448,192,23195,1,0,0:0:0:0:
320,192,23195,1,0,0:0:0:0:
320,192,23385,1,0,0:0:0:0:
192,192,23385,1,0,0:0:0:0:
64,192,23385,1,0,0:0:0:0:
192,192,23575,1,0,0:0:0:0:
448,192,23575,1,0,0:0:0:0:
192,192,23765,1,0,0:0:0:0:
64,192,23765,1,0,0:0:0:0:
320,192,23765,1,0,0:0:0:0:
320,192,23955,1,0,0:0:0:0:
64,192,23955,1,0,0:0:0:0:
192,192,24145,1,0,0:0:0:0:
448,192,24145,1,0,0:0:0:0:
64,192,24145,1,0,0:0:0:0:
320,192,24240,1,0,0:0:0:0:
192,192,24335,1,0,0:0:0:0:
64,192,24430,1,0,0:0:0:0:
320,192,24525,1,0,0:0:0:0:
448,192,24525,1,0,0:0:0:0:
192,192,24714,1,0,0:0:0:0:
320,192,24714,1,0,0:0:0:0:
192,192,24904,1,0,0:0:0:0:
448,192,24904,1,0,0:0:0:0:
64,192,24904,1,0,0:0:0:0:
448,192,25094,1,0,0:0:0:0:
192,192,25094,1,0,0:0:0:0:
64,192,25284,1,0,0:0:0:0:
448,192,25284,1,0,0:0:0:0:
320,192,25284,1,0,0:0:0:0:
320,192,25474,1,0,0:0:0:0:
192,192,25474,1,0,0:0:0:0:
192,192,25664,1,0,0:0:0:0:
64,192,25664,1,0,0:0:0:0:
448,192,25664,1,0,0:0:0:0:
320,192,25759,1,0,0:0:0:0:
192,192,25854,1,0,0:0:0:0:
320,192,25949,1,0,0:0:0:0:
64,192,26044,1,0,0:0:0:0:
192,192,26044,1,0,0:0:0:0:
448,192,26233,1,0,0:0:0:0:
320,192,26233,1,0,0:0:0:0:
64,192,26423,128,0,27373:0:0:0:0:
320,192,27373,1,0,0:0:0:0:
448,192,27373,1,0,0:0:0:0:
64,192,27563,1,0,0:0:0:0:
192,192,27563,128,0,27942:0:0:0:0:
320,192,27942,1,0,0:0:0:0:
64,192,27942,1,0,0:0:0:0:
448,192,27942,1,0,0:0:0:0:
192,192,28132,1,0,0:0:0:0:
320,192,28322,1,0,0:0:0:0:
64,192,28322,1,0,0:0:0:0:
448,192,28512,1,0,0:0:0:0:
192,192,28512,128,0,28892:0:0:0:0:
320,192,28892,1,0,0:0:0:0:
64,192,28892,1,0,0:0:0:0:
192,192,29082,1,0,0:0:0:0:
448,192,29082,128,0,29461:0:0:0:0:
320,192,29082,1,0,0:0:0:0:
320,192,29461,1,0,0:0:0:0:
64,192,29461,1,0,0:0:0:0:
64,192,29651,1,0,0:0:0:0:
320,192,29651,1,0,0:0:0:0:
448,192,29841,1,0,0:0:0:0:
192,192,29841,1,0,0:0:0:0:
320,192,29936,1,0,0:0:0:0:
192,192,30031,1,0,0:0:0:0:
64,192,30031,128,0,30221:0:0:0:0:
320,192,30411,1,0,0:0:0:0:
192,192,30411,1,0,0:0:0:0:
64,192,30601,1,0,0:0:0:0:
448,192,30601,1,0,0:0:0:0:
320,192,30601,1,0,0:0:0:0:
192,192,30790,1,0,0:0:0:0:
64,192,30980,1,0,0:0:0:0:
192,192,30980,1,0,0:0:0:0:
320,192,30980,1,0,0:0:0:0:
448,192,31170,1,0,0:0:0:0:
320,192,31170,1,0,0:0:0:0:
192,192,31360,1,0,0:0:0:0:
64,192,31360,1,0,0:0:0:0:
320,192,31455,1,0,0:0:0:0:
448,192,31550,128,0,31930:0:0:0:0:
192,192,31550,1,0,0:0:0:0:
320,192,31930,1,0,0:0:0:0:
64,192,31930,1,0,0:0:0:0:
448,192,32119,1,0,0:0:0:0:
192,192,32119,1,0,0:0:0:0:
320,192,32119,1,0,0:0:0:0:
64,192,32309,1,0,0:0:0:0:
192,192,32499,1,0,0:0:0:0:
64,192,32499,1,0,0:0:0:0:
320,192,32499,1,0,0:0:0:0:
320,192,32689,1,0,0:0:0:0:
64,192,32689,1,0,0:0:0:0:
320,192,32879,1,0,0:0:0:0:
448,192,32879,1,0,0:0:0:0:
192,192,32879,1,0,0:0:0:0:
64,192,33069,1,0,0:0:0:0:
192,192,33069,1,0,0:0:0:0:
320,192,33164,1,0,0:0:0:0:
192,192,33259,1,0,0:0:0:0:
64,192,33449,1,0,0:0:0:0:
448,192,33449,1,0,0:0:0:0:
192,192,33638,1,0,0:0:0:0:
320,192,33638,1,0,0:0:0:0:
448,192,33638,1,0,0:0:0:0:
64,192,33828,1,0,0:0:0:0:
64,192,34018,1,0,0:0:0:0:
448,192,34018,1,0,0:0:0:0:
192,192,34018,1,0,0:0:0:0:
320,192,34208,1,0,0:0:0:0:
192,192,34208,1,0,0:0:0:0:
448,192,34398,1,0,0:0:0:0:
320,192,34398,1,0,0:0:0:0:
64,192,34398,1,0,0:0:0:0:
192,192,34493,1,0,0:0:0:0:
64,192,34588,128,0,34968:0:0:0:0:
448,192,34778,1,0,0:0:0:0:
192,192,34968,1,0,0:0:0:0:
320,192,34968,1,0,0:0:0:0:
64,192,35157,1,0,0:0:0:0:
192,192,35157,1,0,0:0:0:0:
448,192,35157,128,0,35347:0:0:0:0:
320,192,35347,128,0,35537:0:0:0:0:
64,192,35537,1,0,0:0:0:0:
192,192,35537,128,0,35917:0:0:0:0:
448,192,35537,1,0,0:0:0:0:
64,192,35727,1,0,0:0:0:0:
320,192,35917,1,0,0:0:0:0:
448,192,35917,1,0,0:0:0:0:
64,192,36012,1,0,0:0:0:0:
448,192,36107,128,0,36487:0:0:0:0:
320,192,36107,1,0,0:0:0:0:
192,192,36487,1,0,0:0:0:0:
64,192,36487,1,0,0:0:0:0:
320,192,36676,1,0,0:0:0:0:
448,192,36676,128,0,37056:0:0:0:0:
320,192,36866,1,0,0:0:0:0:
192,192,37056,128,0,37436:0:0:0:0:
64,192,37056,1,0,0:0:0:0:
64,192,37246,1,0,0:0:0:0:
320,192,37436,1,0,0:0:0:0:
448,192,37436,1,0,0:0:0:0:
64,192,37531,1,0,0:0:0:0:
320,192,37626,1,0,0:0:0:0:
192,192,37626,128,0,38006:0:0:0:0:
448,192,37816,1,0,0:0:0:0:
64,192,38006,1,0,0:0:0:0:
320,192,38006,1,0,0:0:0:0:
320,192,38195,1,0,0:0:0:0:
192,192,38195,1,0,0:0:0:0:
448,192,38195,128,0,38575:0:0:0:0:
64,192,38385,1,0,0:0:0:0:
192,192,38480,1,0,0:0:0:0:
64,192,38575,1,0,0:0:0:0:
320,192,38575,1,0,0:0:0:0:
64,192,38765,1,0,0:0:0:0:
448,192,38955,1,0,0:0:0:0:
192,192,38955,1,0,0:0:0:0:
320,192,38955,1,0,0:0:0:0:
64,192,39145,1,0,0:0:0:0:
320,192,39145,1,0,0:0:0:0:
192,192,39240,1,0,0:0:0:0:
448,192,39335,1,0,0:0:0:0:
320,192,39430,1,0,0:0:0:0:
192,192,39525,1,0,0:0:0:0:
320,192,39619,1,0,0:0:0:0:
448,192,39714,1,0,0:0:0:0:
64,192,39714,1,0,0:0:0:0:
64,192,39809,1,0,0:0:0:0:
192,192,39809,1,0,0:0:0:0:
448,192,39904,1,0,0:0:0:0:
320,192,39904,1,0,0:0:0:0:
64,192,39999,1,0,0:0:0:0:
448,192,40094,1,0,1:0:0:0:
320,192,40094,1,0,0:0:0:0:
192,192,40094,128,0,40474:0:0:0:0:
64,192,40474,1,0,0:0:0:0:
320,192,40474,1,0,0:0:0:0:
448,192,40474,1,0,0:0:0:0:
192,192,40664,1,0,0:0:0:0:
320,192,40664,1,0,0:0:0:0:
64,192,41233,1,0,0:0:0:0:
448,192,41233,1,0,0:0:0:0:
192,192,41233,1,0,0:0:0:0:
320,192,41423,1,0,0:0:0:0:
192,192,41613,1,0,0:0:0:0:
64,192,41613,1,0,0:0:0:0:
320,192,41803,1,0,0:0:0:0:
448,192,41803,1,0,0:0:0:0:
192,192,41993,1,0,0:0:0:0:
320,192,41993,1,0,0:0:0:0:
64,192,41993,1,0,0:0:0:0:
448,192,42183,1,0,0:0:0:0:
192,192,42183,1,0,0:0:0:0:
320,192,42183,1,0,0:0:0:0:
320,192,42468,1,0,0:0:0:0:
64,192,42563,1,0,0:0:0:0:
192,192,42563,1,0,0:0:0:0:
192,192,42752,1,0,0:0:0:0:
448,192,42752,1,0,0:0:0:0:
320,192,42752,1,0,0:0:0:0:
64,192,42942,1,0,0:0:0:0:
64,192,43132,1,0,0:0:0:0:
192,192,43132,1,0,0:0:0:0:
448,192,43132,1,0,0:0:0:0:
448,192,43322,1,0,0:0:0:0:
448,192,43512,1,0,0:0:0:0:
64,192,43512,1,0,0:0:0:0:
320,192,43512,1,0,0:0:0:0:
192,192,43702,1,0,0:0:0:0:
320,192,43702,1,0,0:0:0:0:
192,192,44082,1,0,0:0:0:0:
64,192,44271,1,0,0:0:0:0:
448,192,44271,1,0,0:0:0:0:
320,192,44271,1,0,0:0:0:0:
320,192,44461,128,0,44841:0:0:0:0:
192,192,44841,1,0,0:0:0:0:
64,192,44841,1,0,0:0:0:0:
192,192,45031,1,0,0:0:0:0:
448,192,45031,1,0,0:0:0:0:
320,192,45031,1,0,0:0:0:0:
64,192,45221,1,0,0:0:0:0:
320,192,45221,1,0,0:0:0:0:
64,192,45411,1,0,0:0:0:0:
192,192,45506,1,0,0:0:0:0:
448,192,45506,1,0,0:0:0:0:
64,192,45601,1,0,0:0:0:0:
320,192,45601,1,0,0:0:0:0:
448,192,45695,1,0,0:0:0:0:
192,192,45790,1,0,0:0:0:0:
64,192,45790,128,0,46170:0:0:0:0:
320,192,45790,1,0,0:0:0:0:
448,192,45980,128,0,46170:0:0:0:0:
320,192,46170,1,0,0:0:0:0:
192,192,46170,1,0,0:0:0:0:
192,192,46360,1,0,0:0:0:0:
448,192,46360,1,0,0:0:0:0:
448,192,46550,1,0,0:0:0:0:
320,192,46550,1,0,0:0:0:0:
64,192,46550,1,0,0:0:0:0:
192,192,46740,1,0,0:0:0:0:
320,192,46740,1,0,0:0:0:0:
64,192,47119,1,0,0:0:0:0:
320,192,47309,1,0,0:0:0:0:
192,192,47309,1,0,0:0:0:0:
448,192,47309,128,0,47689:0:0:0:0:
64,192,47499,128,0,47689:0:0:0:0:
320,192,47689,1,0,0:0:0:0:
192,192,47689,1,0,0:0:0:0:
64,192,47879,1,0,0:0:0:0:
320,192,47879,1,0,0:0:0:0:
192,192,48069,1,0,0:0:0:0:
64,192,48069,1,0,0:0:0:0:
448,192,48069,1,0,0:0:0:0:
320,192,48259,1,0,0:0:0:0:
192,192,48259,1,0,0:0:0:0:
192,192,48638,1,0,0:0:0:0:
320,192,48638,1,0,0:0:0:0:
320,192,48828,1,0,0:0:0:0:
448,192,48828,1,0,0:0:0:0:
64,192,48828,1,0,0:0:0:0:
64,192,49018,1,0,0:0:0:0:
320,192,49018,1,0,0:0:0:0:
448,192,49208,1,0,0:0:0:0:
192,192,49208,1,0,0:0:0:0:
64,192,49208,1,0,0:0:0:0:
192,192,49398,1,0,0:0:0:0:
320,192,49398,1,0,0:0:0:0:
320,192,49588,1,0,0:0:0:0:
64,192,49588,1,0,0:0:0:0:
448,192,49588,1,0,0:0:0:0:
320,192,49778,1,0,0:0:0:0:
64,192,49778,1,0,0:0:0:0:
192,192,49778,128,0,50347:0:0:0:0:
448,192,50157,1,0,0:0:0:0:
320,192,50347,1,0,0:0:0:0:
64,192,50347,1,0,0:0:0:0:
448,192,50537,1,0,0:0:0:0:
64,192,50727,1,0,0:0:0:0:
320,192,50727,1,0,0:0:0:0:
192,192,50727,1,0,0:0:0:0:
64,192,50917,1,0,0:0:0:0:
320,192,50917,1,0,0:0:0:0:
192,192,51107,1,0,0:0:0:0:
448,192,51107,1,0,0:0:0:0:
320,192,51107,1,0,0:0:0:0:
192,192,51297,1,0,0:0:0:0:
448,192,51297,128,0,51676:0:0:0:0:
64,192,51297,1,0,0:0:0:0:
320,192,51676,1,0,0:0:0:0:
192,192,51676,1,0,0:0:0:0:
192,192,51866,1,0,0:0:0:0:
448,192,51866,1,0,0:0:0:0:
64,192,51866,128,0,52246:0:0:0:0:
192,192,52246,1,0,0:0:0:0:
448,192,52246,1,0,0:0:0:0:
320,192,52341,1,0,0:0:0:0:
192,192,52436,1,0,0:0:0:0:
64,192,52626,1,0,0:0:0:0:
320,192,52626,1,0,0:0:0:0:
448,192,52626,1,0,0:0:0:0:
192,192,52721,1,0,0:0:0:0:
320,192,52816,1,0,0:0:0:0:
448,192,53006,1,0,0:0:0:0:
64,192,53006,1,0,0:0:0:0:
192,192,53006,1,0,0:0:0:0:
320,192,53195,1,0,0:0:0:0:
448,192,53195,1,0,0:0:0:0:
64,192,53195,1,0,0:0:0:0:
448,192,53385,1,0,0:0:0:0:
64,192,53385,1,0,0:0:0:0:
192,192,53385,1,0,0:0:0:0:
192,192,53575,1,0,0:0:0:0:
320,192,53575,1,0,0:0:0:0:
448,192,53575,1,0,0:0:0:0:
64,192,53575,128,0,53955:0:0:0:0:
192,192,53955,128,0,54050:0:0:0:0:
320,192,53955,128,0,54050:0:0:0:0:
448,192,53955,128,0,54050:0:0:0:0:
192,192,54145,128,0,54240:0:0:0:0:
320,192,54145,128,0,54240:0:0:0:0:
448,192,54145,128,0,54240:0:0:0:0:
64,192,54335,128,0,54430:0:0:0:0:
192,192,54335,128,0,54430:0:0:0:0:
320,192,54335,128,0,54430:0:0:0:0:
192,192,54525,1,0,0:0:0:0:
320,192,54525,1,0,0:0:0:0:
448,192,54525,1,0,0:0:0:0:
64,192,54714,1,0,0:0:0:0:
192,192,54714,1,0,0:0:0:0:
192,192,54904,1,0,0:0:0:0:
320,192,54904,1,0,0:0:0:0:
448,192,54904,128,0,55284:0:0:0:0:
64,192,55094,1,0,0:0:0:0:
192,192,55189,1,0,0:0:0:0:
64,192,55284,1,0,0:0:0:0:
320,192,55284,1,0,0:0:0:0:
320,192,55474,1,0,0:0:0:0:
192,192,55474,1,0,0:0:0:0:
320,192,55664,1,0,0:0:0:0:
448,192,55664,1,0,0:0:0:0:
64,192,55664,1,0,0:0:0:0:
320,192,55854,1,0,0:0:0:0:
192,192,55854,1,0,0:0:0:0:
448,192,56044,1,0,0:0:0:0:
64,192,56044,1,0,0:0:0:0:
320,192,56044,1,0,0:0:0:0:
320,192,56233,1,0,0:0:0:0:
192,192,56233,1,0,0:0:0:0:
64,192,56423,1,0,0:0:0:0:
320,192,56423,1,0,0:0:0:0:
448,192,56423,1,0,0:0:0:0:
192,192,56613,1,0,0:0:0:0:
320,192,56613,1,0,0:0:0:0:
64,192,56803,1,0,0:0:0:0:
448,192,56803,1,0,0:0:0:0:
320,192,56803,1,0,0:0:0:0:
192,192,56993,1,0,0:0:0:0:
320,192,56993,1,0,0:0:0:0:
64,192,56993,1,0,0:0:0:0:
64,192,57183,1,0,0:0:0:0:
448,192,57183,1,0,0:0:0:0:
320,192,57183,1,0,0:0:0:0:
192,192,57373,1,0,0:0:0:0:
320,192,57373,1,0,0:0:0:0:
64,192,57373,1,0,0:0:0:0:
64,192,57563,128,0,57752:0:0:0:0:
320,192,57563,128,0,57752:0:0:0:0:
448,192,57563,128,0,57752:0:0:0:0:
192,192,57752,1,0,0:0:0:0:
320,192,57942,128,0,58132:0:0:0:0:
64,192,57942,128,0,58132:0:0:0:0:
192,192,57942,128,0,58132:0:0:0:0:
448,192,58132,1,0,0:0:0:0:
192,192,58322,1,0,0:0:0:0:
448,192,58322,1,0,0:0:0:0:
64,192,58322,1,0,0:0:0:0:
192,192,58512,1,0,0:0:0:0:
320,192,58512,1,0,0:0:0:0:
64,192,58702,1,0,0:0:0:0:
448,192,58702,1,0,0:0:0:0:
192,192,58702,1,0,0:0:0:0:
320,192,58892,1,0,0:0:0:0:
192,192,58892,1,0,0:0:0:0:
64,192,59082,1,0,0:0:0:0:
448,192,59082,1,0,0:0:0:0:
192,192,59082,1,0,0:0:0:0:
192,192,59271,1,0,0:0:0:0:
320,192,59271,1,0,0:0:0:0:
64,192,59461,1,0,0:0:0:0:
192,192,59461,1,0,0:0:0:0:
448,192,59461,1,0,0:0:0:0:
192,192,59651,1,0,0:0:0:0:
320,192,59651,1,0,0:0:0:0:
448,192,59746,1,0,0:0:0:0:
64,192,59841,1,0,0:0:0:0:
192,192,59841,1,0,0:0:0:0:
320,192,59841,1,0,0:0:0:0:
64,192,60031,1,0,0:0:0:0:
448,192,60031,1,0,0:0:0:0:
320,192,60031,1,0,0:0:0:0:
320,192,60221,1,0,0:0:0:0:
448,192,60221,1,0,0:0:0:0:
192,192,60221,1,0,0:0:0:0:
64,192,60411,1,0,0:0:0:0:
448,192,60411,1,0,0:0:0:0:
192,192,60411,1,0,0:0:0:0:
320,192,60601,1,0,0:0:0:0:
64,192,60601,128,0,60790:0:0:0:0:
192,192,60601,128,0,60790:0:0:0:0:
448,192,60790,1,0,0:0:0:0:
320,192,60790,1,0,0:0:0:0:
192,192,60980,1,0,0:0:0:0:
320,192,60980,1,0,0:0:0:0:
64,192,60980,128,0,61360:0:0:0:0:
192,192,61360,1,0,0:0:0:0:
448,192,61360,1,0,0:0:0:0:
320,192,61360,1,0,0:0:0:0:
448,192,61550,1,0,0:0:0:0:
64,192,61550,1,0,0:0:0:0:
320,192,61740,1,0,0:0:0:0:
448,192,61740,1,0,0:0:0:0:
192,192,61740,1,0,0:0:0:0:
448,192,61930,1,0,0:0:0:0:
64,192,61930,1,0,0:0:0:0:
192,192,62119,1,0,0:0:0:0:
448,192,62119,1,0,0:0:0:0:
320,192,62119,1,0,0:0:0:0:
64,192,62309,1,0,0:0:0:0:
448,192,62309,1,0,0:0:0:0:
320,192,62499,1,0,0:0:0:0:
192,192,62499,1,0,0:0:0:0:
448,192,62499,1,0,0:0:0:0:
448,192,62689,1,0,0:0:0:0:
192,192,62689,1,0,0:0:0:0:
64,192,62784,1,0,0:0:0:0:
320,192,62879,1,0,0:0:0:0:
448,192,62879,1,0,0:0:0:0:
192,192,62879,1,0,0:0:0:0:
448,192,63069,1,0,0:0:0:0:
64,192,63069,1,0,0:0:0:0:
192,192,63069,1,0,0:0:0:0:
448,192,63259,1,0,0:0:0:0:
192,192,63259,1,0,0:0:0:0:
320,192,63259,1,0,0:0:0:0:
448,192,63449,1,0,0:0:0:0:
64,192,63449,1,0,0:0:0:0:
192,192,63449,1,0,0:0:0:0:
192,192,63638,128,0,63828:0:0:0:0:
320,192,63638,128,0,63828:0:0:0:0:
448,192,63638,128,0,63828:0:0:0:0:
64,192,63828,1,0,0:0:0:0:
64,192,64018,128,0,64208:0:0:0:0:
192,192,64018,128,0,64208:0:0:0:0:
320,192,64018,128,0,64208:0:0:0:0:
448,192,64208,1,0,0:0:0:0:
320,192,64303,1,0,0:0:0:0:
64,192,64398,1,0,0:0:0:0:
448,192,64398,1,0,0:0:0:0:
192,192,64398,1,0,0:0:0:0:
448,192,64588,1,0,0:0:0:0:
192,192,64588,1,0,0:0:0:0:
64,192,64778,1,0,0:0:0:0:
320,192,64778,1,0,0:0:0:0:
448,192,64778,1,0,0:0:0:0:
64,192,64968,1,0,0:0:0:0:
320,192,64968,1,0,0:0:0:0:
192,192,65157,1,0,0:0:0:0:
448,192,65157,1,0,0:0:0:0:
64,192,65157,1,0,0:0:0:0:
192,192,65347,1,0,0:0:0:0:
320,192,65347,1,0,0:0:0:0:
64,192,65537,1,0,0:0:0:0:
448,192,65537,1,0,0:0:0:0:
192,192,65537,1,0,0:0:0:0:
192,192,65727,1,0,0:0:0:0:
320,192,65727,1,0,0:0:0:0:
64,192,65917,1,0,0:0:0:0:
448,192,65917,1,0,0:0:0:0:
320,192,65917,1,0,0:0:0:0:
64,192,66107,1,0,0:0:0:0:
192,192,66107,1,0,0:0:0:0:
320,192,66107,1,0,0:0:0:0:
448,192,66297,1,0,0:0:0:0:
192,192,66297,1,0,0:0:0:0:
320,192,66297,1,0,0:0:0:0:
64,192,66487,1,0,0:0:0:0:
320,192,66487,1,0,0:0:0:0:
192,192,66487,1,0,0:0:0:0:
192,192,66676,1,0,0:0:0:0:
448,192,66676,1,0,0:0:0:0:
320,192,66676,1,0,0:0:0:0:
64,192,66771,1,0,0:0:0:0:
192,192,66866,1,0,0:0:0:0:
320,192,66961,1,0,0:0:0:0:
64,192,67056,1,0,0:0:0:0:
192,192,67056,1,0,0:0:0:0:
320,192,67151,1,0,0:0:0:0:
448,192,67246,1,0,0:0:0:0:
64,192,67246,1,0,0:0:0:0:
192,192,67246,1,0,0:0:0:0:
64,192,67341,1,0,0:0:0:0:
448,192,67341,1,0,0:0:0:0:
192,192,67341,1,0,0:0:0:0:
64,192,67436,1,0,0:0:0:0:
192,192,67436,1,0,0:0:0:0:
448,192,67436,128,0,67816:0:0:0:0:
192,192,67816,128,0,68195:0:0:0:0:
320,192,67816,1,0,0:0:0:0:
64,192,68006,1,0,0:0:0:0:
320,192,68195,128,0,68575:0:0:0:0:
448,192,68195,1,0,0:0:0:0:
64,192,68385,1,0,0:0:0:0:
192,192,68480,1,0,0:0:0:0:
64,192,68575,128,0,68955:0:0:0:0:
448,192,68575,1,0,0:0:0:0:
192,192,68765,1,0,0:0:0:0:
448,192,68765,1,0,0:0:0:0:
320,192,68860,1,0,0:0:0:0:
448,192,68955,128,0,69525:0:0:0:0:
192,192,68955,1,0,0:0:0:0:
320,192,69335,1,0,0:0:0:0:
192,192,69335,1,0,0:0:0:0:
192,192,69525,128,0,70094:0:0:0:0:
64,192,69525,1,0,0:0:0:0:
320,192,69904,1,0,0:0:0:0:
64,192,69904,1,0,0:0:0:0:
448,192,70094,1,0,0:0:0:0:
64,192,70094,1,0,0:0:0:0:
320,192,70189,1,0,0:0:0:0:
448,192,70284,1,0,0:0:0:0:
320,192,70379,1,0,0:0:0:0:
448,192,70474,1,0,0:0:0:0:
192,192,70474,1,0,0:0:0:0:
64,192,70474,128,0,70854:0:0:0:0:
448,192,70854,128,0,71233:0:0:0:0:
320,192,70854,1,0,0:0:0:0:
320,192,71138,1,0,0:0:0:0:
192,192,71233,1,0,0:0:0:0:
64,192,71233,1,0,0:0:0:0:
320,192,71423,1,0,0:0:0:0:
64,192,71423,1,0,0:0:0:0:
448,192,71613,1,0,0:0:0:0:
192,192,71613,1,0,0:0:0:0:
192,192,71803,1,0,0:0:0:0:
320,192,71803,1,0,0:0:0:0:
64,192,71803,1,0,0:0:0:0:
192,192,72183,1,0,0:0:0:0:
320,192,72183,1,0,0:0:0:0:
64,192,72373,1,0,0:0:0:0:
448,192,72373,1,0,0:0:0:0:
320,192,72373,1,0,0:0:0:0:
192,192,72563,1,0,0:0:0:0:
320,192,72657,1,0,0:0:0:0:
64,192,72752,1,0,0:0:0:0:
192,192,72752,1,0,0:0:0:0:
448,192,72847,1,0,0:0:0:0:
320,192,72942,1,0,0:0:0:0:
192,192,72942,1,0,0:0:0:0:
64,192,73132,1,0,0:0:0:0:
320,192,73132,1,0,0:0:0:0:
448,192,73132,1,0,0:0:0:0:
192,192,73322,1,0,0:0:0:0:
320,192,73322,1,0,0:0:0:0:
192,192,73512,1,0,0:0:0:0:
64,192,73512,1,0,0:0:0:0:
448,192,73512,1,0,0:0:0:0:
320,192,73702,1,0,0:0:0:0:
64,192,73892,1,0,0:0:0:0:
192,192,73892,1,0,0:0:0:0:
448,192,73892,1,0,0:0:0:0:
320,192,74082,1,0,0:0:0:0:
320,192,74271,1,0,0:0:0:0:
64,192,74271,1,0,0:0:0:0:
448,192,74271,1,0,0:0:0:0:
192,192,74461,1,0,0:0:0:0:
320,192,74461,1,0,0:0:0:0:
64,192,74651,1,0,0:0:0:0:
320,192,74651,1,0,0:0:0:0:
448,192,74651,1,0,0:0:0:0:
192,192,74841,1,0,0:0:0:0:
320,192,74841,1,0,0:0:0:0:
64,192,75031,1,0,0:0:0:0:
192,192,75031,128,0,75980:0:0:0:0:
448,192,75031,128,0,75980:0:0:0:0:
64,192,75980,1,0,0:0:0:0:
320,192,75980,1,0,0:0:0:0:
64,192,76170,1,0,0:0:0:0:
192,192,76218,1,0,0:0:0:0:
320,192,76265,1,0,0:0:0:0:
448,192,76313,1,0,0:0:0:0:
64,192,76360,1,0,0:0:0:0:
192,192,76407,1,0,0:0:0:0:
320,192,76455,1,0,0:0:0:0:
448,192,76502,1,0,0:0:0:0:
192,192,76550,1,0,1:0:0:0:
64,192,76550,1,0,0:0:0:0:
320,192,76740,1,0,0:0:0:0:
64,192,76740,1,0,0:0:0:0:
192,192,76930,1,0,0:0:0:0:
448,192,76930,1,0,0:0:0:0:
64,192,76930,1,0,0:0:0:0:
64,192,77119,1,0,0:0:0:0:
320,192,77119,1,0,0:0:0:0:
64,192,77309,1,0,0:0:0:0:
448,192,77309,1,0,0:0:0:0:
192,192,77309,1,0,0:0:0:0:
320,192,77499,1,0,0:0:0:0:
192,192,77499,1,0,0:0:0:0:
192,192,77689,1,0,0:0:0:0:
64,192,77689,1,0,0:0:0:0:
448,192,77689,1,0,0:0:0:0:
192,192,77879,1,0,0:0:0:0:
320,192,77879,1,0,0:0:0:0:
448,192,78069,1,0,0:0:0:0:
320,192,78069,1,0,0:0:0:0:
64,192,78069,1,0,0:0:0:0:
320,192,78259,1,0,0:0:0:0:
64,192,78259,1,0,0:0:0:0:
192,192,78449,1,0,0:0:0:0:
448,192,78449,1,0,0:0:0:0:
320,192,78449,1,0,0:0:0:0:
64,192,78638,1,0,0:0:0:0:
320,192,78638,1,0,0:0:0:0:
192,192,78828,1,0,0:0:0:0:
320,192,78828,1,0,0:0:0:0:
448,192,78828,1,0,0:0:0:0:
320,192,79018,1,0,0:0:0:0:
64,192,79018,1,0,0:0:0:0:
448,192,79208,1,0,0:0:0:0:
192,192,79208,1,0,0:0:0:0:
320,192,79208,1,0,0:0:0:0:
64,192,79303,1,0,0:0:0:0:
192,192,79398,1,0,0:0:0:0:
320,192,79493,1,0,0:0:0:0:
64,192,79588,1,0,0:0:0:0:
192,192,79588,1,0,0:0:0:0:
448,192,79588,1,0,0:0:0:0:
192,192,79778,1,0,0:0:0:0:
448,192,79778,1,0,0:0:0:0:
64,192,79968,1,0,0:0:0:0:
448,192,79968,1,0,0:0:0:0:
192,192,79968,1,0,0:0:0:0:
320,192,80157,1,0,0:0:0:0:
192,192,80157,1,0,0:0:0:0:
64,192,80347,1,0,0:0:0:0:
192,192,80347,1,0,0:0:0:0:
448,192,80347,1,0,0:0:0:0:
320,192,80537,1,0,0:0:0:0:
192,192,80537,1,0,0:0:0:0:
64,192,80727,1,0,0:0:0:0:
448,192,80727,1,0,0:0:0:0:
192,192,80727,1,0,0:0:0:0:
192,192,80917,1,0,0:0:0:0:
64,192,80917,128,0,81487:0:0:0:0:
320,192,80917,1,0,0:0:0:0:
192,192,81297,1,0,0:0:0:0:
320,192,81297,1,0,0:0:0:0:
448,192,81487,1,0,0:0:0:0:
320,192,81487,1,0,0:0:0:0:
192,192,81676,1,0,0:0:0:0:
64,192,81676,1,0,0:0:0:0:
320,192,81771,1,0,0:0:0:0:
448,192,81771,1,0,0:0:0:0:
64,192,81866,1,0,0:0:0:0:
192,192,81866,1,0,0:0:0:0:
192,192,82056,1,0,0:0:0:0:
448,192,82056,1,0,0:0:0:0:
64,192,82246,1,0,0:0:0:0:
320,192,82246,1,0,0:0:0:0:
64,192,82341,1,0,0:0:0:0:
320,192,82341,1,0,0:0:0:0:
64,192,82436,1,0,0:0:0:0:
320,192,82436,1,0,0:0:0:0:
192,192,82531,1,0,0:0:0:0:
320,192,82626,1,0,0:0:0:0:
64,192,82626,1,0,0:0:0:0:
448,192,82626,128,0,83006:0:0:0:0:
320,192,83006,1,0,0:0:0:0:
192,192,83006,1,0,0:0:0:0:
448,192,83195,1,0,0:0:0:0:
320,192,83195,128,0,83575:0:0:0:0:
64,192,83195,1,0,0:0:0:0:
192,192,83575,1,0,0:0:0:0:
448,192,83575,1,0,0:0:0:0:
320,192,83765,1,0,0:0:0:0:
192,192,83765,128,0,88322:0:0:0:0:
64,192,83765,128,0,88322:0:0:0:0:
