osu file format v12

[General]
AudioFilename: Snow Fairy.mp3
AudioLeadIn: 0
PreviewTime: 52750
Countdown: 0
SampleSet: Normal
StackLeniency: 0.7
Mode: 0
LetterboxInBreaks: 1
WidescreenStoryboard: 1

[Editor]
DistanceSpacing: 1
BeatDivisor: 4
GridSize: 16

[Metadata]
Title:Snow Fairy (TV Size)
TitleUnicode:Snow Fairy (TV Size)
Artist:FUNKIST
ArtistUnicode:FUNKIST
Creator:Swayzo
Version:Wizard (Normal)
Source:Fairy Tail
Tags:Snow Fairy Tail Funkist Intro Title
BeatmapID:286828
BeatmapSetID:101236

[Difficulty]
HPDrainRate:5
CircleSize:3
OverallDifficulty:3
ApproachRate:6
SliderMultiplier:1.6
SliderTickRate:1

[Events]
//Background and Video events
0,0,"fairytailbg.jpg",0,0
Video,-1564,"Fairy Tail Opening.flv"
//Break Periods
2,9931,16040
//Storyboard Layer 0 (Background)
//Storyboard Layer 1 (Fail)
//Storyboard Layer 2 (Pass)
//Storyboard Layer 3 (Foreground)
//Storyboard Sound Samples
//Background Colour Transformations
3,100,163,162,255

[TimingPoints]
675,566.037735849057,4,1,0,100,1,0
52750,-66.6666666666667,4,1,0,100,0,1
67184,-66.6666666666667,4,1,0,100,0,0
76524,-100,4,1,0,100,0,0

[Colours]
Combo1 : 0,0,255
Combo2 : 255,0,0
Combo3 : 255,128,64
Combo4 : 0,255,255

[HitObjects]
192,256,675,2,0,P|128:208|64:192,2,120
240,192,1807,2,0,L|240:48,2,120
352,192,2939,2,0,P|272:256|240:256,1,120
112,96,3788,2,0,L|256:96,2,120
256,192,5061,12,4,6052,0:0:0:0:
416,192,6618,22,0,P|352:144|320:144,1,80
288,192,7184,1,0,0:0:0:0:
224,288,7467,2,0,P|176:224|176:192,4,80
256,128,9165,2,0,L|256:320,1,160,0|4,0:0|0:0,0:0:0:0:
208,192,17090,54,2,P|255:139|304:192,1,160
144,192,18505,2,0,P|112:128|80:112,4,80
208,256,19920,2,0,P|256:304|336:304,2,120
256,192,21052,1,4,0:0:0:0:
112,144,21618,6,2,B|160:144|160:144|176:144|224:192|240:192|240:192|272:192,1,160
400,128,23033,2,0,P|441:192|400:256,1,160
320,240,23882,2,0,P|272:272|240:272,2,80
256,192,24731,2,0,L|176:192,3,80,0|0|0|4,0:0|0:0|0:0|0:0,0:0:0:0:
336,192,26146,6,2,B|304:192|304:192|288:192|240:144|224:144|224:144|160:144,1,160
112,288,27561,2,0,P|144:320|192:320,2,80
112,208,28410,2,0,P|176:160|224:144,2,120
192,208,29542,2,0,L|192:288,2,80,0|0|4,0:0|0:0|0:0,0:0:0:0:
352,192,30675,6,2,P|272:256|208:256,1,160
256,48,32373,1,4,0:0:0:0:
160,192,32939,2,2,P|240:256|304:256,1,160
256,112,36052,6,0,P|224:80|176:80,2,80
176,144,36901,2,0,P|112:240|112:272,2,120
192,224,38033,2,0,P|240:192|272:192,3,80
320,240,39165,6,0,L|384:112,2,120,0|0|0,0:0|0:0|0:0,0:0:0:0:
368,80,40580,6,0,P|416:96|448:144,2,80
352,160,41429,2,0,P|288:208|224:224,2,120
272,128,42561,2,0,P|224:96|176:80,3,80
160,144,43693,6,0,L|80:272,2,120,0|0|0,0:0|0:0|0:0,0:0:0:0:
320,192,45108,6,0,P|288:144|240:112,2,80
272,256,45958,2,0,P|192:304|144:304,2,120
192,224,47090,2,0,P|128:176|96:176,3,80
256,192,48222,12,0,49920,0:0:0:0:
256,192,50486,5,4,0:0:0:0:
160,192,51618,5,4,0:0:0:0:
336,192,52184,1,4,0:0:0:0:
128,64,52750,6,0,P|160:160|256:224,2,180.000006866455
240,112,53882,2,0,P|368:80|464:80,2,180.000006866455
352,176,55014,2,0,P|400:240|432:336,1,180.000006866455
320,288,55722,6,0,P|224:256|192:256,1,120.000004577637
144,96,56429,2,0,P|208:80|272:80,2,120.000004577637
208,208,57278,6,0,P|240:272|352:304,2,180.000006866455
336,80,58410,2,0,P|192:64|160:80,2,180.000006866455
256,176,59542,6,0,L|128:256,3,120.000004577637
272,272,60675,2,0,L|384:320,3,120.000004577637
400,208,61807,6,0,P|304:112|240:96,1,180.000006866455
208,96,62373,2,0,P|128:112|64:176,1,120.000004577637
96,192,62939,2,0,B|128:192|128:192|144:192|208:256|208:256|224:256|256:256,1,180.000006866455
336,256,63788,5,0,0:0:0:0:
432,192,64071,2,0,P|320:128|256:128,1,180.000006866455
96,96,64920,6,0,L|304:112,1,180.000006866455
304,160,65486,2,0,L|160:176,1,120.000004577637
96,176,65910,1,0,0:0:0:0:
256,192,66193,12,4,67184,0:0:0:0:
128,144,67750,6,0,P|192:80|256:64,2,120.000004577637
240,144,68599,2,0,P|304:192|352:208,3,120.000004577637
240,256,69731,1,0,0:0:0:0:
464,192,70297,1,0,0:0:0:0:
256,192,70863,12,4,72561,0:0:0:0:
144,192,73693,5,4,0:0:0:0:
368,192,74825,1,4,0:0:0:0:
128,192,76524,5,0,0:0:0:0:
208,240,76807,5,0,0:0:0:0:
304,240,77090,5,4,0:0:0:0:
384,192,77373,5,0,0:0:0:0:
384,112,77656,6,0,P|272:96|240:96,2,120,4|0|0,0:0|0:0|0:0,0:0:0:0:
288,176,78788,2,0,P|400:192|432:208,2,120
176,192,79920,2,0,P|80:208|32:192,2,120
176,80,81052,5,0,0:0:0:0:
272,160,81335,1,0,0:0:0:0:
272,160,81476,1,0,0:0:0:0:
368,96,81759,1,0,0:0:0:0:
432,192,82042,1,0,0:0:0:0:
256,304,82750,6,0,P|160:288|96:240,1,160,0|4,0:0|0:0,0:0:0:0:
256,64,83882,1,4,0:0:0:0:
256,192,84448,12,4,86712,0:0:0:0:
