osu file format v12

[General]
AudioFilename: Snow Fairy.mp3
AudioLeadIn: 0
PreviewTime: 52750
Countdown: 0
SampleSet: Normal
StackLeniency: 0.7
Mode: 1
LetterboxInBreaks: 0
WidescreenStoryboard: 1

[Editor]
DistanceSpacing: 1
BeatDivisor: 4
GridSize: 32

[Metadata]
Title:Snow Fairy (TV Size)
TitleUnicode:Snow Fairy (TV Size)
Artist:FUNKIST
ArtistUnicode:FUNKIST
Creator:Swayzo
Version:Taiko Oni (Insane)
Source:Fairy Tail
Tags:Snow Fairy Tail Funkist Intro Title
BeatmapID:290682
BeatmapSetID:101236

[Difficulty]
HPDrainRate:6
CircleSize:2
OverallDifficulty:6
ApproachRate:8
SliderMultiplier:1.6
SliderTickRate:4

[Events]
//Background and Video events
Video,-1564,"Fairy Tail Opening.flv"
0,0,"fairytailbg.jpg",0,0
//Break Periods
2,9931,16340
//Storyboard Layer 0 (Background)
//Storyboard Layer 1 (Fail)
//Storyboard Layer 2 (Pass)
//Storyboard Layer 3 (Foreground)
//Storyboard Sound Samples
//Background Colour Transformations
3,100,163,162,255

[TimingPoints]
675,566.037735849057,4,1,0,100,1,0
52750,-100,4,1,0,100,0,1
67184,-100,4,1,0,100,0,0
76524,-100,4,1,0,100,0,0

[Colours]
Combo1 : 0,0,255
Combo2 : 255,0,0
Combo3 : 255,128,64
Combo4 : 0,255,255

[HitObjects]
256,192,675,1,0,0:0:0:0:
256,192,958,1,8,0:0:0:0:
256,192,1241,1,0,0:0:0:0:
256,192,1382,1,0,0:0:0:0:
256,192,1524,1,8,0:0:0:0:
256,192,1807,1,0,0:0:0:0:
256,192,2090,1,8,0:0:0:0:
256,192,2231,1,0,0:0:0:0:
256,192,2514,1,0,0:0:0:0:
256,192,2656,1,8,0:0:0:0:
256,192,2939,1,0,0:0:0:0:
256,192,3222,1,8,0:0:0:0:
256,192,3363,1,0,0:0:0:0:
256,192,3505,1,0,0:0:0:0:
256,192,3788,1,8,0:0:0:0:
256,192,3929,1,0,0:0:0:0:
256,192,4212,1,0,0:0:0:0:
256,192,4354,1,8,0:0:0:0:
256,192,4637,1,0,0:0:0:0:
256,192,4778,1,0,0:0:0:0:
256,192,5061,12,0,6335,0:0:0:0:
256,192,6618,5,0,0:0:0:0:
256,192,6901,1,8,0:0:0:0:
256,192,7184,1,0,0:0:0:0:
256,192,7325,1,0,0:0:0:0:
256,192,7467,1,8,0:0:0:0:
256,192,7750,1,0,0:0:0:0:
256,192,8033,1,8,0:0:0:0:
256,192,8316,1,0,0:0:0:0:
256,192,8458,1,0,0:0:0:0:
256,192,8599,1,8,0:0:0:0:
256,192,8882,1,0,0:0:0:0:
256,192,9165,1,8,0:0:0:0:
256,192,9448,1,0,0:0:0:0:
256,192,9519,1,0,0:0:0:0:
256,192,9590,1,0,0:0:0:0:
256,192,9660,1,0,0:0:0:0:
256,192,9731,1,12,0:0:0:0:
256,192,17090,5,4,0:0:0:0:
256,192,17231,1,0,0:0:0:0:
256,192,17373,1,8,0:0:0:0:
256,192,17514,1,0,0:0:0:0:
256,192,17656,1,4,0:0:0:0:
256,192,17939,1,8,0:0:0:0:
256,192,18222,1,0,0:0:0:0:
256,192,18505,1,8,0:0:0:0:
256,192,18646,1,0,0:0:0:0:
256,192,18788,1,0,0:0:0:0:
256,192,19071,1,8,0:0:0:0:
256,192,19212,1,0,0:0:0:0:
256,192,19354,1,0,0:0:0:0:
256,192,19637,1,8,0:0:0:0:
256,192,19920,1,0,0:0:0:0:
256,192,20061,1,0,0:0:0:0:
256,192,20203,1,8,0:0:0:0:
256,192,20486,1,0,0:0:0:0:
256,192,20627,1,0,0:0:0:0:
256,192,20769,1,8,0:0:0:0:
256,192,21052,1,12,0:0:0:0:
256,192,21618,5,4,0:0:0:0:
256,192,21759,1,0,0:0:0:0:
256,192,21901,1,8,0:0:0:0:
256,192,22042,1,0,0:0:0:0:
256,192,22184,1,4,0:0:0:0:
256,192,22467,1,8,0:0:0:0:
256,192,22750,1,0,0:0:0:0:
256,192,23033,1,8,0:0:0:0:
256,192,23174,1,0,0:0:0:0:
256,192,23316,1,0,0:0:0:0:
256,192,23599,1,8,0:0:0:0:
256,192,23882,1,0,0:0:0:0:
256,192,24165,1,8,0:0:0:0:
256,192,24448,1,0,0:0:0:0:
256,192,24589,1,0,0:0:0:0:
256,192,24731,1,8,0:0:0:0:
256,192,25014,1,0,0:0:0:0:
256,192,25155,1,0,0:0:0:0:
256,192,25297,1,8,0:0:0:0:
256,192,25580,1,12,0:0:0:0:
256,192,26146,5,4,0:0:0:0:
256,192,26287,1,0,0:0:0:0:
256,192,26429,1,8,0:0:0:0:
256,192,26570,1,0,0:0:0:0:
256,192,26712,1,4,0:0:0:0:
256,192,26995,1,8,0:0:0:0:
256,192,27278,1,0,0:0:0:0:
256,192,27420,1,0,0:0:0:0:
256,192,27561,1,8,0:0:0:0:
256,192,27844,1,0,0:0:0:0:
256,192,27986,1,0,0:0:0:0:
256,192,28127,1,8,0:0:0:0:
256,192,28268,1,0,0:0:0:0:
256,192,28410,1,0,0:0:0:0:
256,192,28693,1,8,0:0:0:0:
256,192,28976,1,0,0:0:0:0:
256,192,29117,1,0,0:0:0:0:
256,192,29259,1,8,0:0:0:0:
256,192,29542,1,0,0:0:0:0:
256,192,29683,1,0,0:0:0:0:
256,192,29825,1,8,0:0:0:0:
256,192,30108,1,12,0:0:0:0:
256,192,30675,1,4,0:0:0:0:
256,192,30745,1,0,0:0:0:0:
256,192,30816,1,0,0:0:0:0:
256,192,30887,1,0,0:0:0:0:
256,192,30958,1,0,0:0:0:0:
256,192,31241,1,0,0:0:0:0:
256,192,31524,1,8,0:0:0:0:
256,192,31807,1,0,0:0:0:0:
256,192,31948,1,0,0:0:0:0:
256,192,32090,1,8,0:0:0:0:
256,192,32373,1,12,0:0:0:0:
256,192,32939,1,4,0:0:0:0:
256,192,33009,1,0,0:0:0:0:
256,192,33080,1,0,0:0:0:0:
256,192,33151,1,0,0:0:0:0:
256,192,33222,1,0,0:0:0:0:
256,192,33505,1,0,0:0:0:0:
256,192,33788,1,8,0:0:0:0:
256,192,34071,1,0,0:0:0:0:
256,192,34212,1,0,0:0:0:0:
256,192,34354,1,8,0:0:0:0:
256,192,34637,1,12,0:0:0:0:
256,192,35061,1,4,0:0:0:0:
256,192,35486,1,4,0:0:0:0:
256,192,36052,5,0,0:0:0:0:
256,192,36335,1,8,0:0:0:0:
256,192,36618,1,0,0:0:0:0:
256,192,36759,1,0,0:0:0:0:
256,192,36901,1,8,0:0:0:0:
256,192,37184,1,0,0:0:0:0:
256,192,37467,1,8,0:0:0:0:
256,192,37750,1,0,0:0:0:0:
256,192,37891,1,0,0:0:0:0:
256,192,38033,1,8,0:0:0:0:
256,192,38316,1,0,0:0:0:0:
256,192,38458,1,8,0:0:0:0:
256,192,38741,1,0,0:0:0:0:
256,192,38882,1,8,0:0:0:0:
256,192,39165,1,12,0:0:0:0:
256,192,39448,1,0,0:0:0:0:
256,192,39590,1,12,0:0:0:0:
256,192,39873,1,0,0:0:0:0:
256,192,40014,1,12,0:0:0:0:
256,192,40509,5,0,0:0:0:0:
256,192,40580,1,0,0:0:0:0:
256,192,40651,1,0,0:0:0:0:
256,192,40721,1,0,0:0:0:0:
256,192,40863,1,0,0:0:0:0:
256,192,41146,1,8,0:0:0:0:
256,192,41429,1,0,0:0:0:0:
256,192,41571,1,0,0:0:0:0:
256,192,41712,1,8,0:0:0:0:
256,192,41995,1,0,0:0:0:0:
256,192,42278,1,8,0:0:0:0:
256,192,42561,1,0,0:0:0:0:
256,192,42703,1,0,0:0:0:0:
256,192,42844,1,8,0:0:0:0:
256,192,42986,1,0,0:0:0:0:
256,192,43127,1,0,0:0:0:0:
256,192,43269,1,0,0:0:0:0:
256,192,43410,1,8,0:0:0:0:
256,192,43693,1,4,0:0:0:0:
256,192,43976,1,0,0:0:0:0:
256,192,44118,1,4,0:0:0:0:
256,192,44401,1,0,0:0:0:0:
256,192,44542,1,4,0:0:0:0:
256,192,45108,5,0,0:0:0:0:
256,192,45391,1,8,0:0:0:0:
256,192,45675,1,0,0:0:0:0:
256,192,45816,1,0,0:0:0:0:
256,192,45958,1,8,0:0:0:0:
256,192,46241,1,0,0:0:0:0:
256,192,46524,1,8,0:0:0:0:
256,192,46807,1,0,0:0:0:0:
256,192,46948,1,0,0:0:0:0:
256,192,47090,1,8,0:0:0:0:
256,192,47373,1,0,0:0:0:0:
256,192,47514,1,8,0:0:0:0:
256,192,47797,1,0,0:0:0:0:
256,192,47939,1,8,0:0:0:0:
192,160,48222,2,4,B|0:256|0:256|0:128|0:128|96:128|96:128|96:64,1,480
256,192,50486,1,12,0:0:0:0:
256,192,51193,1,0,0:0:0:0:
256,192,51334,1,0,0:0:0:0:
256,192,51476,1,0,0:0:0:0:
256,192,51618,1,12,0:0:0:0:
256,192,51901,1,0,0:0:0:0:
256,192,51972,1,0,0:0:0:0:
256,192,52042,1,0,0:0:0:0:
256,192,52113,1,0,0:0:0:0:
256,192,52184,1,12,0:0:0:0:
256,192,52467,1,0,0:0:0:0:
256,192,52750,5,12,0:0:0:0:
256,192,52891,1,8,0:0:0:0:
256,192,53033,1,8,0:0:0:0:
256,192,53175,1,0,0:0:0:0:
256,192,53316,1,8,0:0:0:0:
256,192,53458,1,8,0:0:0:0:
256,192,53599,1,0,0:0:0:0:
256,192,53741,1,8,0:0:0:0:
256,192,53882,1,0,0:0:0:0:
256,192,54024,1,8,0:0:0:0:
256,192,54165,1,8,0:0:0:0:
256,192,54307,1,0,0:0:0:0:
256,192,54448,1,8,0:0:0:0:
256,192,54590,1,8,0:0:0:0:
256,192,54731,1,0,0:0:0:0:
256,192,54873,1,8,0:0:0:0:
256,192,55014,1,0,0:0:0:0:
256,192,55156,1,8,0:0:0:0:
256,192,55297,1,8,0:0:0:0:
256,192,55439,1,0,0:0:0:0:
256,192,55580,1,8,0:0:0:0:
256,192,55722,1,8,0:0:0:0:
256,192,55863,1,0,0:0:0:0:
256,192,56005,1,0,0:0:0:0:
256,192,56429,1,0,0:0:0:0:
256,192,56712,1,0,0:0:0:0:
256,192,56995,1,0,0:0:0:0:
256,192,57278,5,12,0:0:0:0:
256,192,57419,1,8,0:0:0:0:
256,192,57561,1,8,0:0:0:0:
256,192,57703,1,0,0:0:0:0:
256,192,57844,1,8,0:0:0:0:
256,192,57986,1,8,0:0:0:0:
256,192,58127,1,0,0:0:0:0:
256,192,58269,1,0,0:0:0:0:
256,192,58410,1,0,0:0:0:0:
256,192,58552,1,8,0:0:0:0:
256,192,58693,1,8,0:0:0:0:
256,192,58835,1,0,0:0:0:0:
256,192,58976,1,8,0:0:0:0:
256,192,59118,1,8,0:0:0:0:
256,192,59259,1,0,0:0:0:0:
256,192,59401,1,8,0:0:0:0:
256,192,59542,1,0,0:0:0:0:
256,192,59825,1,0,0:0:0:0:
256,192,60108,1,0,0:0:0:0:
256,192,60250,1,0,0:0:0:0:
256,192,60391,1,0,0:0:0:0:
256,192,60675,1,8,0:0:0:0:
256,192,60957,1,0,0:0:0:0:
256,192,61241,1,8,0:0:0:0:
256,192,61382,1,0,0:0:0:0:
256,192,61523,1,0,0:0:0:0:
256,192,61665,1,0,0:0:0:0:
256,192,61806,5,12,0:0:0:0:
256,192,61995,1,4,0:0:0:0:
256,192,62184,1,4,0:0:0:0:
256,192,62373,1,8,0:0:0:0:
256,192,62561,1,4,0:0:0:0:
256,192,62750,1,4,0:0:0:0:
256,192,62939,1,12,0:0:0:0:
256,192,63363,1,12,0:0:0:0:
256,192,63646,1,0,0:0:0:0:
256,192,63717,1,0,0:0:0:0:
256,192,63788,1,0,0:0:0:0:
256,192,64071,1,12,0:0:0:0:
256,192,64495,1,12,0:0:0:0:
256,192,64920,1,0,0:0:0:0:
256,192,65109,1,0,0:0:0:0:
256,192,65297,1,0,0:0:0:0:
256,192,65486,1,0,0:0:0:0:
256,192,65675,1,0,0:0:0:0:
256,192,65864,1,0,0:0:0:0:
256,192,66052,1,0,0:0:0:0:
256,192,66193,1,12,0:0:0:0:
256,192,66618,1,0,0:0:0:0:
256,192,66689,1,0,0:0:0:0:
256,192,66759,1,0,0:0:0:0:
256,192,67042,1,12,0:0:0:0:
256,192,67750,1,0,0:0:0:0:
256,192,68033,1,8,0:0:0:0:
256,192,68316,1,0,0:0:0:0:
256,192,68458,1,0,0:0:0:0:
256,192,68599,1,8,0:0:0:0:
256,192,68882,1,0,0:0:0:0:
256,192,69165,1,8,0:0:0:0:
256,192,69448,1,0,0:0:0:0:
256,192,69590,1,0,0:0:0:0:
256,192,69731,1,8,0:0:0:0:
256,192,70014,1,0,0:0:0:0:
256,192,70297,1,8,0:0:0:0:
256,192,70580,1,0,0:0:0:0:
256,192,70651,1,0,0:0:0:0:
256,192,70722,1,0,0:0:0:0:
256,192,70792,1,0,0:0:0:0:
256,192,70863,1,12,0:0:0:0:
256,192,71005,12,0,72420,0:0:0:0:
256,192,72561,5,12,0:0:0:0:
256,192,73127,1,0,0:0:0:0:
256,192,73693,1,12,0:0:0:0:
256,192,74259,1,0,0:0:0:0:
256,192,74825,1,12,0:0:0:0:
224,192,76524,1,12,0:0:0:0:
224,192,76807,1,4,0:0:0:0:
224,192,77090,1,12,0:0:0:0:
224,192,77231,1,0,0:0:0:0:
224,192,77373,1,4,0:0:0:0:
224,192,77514,1,0,0:0:0:0:
224,192,77656,1,12,0:0:0:0:
224,192,78080,1,4,0:0:0:0:
224,192,78505,1,12,0:0:0:0:
224,192,78788,1,4,0:0:0:0:
224,192,79212,1,4,0:0:0:0:
224,192,79637,1,12,0:0:0:0:
224,192,79920,1,4,0:0:0:0:
224,192,80344,1,4,0:0:0:0:
224,192,80769,1,12,0:0:0:0:
224,192,81052,1,0,0:0:0:0:
224,192,81335,1,8,0:0:0:0:
224,192,81476,1,0,0:0:0:0:
224,192,81759,1,0,0:0:0:0:
224,192,81901,1,8,0:0:0:0:
224,192,82042,1,0,0:0:0:0:
224,192,82184,1,0,0:0:0:0:
224,192,82467,1,8,0:0:0:0:
224,192,82750,1,0,0:0:0:0:
224,192,83033,1,8,0:0:0:0:
224,192,83175,1,0,0:0:0:0:
224,192,83316,1,12,0:0:0:0:
224,192,83882,1,4,0:0:0:0:
224,192,84448,1,12,0:0:0:0:
256,192,84590,12,0,86571,0:0:0:0:
256,192,86712,5,12,0:0:0:0:
