osu file format v12

[General]
AudioFilename: Snow Fairy.mp3
AudioLeadIn: 0
PreviewTime: 52750
Countdown: 0
SampleSet: Normal
StackLeniency: 0.7
Mode: 1
LetterboxInBreaks: 0
WidescreenStoryboard: 1

[Editor]
DistanceSpacing: 1.5
BeatDivisor: 4
GridSize: 32

[Metadata]
Title:Snow Fairy (TV Size)
TitleUnicode:Snow Fairy (TV Size)
Artist:FUNKIST
ArtistUnicode:FUNKIST
Creator:Swayzo
Version:Taiko Futsuu (Normal)
Source:Fairy Tail
Tags:Snow Fairy Tail Funkist Intro Title
BeatmapID:286827
BeatmapSetID:101236

[Difficulty]
HPDrainRate:4
CircleSize:2
OverallDifficulty:4
ApproachRate:6
SliderMultiplier:1.4
SliderTickRate:4

[Events]
//Background and Video events
Video,-1564,"Fairy Tail Opening.flv"
0,0,"fairytailbg.jpg",0,0
//Break Periods
2,9931,15474
2,72761,75474
//Storyboard Layer 0 (Background)
//Storyboard Layer 1 (Fail)
//Storyboard Layer 2 (Pass)
//Storyboard Layer 3 (Foreground)
//Storyboard Sound Samples
//Background Colour Transformations
3,100,163,162,255

[TimingPoints]
675,566.037735849057,4,1,0,100,1,0
52750,-100,4,1,0,100,0,1
67184,-100,4,1,0,100,0,0
76524,-100,4,1,0,100,0,0

[Colours]
Combo1 : 0,0,255
Combo2 : 255,0,0
Combo3 : 255,128,64
Combo4 : 0,255,255

[HitObjects]
256,192,675,1,0,0:0:0:0:
256,192,1099,1,0,0:0:0:0:
256,192,1524,1,0,0:0:0:0:
256,192,1807,1,8,0:0:0:0:
256,192,2231,1,8,0:0:0:0:
256,192,2656,1,0,0:0:0:0:
256,192,2939,1,8,0:0:0:0:
256,192,3363,1,8,0:0:0:0:
256,192,3788,1,0,0:0:0:0:
256,192,4212,1,0,0:0:0:0:
256,192,4354,1,0,0:0:0:0:
256,192,4637,1,0,0:0:0:0:
256,192,4778,1,0,0:0:0:0:
256,192,5061,12,0,6335,0:0:0:0:
256,192,6618,5,0,0:0:0:0:
256,192,7184,1,0,0:0:0:0:
256,192,7467,1,0,0:0:0:0:
256,192,8033,1,8,0:0:0:0:
256,192,8316,1,0,0:0:0:0:
256,192,8882,1,0,0:0:0:0:
256,192,9165,1,8,0:0:0:0:
256,192,9731,1,12,0:0:0:0:
256,192,16524,5,12,0:0:0:0:
256,192,17090,1,0,0:0:0:0:
256,192,17656,1,4,0:0:0:0:
256,192,18505,1,0,0:0:0:0:
256,192,18646,1,0,0:0:0:0:
256,192,18788,1,0,0:0:0:0:
256,192,19071,1,8,0:0:0:0:
256,192,19354,1,0,0:0:0:0:
256,192,19637,1,8,0:0:0:0:
256,192,19920,1,0,0:0:0:0:
256,192,20203,1,8,0:0:0:0:
256,192,20486,1,0,0:0:0:0:
256,192,20769,1,8,0:0:0:0:
256,192,21052,1,12,0:0:0:0:
256,192,21618,5,0,0:0:0:0:
256,192,22184,1,4,0:0:0:0:
256,192,23033,1,0,0:0:0:0:
256,192,23316,1,0,0:0:0:0:
256,192,23599,1,8,0:0:0:0:
256,192,23882,1,0,0:0:0:0:
256,192,24165,1,8,0:0:0:0:
256,192,24448,1,0,0:0:0:0:
256,192,24731,1,8,0:0:0:0:
256,192,25014,1,0,0:0:0:0:
256,192,25156,1,0,0:0:0:0:
256,192,25297,1,0,0:0:0:0:
256,192,25580,1,12,0:0:0:0:
256,192,26146,5,0,0:0:0:0:
256,192,26712,1,4,0:0:0:0:
256,192,27561,1,0,0:0:0:0:
256,192,27703,1,0,0:0:0:0:
256,192,27844,1,0,0:0:0:0:
256,192,28127,1,8,0:0:0:0:
256,192,28410,1,0,0:0:0:0:
256,192,28693,1,8,0:0:0:0:
256,192,28976,1,0,0:0:0:0:
256,192,29259,1,8,0:0:0:0:
256,192,29401,1,0,0:0:0:0:
256,192,29542,1,0,0:0:0:0:
256,192,29825,1,8,0:0:0:0:
256,192,30108,1,12,0:0:0:0:
256,192,30675,6,0,L|96:192,1,140
256,192,32373,1,12,0:0:0:0:
256,192,32939,2,0,L|416:192,1,140
256,192,34637,5,12,0:0:0:0:
256,192,35061,1,4,0:0:0:0:
256,192,35486,1,12,0:0:0:0:
256,192,36052,1,0,0:0:0:0:
256,192,36335,1,0,0:0:0:0:
256,192,36618,1,8,0:0:0:0:
256,192,36901,1,0,0:0:0:0:
256,192,37184,1,0,0:0:0:0:
256,192,37467,1,8,0:0:0:0:
256,192,37750,1,0,0:0:0:0:
256,192,38033,1,0,0:0:0:0:
256,192,38316,1,8,0:0:0:0:
256,192,38599,1,0,0:0:0:0:
256,192,38882,1,8,0:0:0:0:
256,192,39165,5,12,0:0:0:0:
256,192,39590,1,12,0:0:0:0:
256,192,40014,1,12,0:0:0:0:
256,192,40580,1,0,0:0:0:0:
256,192,40863,1,0,0:0:0:0:
256,192,41146,1,0,0:0:0:0:
256,192,41429,1,8,0:0:0:0:
256,192,41712,1,0,0:0:0:0:
256,192,41995,1,0,0:0:0:0:
256,192,42278,1,8,0:0:0:0:
256,192,42561,1,0,0:0:0:0:
256,192,42844,1,0,0:0:0:0:
256,192,43127,1,8,0:0:0:0:
256,192,43410,1,0,0:0:0:0:
256,192,43693,5,4,0:0:0:0:
256,192,44118,1,4,0:0:0:0:
256,192,44542,1,4,0:0:0:0:
256,192,45108,1,0,0:0:0:0:
256,192,45391,1,8,0:0:0:0:
256,192,45675,1,0,0:0:0:0:
256,192,45958,1,0,0:0:0:0:
256,192,46241,1,8,0:0:0:0:
256,192,46382,1,0,0:0:0:0:
256,192,46524,1,0,0:0:0:0:
256,192,46807,1,0,0:0:0:0:
256,192,47090,1,8,0:0:0:0:
256,192,47373,1,0,0:0:0:0:
256,192,47656,1,0,0:0:0:0:
256,192,47939,1,8,0:0:0:0:
256,192,48222,2,4,B|64:192|64:192|256:64,1,420
256,192,50486,5,12,0:0:0:0:
256,192,51618,1,12,0:0:0:0:
256,192,52184,1,12,0:0:0:0:
256,192,52750,5,12,0:0:0:0:
256,192,53175,1,8,0:0:0:0:
256,192,53599,1,8,0:0:0:0:
256,192,53882,1,0,0:0:0:0:
256,192,54307,1,8,0:0:0:0:
256,192,54731,1,8,0:0:0:0:
256,192,55014,1,0,0:0:0:0:
256,192,55439,1,8,0:0:0:0:
256,192,55722,1,8,0:0:0:0:
256,192,56005,1,0,0:0:0:0:
256,192,56429,1,0,0:0:0:0:
256,192,56712,1,8,0:0:0:0:
256,192,56995,1,0,0:0:0:0:
256,192,57278,5,8,0:0:0:0:
256,192,57703,1,8,0:0:0:0:
256,192,58127,1,0,0:0:0:0:
256,192,58269,1,0,0:0:0:0:
256,192,58410,1,8,0:0:0:0:
256,192,58835,1,8,0:0:0:0:
256,192,59259,5,0,0:0:0:0:
256,192,59401,1,0,0:0:0:0:
256,192,59542,1,0,0:0:0:0:
256,192,59825,1,8,0:0:0:0:
256,192,60108,1,0,0:0:0:0:
256,192,60391,1,8,0:0:0:0:
256,192,60675,1,0,0:0:0:0:
256,192,60958,1,8,0:0:0:0:
256,192,61241,1,8,0:0:0:0:
256,192,61382,1,8,0:0:0:0:
256,192,61524,1,8,0:0:0:0:
256,192,61665,1,8,0:0:0:0:
256,192,61807,5,12,0:0:0:0:
256,192,62231,1,8,0:0:0:0:
256,192,62373,1,0,0:0:0:0:
256,192,62656,1,0,0:0:0:0:
256,192,62939,1,8,0:0:0:0:
256,192,63363,1,8,0:0:0:0:
256,192,63788,1,0,0:0:0:0:
256,192,64071,1,8,0:0:0:0:
256,192,64495,1,8,0:0:0:0:
256,192,64920,5,0,0:0:0:0:
256,192,65344,1,0,0:0:0:0:
256,192,65485,1,0,0:0:0:0:
256,192,65768,1,0,0:0:0:0:
256,192,65910,1,0,0:0:0:0:
256,192,66193,1,4,0:0:0:0:
256,192,66335,12,0,67184,0:0:0:0:
256,192,67750,5,8,0:0:0:0:
256,192,68033,1,8,0:0:0:0:
256,192,68316,1,0,0:0:0:0:
256,192,68599,1,8,0:0:0:0:
256,192,68882,1,8,0:0:0:0:
256,192,69165,1,8,0:0:0:0:
256,192,69448,1,0,0:0:0:0:
256,192,69731,1,0,0:0:0:0:
256,192,70297,1,8,0:0:0:0:
256,192,70722,1,0,0:0:0:0:
256,192,70863,12,0,72561,0:0:0:0:
256,192,76524,5,12,0:0:0:0:
256,192,76807,1,4,0:0:0:0:
256,192,77090,1,12,0:0:0:0:
256,192,77373,1,4,0:0:0:0:
256,192,77656,5,12,0:0:0:0:
256,192,78080,1,12,0:0:0:0:
256,192,78505,1,4,0:0:0:0:
256,192,78788,1,12,0:0:0:0:
256,192,79212,1,12,0:0:0:0:
256,192,79637,1,4,0:0:0:0:
256,192,79920,1,12,0:0:0:0:
256,192,80344,1,12,0:0:0:0:
256,192,80769,5,0,0:0:0:0:
256,192,81052,1,8,0:0:0:0:
256,192,81335,1,0,0:0:0:0:
256,192,81476,1,0,0:0:0:0:
256,192,81759,1,8,0:0:0:0:
256,192,82042,1,0,0:0:0:0:
256,192,82750,6,0,L|96:192,1,140
256,192,83882,1,12,0:0:0:0:
256,192,84448,12,0,86571,0:0:0:0:
256,192,86712,5,12,0:0:0:0:
