osu file format v12

[General]
AudioFilename: Snow Fairy.mp3
AudioLeadIn: 0
PreviewTime: 52750
Countdown: 0
SampleSet: Normal
StackLeniency: 0.7
Mode: 0
LetterboxInBreaks: 1
WidescreenStoryboard: 1

[Editor]
DistanceSpacing: 1
BeatDivisor: 4
GridSize: 16

[Metadata]
Title:Snow Fairy (TV Size)
TitleUnicode:Snow Fairy (TV Size)
Artist:FUNKIST
ArtistUnicode:FUNKIST
Creator:Swayzo
Version:S Class (Hard)
Source:Fairy Tail
Tags:Snow Fairy Tail Funkist Intro Title
BeatmapID:268362
BeatmapSetID:101236

[Difficulty]
HPDrainRate:7
CircleSize:4
OverallDifficulty:4
ApproachRate:7
SliderMultiplier:2
SliderTickRate:1

[Events]
//Background and Video events
0,0,"fairytailbg.jpg",0,0
Video,-1564,"Fairy Tail Opening.flv"
//Break Periods
2,9931,16190
//Storyboard Layer 0 (Background)
//Storyboard Layer 1 (Fail)
//Storyboard Layer 2 (Pass)
//Storyboard Layer 3 (Foreground)
//Storyboard Sound Samples
//Background Colour Transformations
3,100,163,162,255

[TimingPoints]
675,566.037735849057,4,1,0,100,1,0
39165,-66.6666666666667,4,1,0,100,0,0
40580,-100,4,1,0,100,0,0
43693,-66.6666666666667,4,1,0,100,0,0
45108,-100,4,1,0,100,0,0
52750,-66.6666666666667,4,1,0,100,0,1
67184,-100,4,1,0,100,0,0
76524,-100,4,1,0,100,0,0

[Colours]
Combo1 : 0,0,255
Combo2 : 255,0,0
Combo3 : 255,128,64
Combo4 : 0,255,255

[HitObjects]
128,144,675,2,0,P|208:112|288:112,2,150
272,112,1807,2,0,L|272:304,1,150
160,192,2656,1,0,0:0:0:0:
160,96,2939,2,0,B|192:96|192:96|208:96|256:160|272:160|272:160|304:160,1,150
256,304,3788,2,0,P|384:240|416:208,2,150
256,192,5061,12,4,6052,0:0:0:0:
160,144,6618,6,0,L|288:128,2,100
240,272,7467,2,0,L|112:288,2,100
112,192,8316,2,0,P|176:160|224:160,1,100
384,80,9165,6,0,L|384:304,1,200,2|6,0:0|0:0,0:0:0:0:
96,192,17090,54,2,P|160:112|272:96,1,200
368,256,18505,1,0,0:0:0:0:
352,240,18646,1,0,0:0:0:0:
336,224,18788,2,0,P|288:192|208:192,1,100
176,256,19354,2,0,P|128:288|64:288,1,100
80,144,19920,2,0,P|112:96|176:64,2,100
224,192,20769,1,0,0:0:0:0:
400,96,21618,6,2,P|427:194|374:294,1,200
192,288,23033,2,0,P|144:240|128:192,1,100
224,192,23599,2,0,P|272:144|288:96,2,100
320,192,24448,2,0,P|352:240|416:256,1,100
272,304,25014,1,0,0:0:0:0:
256,304,25156,1,0,0:0:0:0:
240,304,25297,1,0,0:0:0:0:
112,80,26146,6,2,P|84:178|137:278,1,200
288,144,27561,1,0,0:0:0:0:
304,160,27703,1,0,0:0:0:0:
320,176,27844,2,0,P|336:208|320:272,1,100
224,240,28410,2,0,P|160:192|112:208,1,100
256,96,28976,1,0,0:0:0:0:
368,192,29259,1,0,0:0:0:0:
384,208,29401,1,0,0:0:0:0:
400,224,29542,1,0,0:0:0:0:
256,224,29825,1,0,0:0:0:0:
160,304,30675,6,2,P|96:256|48:128,1,200
336,192,32090,1,4,0:0:0:0:
176,192,32373,1,4,0:0:0:0:
352,304,32939,2,2,P|416:256|464:128,1,200
256,224,34637,6,0,P|176:304|112:304,2,150,0|0|4,0:0|0:0|0:0,0:0:0:0:
112,80,36052,6,0,B|164:64|164:64|224:64,2,100
256,128,36901,2,0,B|272:180|272:180|272:240,2,100
352,240,37750,2,0,B|404:256|404:256|464:256,2,100
256,128,38599,1,0,0:0:0:0:
400,128,38882,1,0,0:0:0:0:
256,304,39165,6,0,B|368:256|368:256|432:112,2,225.000008583069,0|0|4,0:0|0:0|0:0,0:0:0:0:
144,144,40580,6,0,B|192:112|192:112|240:112,1,100
336,144,41146,1,0,0:0:0:0:
256,272,41429,2,0,B|244:224|244:224|192:176,2,100
336,144,42278,2,0,B|352:196|352:196|336:240,2,100
256,272,43127,2,0,B|212:296|212:296|144:288,1,100
96,64,43693,6,0,B|208:64|208:64|320:144,2,225.000008583069,0|0|4,0:0|0:0|0:0,0:0:0:0:
256,320,45108,5,0,0:0:0:0:
128,240,45391,2,0,B|96:192|96:192|96:144,1,100
192,192,45958,1,0,0:0:0:0:
336,224,46241,1,0,0:0:0:0:
336,208,46382,1,0,0:0:0:0:
336,192,46524,2,0,P|296:152|224:144,2,100
192,192,47373,1,0,0:0:0:0:
368,192,47656,1,0,0:0:0:0:
160,192,47939,1,0,0:0:0:0:
256,192,48222,12,0,49354,0:0:0:0:
367,192,49637,1,0,0:0:0:0:
311,288,49920,1,0,0:0:0:0:
199,288,50203,1,0,0:0:0:0:
143,191,50486,1,4,0:0:0:0:
199,93,50769,1,0,0:0:0:0:
311,93,51052,1,0,0:0:0:0:
367,192,51335,1,0,0:0:0:0:
309,192,51476,1,0,0:0:0:0:
256,192,51618,1,4,0:0:0:0:
311,288,51901,1,0,0:0:0:0:
256,192,52184,1,4,0:0:0:0:
199,288,52467,1,0,0:0:0:0:
80,112,52750,6,0,P|224:80|368:80,1,225.000008583069,4|0,0:0|0:0,0:0:0:0:
400,144,53599,1,0,0:0:0:0:
336,192,53882,2,0,B|272:256|256:256|256:256|240:256|240:256|224:256|144:336,2,225.000008583069
320,112,55014,2,0,P|176:80|32:80,2,225.000008583069
448,192,56429,1,0,0:0:0:0:
384,240,56712,1,0,0:0:0:0:
320,288,56995,1,0,0:0:0:0:
256,320,57278,6,4,P|128:256|96:160,1,225.000008583069,4|0,0:0|0:0,0:0:0:0:
192,128,58127,1,0,0:0:0:0:
224,144,58269,1,0,0:0:0:0:
256,160,58410,2,0,P|384:144|464:64,2,225.000008583069
256,240,59542,5,0,0:0:0:0:
256,160,59825,1,0,0:0:0:0:
128,240,60108,2,0,P|208:304|352:320,2,225.000008583069
352,256,61241,2,0,L|352:176,2,75.0000028610231
256,256,61807,6,0,P|96:208|80:144,1,225.000008583069
64,128,62373,2,0,B|128:128|128:128|144:128|192:80|208:64|208:64|224:48,1,150.000005722046
336,48,62939,2,0,L|336:304,2,225.000008583069
272,96,64071,2,0,L|272:352,1,225.000008583069
224,288,64920,6,0,B|192:224|192:224|32:176,2,225.000008583069
256,192,66193,12,4,67184,0:0:0:0:
144,128,67750,6,0,B|192:128|192:128|240:80,1,100
332,84,68316,1,0,0:0:0:0:
400,224,68599,2,0,B|384:272|384:272|320:304,2,100
304,192,69448,1,0,0:0:0:0:
208,192,69731,1,0,0:0:0:0:
256,96,70297,1,0,0:0:0:0:
256,192,70863,12,4,72561,0:0:0:0:
96,96,73693,5,4,0:0:0:0:
416,96,74825,5,4,0:0:0:0:
160,192,76524,5,4,0:0:0:0:
256,144,76807,5,0,0:0:0:0:
256,240,77090,5,4,0:0:0:0:
352,192,77373,5,0,0:0:0:0:
304,96,77656,6,0,P|256:64|160:48,1,150,4|0,0:0|0:0,0:0:0:0:
112,96,78505,1,0,0:0:0:0:
192,144,78788,2,0,P|160:240|112:288,1,150
208,304,79637,1,0,0:0:0:0:
288,240,79920,2,0,P|304:144|336:96,1,150
448,192,80769,5,0,0:0:0:0:
336,288,81052,1,0,0:0:0:0:
192,224,81335,1,0,0:0:0:0:
176,208,81476,1,0,0:0:0:0:
304,288,81759,1,0,0:0:0:0:
160,288,82042,1,0,0:0:0:0:
336,112,82750,6,0,P|288:160|224:160,1,100
80,80,83316,5,4,0:0:0:0:
432,80,83882,5,4,0:0:0:0:
256,192,84448,12,4,86712,0:0:0:0:
