osu file format v12

[General]
AudioFilename: Snow Fairy.mp3
AudioLeadIn: 0
PreviewTime: 52750
Countdown: 0
SampleSet: Normal
StackLeniency: 0.7
Mode: 0
LetterboxInBreaks: 1
WidescreenStoryboard: 0

[Editor]
DistanceSpacing: 1.5
BeatDivisor: 4
GridSize: 16

[Metadata]
Title:Snow Fairy (TV Size)
TitleUnicode:Snow Fairy (TV Size)
Artist:FUNKIST
ArtistUnicode:FUNKIST
Creator:Swayzo
Version:Recruit (Easy)
Source:Fairy Tail
Tags:Snow Fairy Tail Funkist Intro Title
BeatmapID:268361
BeatmapSetID:101236

[Difficulty]
HPDrainRate:0
CircleSize:2
OverallDifficulty:2
ApproachRate:4
SliderMultiplier:1.2
SliderTickRate:1

[Events]
//Background and Video events
0,0,"fairytailbg.jpg",0,0
Video,-1564,"Fairy Tail Opening.flv"
//Break Periods
2,9931,15770
//Storyboard Layer 0 (Background)
//Storyboard Layer 1 (Fail)
//Storyboard Layer 2 (Pass)
//Storyboard Layer 3 (Foreground)
//Storyboard Sound Samples
//Background Colour Transformations
3,100,163,162,255

[TimingPoints]
675,566.037735849057,4,1,0,100,1,0
52750,-66.6666666666667,4,1,0,100,0,1
67184,-66.6666666666667,4,1,0,100,0,0
76524,-100,4,1,0,100,0,0

[Colours]
Combo1 : 0,0,255
Combo2 : 255,0,0
Combo3 : 255,128,64
Combo4 : 0,255,255

[HitObjects]
192,192,675,2,0,L|272:80,2,120
192,288,2231,1,0,0:0:0:0:
192,144,2939,2,0,P|256:96|288:96,1,90
256,192,3788,2,0,L|336:192,3,60
256,192,4920,12,0,6052,0:0:0:0:
384,192,6618,6,0,L|272:144,1,120
256,208,7467,2,0,L|128:208,1,120
144,144,8316,2,0,L|256:96,1,120
256,160,9165,2,0,L|256:288,1,120
64,192,17090,6,0,P|112:128|160:128,1,120
144,192,18505,1,0,0:0:0:0:
144,112,18788,2,0,B|176:112|176:112|224:112|256:208|304:208|304:208|352:208,1,240,2|2,0:0|0:0,0:0:0:0:
352,80,20486,1,2,0:0:0:0:
416,80,21052,1,6,0:0:0:0:
64,192,21618,6,0,P|112:256|160:256,1,120
144,192,23033,1,0,0:0:0:0:
144,256,23316,2,0,B|192:256|192:256|224:256|224:112|256:112|256:112|288:112,1,240,2|2,0:0|0:0,0:0:0:0:
288,224,25014,1,2,0:0:0:0:
352,224,25580,1,6,0:0:0:0:
64,192,26146,6,0,P|112:128|160:128,1,120
144,192,27561,1,0,0:0:0:0:
144,128,27844,2,0,B|224:96|224:96|272:96,2,120,2|0|2,0:0|0:0|0:0,0:0:0:0:
144,192,29259,2,0,L|144:272,2,60,0|2|0,0:0|0:0|0:0,0:0:0:0:
208,192,30108,1,6,0:0:0:0:
304,256,30675,6,0,B|304:208|304:208|304:176|352:160,1,120
256,48,32373,1,4,0:0:0:0:
208,256,32939,2,0,B|208:208|208:208|208:176|160:160,1,120
48,64,36052,6,0,L|176:80,1,120
272,128,36901,2,0,L|144:144,1,120
64,192,37750,2,0,L|192:208,2,120
160,128,39165,2,0,B|224:112|224:112|240:80,2,90
464,64,40580,6,0,L|336:80,1,120
240,128,41429,2,0,L|368:144,1,120
448,192,42278,2,0,L|320:208,2,120
352,128,43693,2,0,B|288:112|288:112|272:80,2,90
288,320,45108,6,0,L|304:192,1,120
176,208,45958,2,0,L|160:80,1,120
288,96,46807,2,0,B|352:80|352:80|384:80,2,90
288,160,47939,1,0,0:0:0:0:
256,192,48222,12,0,49920,0:0:0:0:
144,192,50486,5,4,0:0:0:0:
384,192,51618,5,4,0:0:0:0:
256,192,52184,1,4,0:0:0:0:
176,96,52750,6,0,L|320:64,2,135.000005149841
256,144,53882,2,0,L|416:192,2,135.000005149841
304,224,55014,2,0,L|416:320,4,135.000005149841
256,144,56995,1,0,0:0:0:0:
208,224,57278,6,0,L|128:352,2,135.000005149841
304,224,58410,2,0,L|384:352,2,135.000005149841
160,192,59542,6,0,L|288:192,5,90.0000034332277
256,112,61524,1,0,0:0:0:0:
112,224,61807,6,0,L|256:224,1,135.000005149841
288,304,62373,2,0,L|160:304,1,90.0000034332277
112,224,62939,2,0,P|192:160|256:160,2,135.000005149841
256,96,64071,2,0,L|256:240,1,135.000005149841
176,336,64920,6,0,L|176:192,1,135.000005149841
144,160,65486,2,0,L|256:160,1,90.0000034332277
320,192,65910,2,0,L|320:64,1,90.0000034332277
256,272,67184,5,4,0:0:0:0:
416,192,67750,6,0,B|368:160|368:160|304:160,1,90.0000034332277
240,160,68316,2,0,L|240:64,2,90.0000034332277
240,256,69165,2,0,L|240:352,2,90.0000034332277
312,96,70297,1,0,0:0:0:0:
256,192,70863,12,2,72561,0:0:0:0:
112,192,73693,5,2,0:0:0:0:
400,192,74825,1,2,0:0:0:0:
192,192,76524,5,0,0:0:0:0:
192,192,76807,1,0,0:0:0:0:
320,192,77090,5,0,0:0:0:0:
320,192,77373,1,0,0:0:0:0:
128,112,77656,6,0,P|176:80|224:80,2,90
128,208,78788,2,0,P|160:240|176:288,2,90
208,160,79920,2,0,L|320:160,1,90
448,80,80769,6,0,L|368:80,3,60
448,176,82184,1,0,0:0:0:0:
304,272,82750,6,0,L|192:208,1,120,0|4,0:0|0:0,0:0:0:0:
352,128,83882,5,4,0:0:0:0:
256,192,84448,12,4,86712,0:0:0:0:
