osu file format v12

[General]
AudioFilename: Snow Fairy.mp3
AudioLeadIn: 0
PreviewTime: 52750
Countdown: 0
SampleSet: Normal
StackLeniency: 0.7
Mode: 0
LetterboxInBreaks: 1
WidescreenStoryboard: 1

[Editor]
DistanceSpacing: 1
BeatDivisor: 4
GridSize: 16

[Metadata]
Title:Snow Fairy (TV Size)
TitleUnicode:Snow Fairy (TV Size)
Artist:FUNKIST
ArtistUnicode:FUNKIST
Creator:Swayzo
Version:Guild Master (Insane)
Source:Fairy Tail
Tags:Snow Fairy Tail Funkist Intro Title
BeatmapID:268359
BeatmapSetID:101236

[Difficulty]
HPDrainRate:7
CircleSize:4
OverallDifficulty:5
ApproachRate:8
SliderMultiplier:2.4
SliderTickRate:1

[Events]
//Background and Video events
0,0,"fairytailbg.jpg",0,0
Video,-1564,"Fairy Tail Opening.flv"
//Break Periods
2,9931,16340
//Storyboard Layer 0 (Background)
//Storyboard Layer 1 (Fail)
//Storyboard Layer 2 (Pass)
//Storyboard Layer 3 (Foreground)
//Storyboard Sound Samples
//Background Colour Transformations
3,100,163,162,255

[TimingPoints]
675,566.037735849057,4,1,0,100,1,0
9165,-200,4,1,0,100,0,0
9731,-100,4,1,0,100,0,0
39165,-66.6666666666667,4,1,0,100,0,0
40580,-100,4,1,0,100,0,0
43693,-66.6666666666667,4,1,0,100,0,0
45108,-100,4,1,0,100,0,0
48222,-200,4,1,0,50,0,0
48929,-200,4,1,0,75,0,0
49637,-100,4,1,0,100,0,0
52750,-66.6666666666667,4,1,0,100,0,1
67184,-100,4,1,0,100,0,0
76524,-100,4,1,0,100,0,0

[Colours]
Combo1 : 0,0,255
Combo2 : 255,0,0
Combo3 : 255,128,64
Combo4 : 0,255,255

[HitObjects]
384,80,675,2,0,B|360:80|344:64|344:64|256:120|192:120,1,180
136,144,1241,2,0,L|136:272,1,120
312,304,1807,2,0,B|333:297|354:299|354:299|406:208|462:178,1,180
168,184,2656,1,0,0:0:0:0:
48,320,2939,2,0,B|64:272|96:240|96:240|48:208|40:128,1,180
256,192,3788,6,0,L|64:272,1,180
176,288,4354,2,0,L|352:320,1,120
295,309,4778,1,0,0:0:0:0:
256,192,5061,12,4,6052,0:0:0:0:
96,96,6618,6,0,P|192:80|224:80,1,120
128,160,7184,1,0,0:0:0:0:
288,224,7467,2,0,P|208:272|144:272,1,120
304,304,8033,1,0,0:0:0:0:
352,128,8316,2,0,P|272:128|224:144,1,120
112,128,9165,6,0,L|112:272,1,120,0|4,0:0|0:0,0:0:0:0:
64,192,17090,38,0,P|146:118|272:96,1,240
384,240,18505,1,0,0:0:0:0:
368,224,18646,1,0,0:0:0:0:
352,208,18788,2,0,P|288:176|192:192,1,120
80,240,19354,2,0,P|144:272|240:256,1,120
256,112,19920,1,0,0:0:0:0:
256,112,20203,1,0,0:0:0:0:
432,240,20486,2,0,P|368:272|272:256,1,120
256,112,21052,1,4,0:0:0:0:
448,192,21618,6,0,P|366:265|240:287,1,240
96,96,23033,2,0,P|160:64|224:64,1,120
336,192,23599,2,0,P|300:253|246:288,1,120
256,160,24165,1,0,0:0:0:0:
160,320,24448,2,0,P|105:273|80:214,1,120
256,192,25014,1,0,0:0:0:0:
264,184,25156,1,0,0:0:0:0:
272,176,25297,1,0,0:0:0:0:
256,288,25580,1,4,0:0:0:0:
48,192,26146,6,0,P|129:265|255:287,1,240
464,160,27561,1,0,0:0:0:0:
448,144,27703,1,0,0:0:0:0:
432,128,27844,2,0,P|352:80|272:96,1,120
192,192,28410,2,0,P|161:280|90:319,1,120
80,192,28976,1,0,0:0:0:0:
240,80,29259,1,0,0:0:0:0:
248,72,29401,1,0,0:0:0:0:
256,64,29542,1,0,0:0:0:0:
256,176,29825,1,0,0:0:0:0:
288,256,30675,6,0,P|416:192|432:80,1,240
144,192,32090,1,4,0:0:0:0:
368,192,32373,1,4,0:0:0:0:
256,256,32939,2,0,P|128:192|112:80,1,240
240,192,34071,5,0,0:0:0:0:
240,176,34212,1,0,0:0:0:0:
240,160,34354,1,0,0:0:0:0:
240,144,34495,1,0,0:0:0:0:
240,128,34637,2,0,P|144:80|64:80,2,180,0|0|4,0:0|0:0|0:0,0:0:0:0:
480,112,36052,6,0,B|432:80|432:80|336:80,1,120
432,176,36618,1,0,0:0:0:0:
256,192,36901,2,0,B|200:208|200:208|138:281,1,120
160,144,37467,1,0,0:0:0:0:
336,80,37750,2,0,B|288:112|288:112|192:112,1,120
336,176,38316,1,0,0:0:0:0:
192,272,38599,2,0,B|144:240|144:240|48:240,1,120
256,32,39165,6,0,P|400:128|416:272,2,270.000010299683,0|0|4,0:0|0:0|0:0,0:0:0:0:
256,224,40580,6,0,B|208:256|208:256|112:256,1,120
256,320,41146,1,0,0:0:0:0:
368,192,41429,2,0,B|338:142|338:142|252:100,1,120
410,105,41995,1,0,0:0:0:0:
224,80,42278,2,0,B|169:100|169:100|113:177,1,120
256,160,42844,1,0,0:0:0:0:
192,320,43127,2,0,B|137:299|137:299|81:222,1,120
288,320,43693,6,0,P|416:224|464:128,2,270.000010299683,0|0|4,0:0|0:0|0:0,0:0:0:0:
256,80,45108,6,0,B|201:100|201:100|145:177,1,120
176,32,45675,1,0,0:0:0:0:
144,208,45958,2,0,B|89:187|89:187|33:110,1,120
64,128,46382,1,0,0:0:0:0:
72,120,46524,1,0,0:0:0:0:
256,272,46807,1,0,0:0:0:0:
96,192,47090,1,0,0:0:0:0:
288,288,47373,1,0,0:0:0:0:
96,192,47656,1,0,0:0:0:0:
288,96,47939,1,0,0:0:0:0:
178,135,48222,5,0,0:0:0:0:
185,106,48363,1,0,0:0:0:0:
203,82,48505,1,0,0:0:0:0:
228,66,48646,1,0,0:0:0:0:
257,61,48788,1,0,0:0:0:0:
286,66,48929,1,0,0:0:0:0:
311,83,49071,1,0,0:0:0:0:
328,107,49212,1,0,0:0:0:0:
336,136,49354,1,0,0:0:0:0:
352,192,49637,5,0,0:0:0:0:
164,162,49920,1,0,0:0:0:0:
333,248,50203,1,0,0:0:0:0:
199,114,50486,1,4,0:0:0:0:
285,283,50769,1,0,0:0:0:0:
256,95,51052,1,0,0:0:0:0:
226,283,51335,1,0,0:0:0:0:
268,196,51476,1,0,0:0:0:0:
312,114,51618,1,4,0:0:0:0:
178,248,51901,1,0,0:0:0:0:
347,162,52184,1,4,0:0:0:0:
159,191,52467,1,0,0:0:0:0:
128,240,52750,6,0,P|240:112|352:112,1,270.000010299683,4|0,0:0|0:0,0:0:0:0:
416,208,53599,1,0,0:0:0:0:
352,272,53882,2,0,P|208:320|80:288,1,270.000010299683
208,224,54731,1,0,0:0:0:0:
384,208,55014,2,0,P|288:112|144:80,1,270.000010299683
144,160,55722,5,0,0:0:0:0:
208,224,56005,1,0,0:0:0:0:
320,160,56429,2,0,P|240:112|128:96,2,180.000006866455
432,272,57278,6,0,P|240:320|128:288,1,270.000010299683,4|0,0:0|0:0,0:0:0:0:
128,176,58127,1,0,0:0:0:0:
144,144,58269,1,0,0:0:0:0:
160,112,58410,2,0,P|256:64|416:160,1,270.000010299683
160,272,59259,5,0,0:0:0:0:
128,240,59401,1,0,0:0:0:0:
96,208,59542,1,0,0:0:0:0:
272,192,59825,2,0,L|80:160,1,180.000006866455
94,162,60250,2,0,L|272:128,1,180.000006866455
272,128,60675,2,0,L|80:95,1,180.000006866455
272,64,61241,1,0,0:0:0:0:
288,64,61382,1,0,0:0:0:0:
304,64,61524,1,0,0:0:0:0:
320,64,61665,1,0,0:0:0:0:
336,64,61807,6,0,P|304:176|160:240,1,270.000010299683,4|0,0:0|0:0,0:0:0:0:
304,288,62373,2,0,P|160:320|96:304,1,180.000006866455
48,160,62939,2,0,P|128:64|272:48,1,270.000010299683
80,240,63788,1,0,0:0:0:0:
352,224,64071,2,0,P|192:304|64:304,1,270.000010299683
288,112,64920,6,0,L|24:196,1,270.000010299683
32,192,65486,2,0,L|256:240,1,180.000006866455
208,232,65910,1,0,0:0:0:0:
256,192,66193,12,4,67184,0:0:0:0:
256,112,67750,6,0,B|311:132|311:132|367:209,1,120
336,64,68316,1,0,0:0:0:0:
192,176,68599,2,0,B|212:231|212:231|289:287,1,120
144,256,69165,1,0,0:0:0:0:
320,192,69448,1,0,0:0:0:0:
144,128,69731,2,0,P|240:48|304:32,2,180
256,192,70863,12,4,72561,0:0:0:0:
48,64,73693,5,4,0:0:0:0:
464,48,74825,5,4,0:0:0:0:
204,282,76524,5,4,0:0:0:0:
204,101,76807,5,0,0:0:0:0:
359,192,77090,5,4,0:0:0:0:
256,192,77373,5,0,0:0:0:0:
204,282,77656,6,0,P|144:192|144:112,1,180
204,280,78505,1,0,0:0:0:0:
224,96,78788,2,0,P|336:176|400:192,1,180
224,96,79637,1,0,0:0:0:0:
272,272,79920,2,0,P|160:224|96:224,1,180
272,272,80769,1,0,0:0:0:0:
256,96,81052,5,0,0:0:0:0:
96,192,81335,1,0,0:0:0:0:
96,192,81476,2,0,P|192:240|256:240,1,120
384,244,82042,1,0,0:0:0:0:
112,112,82750,6,0,P|176:192|240:208,1,120
64,64,83316,5,4,0:0:0:0:
448,64,83882,5,4,0:0:0:0:
256,192,84448,12,4,86712,0:0:0:0:
