osu file format v12

[General]
AudioFilename: i hope short ver.mp3
AudioLeadIn: 1985
PreviewTime: 41912
Countdown: 1
SampleSet: Soft
StackLeniency: 0.7
Mode: 0
LetterboxInBreaks: 1
StoryFireInFront: 0
EpilepsyWarning: 1
WidescreenStoryboard: 0

[Editor]
DistanceSpacing: 1.2
BeatDivisor: 4
GridSize: 4

[Metadata]
Title:I hope (Short Ver.)
TitleUnicode:바래
Artist:FTisland
ArtistUnicode:FTisland
Creator:da shu kong
Version:Shuhard
Source:
Tags:K-pop Korea Band
BeatmapID:259747
BeatmapSetID:76084

[Difficulty]
HPDrainRate:6
CircleSize:4
OverallDifficulty:5
ApproachRate:7
SliderMultiplier:1.6
SliderTickRate:2

[Events]
//Background and Video events
0,0,"520cd2c451da81cb613ec2b25266d01608243153.jpg",0,0
//Break Periods
//Storyboard Layer 0 (Background)
//Storyboard Layer 1 (Fail)
//Storyboard Layer 2 (Pass)
//Storyboard Layer 3 (Foreground)
//Storyboard Sound Samples
//Background Colour Transformations
3,100,163,162,255

[TimingPoints]
770,428.571428571429,4,1,1,50,1,0
12770,-100,4,1,1,100,0,0
15770,-100,4,1,1,45,0,0
28305,-100,4,2,0,45,0,0
29912,-100,4,1,1,45,0,0
41483,-100,4,2,1,30,0,0
41591,-100,4,2,1,50,0,0
41698,-100,4,2,1,70,0,0
41805,-100,4,2,1,90,0,0
41912,-100,4,2,1,100,0,0
43627,-100,4,1,1,80,0,1
71055,-100,4,2,1,100,0,0

[Colours]
Combo1 : 255,210,77
Combo2 : 68,255,68
Combo3 : 53,145,255
Combo4 : 255,128,255

[HitObjects]
120,40,770,1,0,0:0:0:0:
72,120,984,1,0,0:0:0:0:
128,200,1198,2,0,L|208:200,1,80
248,288,1627,2,0,L|168:288,1,80
184,120,2055,1,0,0:0:0:0:
248,288,2484,5,0,0:0:0:0:
328,232,2698,1,0,0:0:0:0:
376,152,2912,2,0,L|292:152,1,80
240,72,3341,2,0,L|280:72|320:72,1,80
376,152,3770,1,0,0:0:0:0:
440,40,4198,5,0,0:0:0:0:
432,136,4412,1,0,0:0:0:0:
424,184,4520,1,0,0:0:0:0:
392,224,4627,1,0,0:0:0:0:
288,296,4841,1,0,0:0:0:0:
184,248,5055,1,0,0:0:0:0:
328,136,5270,1,0,0:0:0:0:
224,88,5484,1,0,0:0:0:0:
256,192,5912,5,0,0:0:0:0:
448,112,6127,1,0,0:0:0:0:
415,80,6234,1,0,0:0:0:0:
384,48,6341,1,0,0:0:0:0:
288,144,6555,1,0,0:0:0:0:
264,184,6662,1,0,0:0:0:0:
240,224,6770,1,0,0:0:0:0:
344,96,6984,1,0,0:0:0:0:
240,224,7412,1,0,0:0:0:0:
96,176,7627,6,0,L|144:176|144:120,1,80
184,120,7948,1,0,0:0:0:0:
192,72,8055,2,0,P|232:56|280:40,1,80
344,96,8484,1,0,0:0:0:0:
288,176,8698,1,0,0:0:0:0:
344,96,8912,1,0,0:0:0:0:
160,32,9341,5,0,0:0:0:0:
64,160,9555,1,0,0:0:0:0:
192,144,9770,1,0,0:0:0:0:
96,264,9984,1,0,0:0:0:0:
128,192,10198,2,0,P|168:200|224:192,2,80
344,104,11055,5,8,0:0:0:0:
168,104,11270,1,8,0:0:0:0:
168,264,11484,1,8,0:0:0:0:
352,272,11698,1,8,0:0:0:0:
256,320,11912,5,8,0:0:0:0:
128,192,12127,1,8,0:0:0:0:
256,72,12341,1,8,0:0:0:0:
384,192,12555,1,8,0:0:0:0:
256,192,12770,12,0,15770,0:0:0:0:
40,48,16198,5,0,0:0:0:0:
120,96,16412,1,0,0:0:0:0:
208,144,16627,1,8,0:0:0:0:
288,192,16841,1,0,0:0:0:0:
148,240,17055,2,0,B|257:270|305:158,1,160,0|8,0:0|0:0,0:0:0:0:
312,168,17698,1,2,0:0:0:0:
416,40,17912,5,0,0:0:0:0:
472,152,18127,1,0,0:0:0:0:
472,256,18341,1,8,0:0:0:0:
416,352,18555,1,0,0:0:0:0:
296,232,18770,2,0,P|305:192|295:118,2,80,0|0|8,0:0|0:0|0:0,0:0:0:0:
296,232,19412,1,2,0:0:0:0:
96,40,19627,5,0,0:0:0:0:
96,248,19841,1,0,0:0:0:0:
72,176,20055,1,8,0:0:0:0:
104,112,20270,1,0,0:0:0:0:
55,225,20484,1,0,0:0:0:0:
136,64,20698,1,0,0:0:0:0:
208,176,20912,2,0,P|247:168|285:178,1,80,8|2,0:0|0:0,0:0:0:0:
472,40,21341,6,0,L|421:102,1,80
432,192,21770,2,0,L|384:192|336:192,1,80,8|0,0:0|0:0,0:0:0:0:
488,336,22198,2,0,L|419:289,1,80
256,240,22627,1,8,0:0:0:0:
256,80,22841,1,2,0:0:0:0:
70,152,23055,6,0,P|55:95|78:39,1,120
125,40,23484,1,8,0:0:0:0:
221,126,23698,1,0,0:0:0:0:
273,232,23912,2,0,L|353:232,2,80,0|0|8,0:0|0:0|0:0,0:0:0:0:
248,256,24555,1,2,0:0:0:0:
136,136,24770,6,0,P|80:128|24:100,1,120
48,56,25198,1,8,0:0:0:0:
104,136,25412,1,0,0:0:0:0:
160,56,25627,2,0,L|240:56,2,80,0|0|8,0:0|0:0|0:0,0:0:0:0:
160,56,26270,1,2,0:0:0:0:
384,32,26484,5,0,0:0:0:0:
304,120,26698,1,0,0:0:0:0:
392,208,26912,1,8,0:0:0:0:
328,312,27127,1,0,0:0:0:0:
384,120,27341,1,0,0:0:0:0:
304,216,27555,1,0,0:0:0:0:
203,180,27770,2,0,B|122:210|47:182,1,160,8|0,0:0|0:0,0:0:0:0:
144,280,28412,5,2,0:0:0:0:
160,256,28627,1,10,0:0:0:0:
96,144,28841,5,2,0:0:0:0:
84,165,29055,1,2,0:0:0:0:
200,80,29270,5,0,0:0:0:0:
214,60,29484,1,8,0:0:0:0:
227,45,29698,2,0,P|268:36|308:47,1,80,2|0,0:0|0:0,0:0:0:0:
400,56,30127,1,0,0:0:0:0:
384,152,30341,2,0,P|405:234|373:314,1,160,8|0,0:0|0:0,0:0:0:0:
222,335,30984,5,0,0:0:0:0:
136,272,31198,1,8,0:0:0:0:
168,176,31412,1,0,0:0:0:0:
248,240,31627,2,0,L|344:240,2,80,0|0|8,0:0|0:0|0:0,0:0:0:0:
248,240,32270,1,0,0:0:0:0:
496,344,32484,5,0,0:0:0:0:
496,232,32698,1,0,0:0:0:0:
392,184,32912,1,8,0:0:0:0:
400,296,33127,2,0,B|339:347|339:347|257:351,1,160
272,216,33770,2,0,P|312:208|338:181,1,80,8|0,0:0|0:0,0:0:0:0:
248,120,34198,2,0,P|208:128|182:155,1,80,0|0,0:0|0:0,0:0:0:0:
72,256,34627,2,0,B|168:344|168:344|207:220|207:220|296:216,1,320,8|8,0:0|0:0,0:0:0:0:
168,344,35912,5,0,0:0:0:0:
264,216,36127,1,0,0:0:0:0:
247,253,36341,1,8,0:0:0:0:
247,253,36555,2,0,L|167:269,1,80,0|0,0:0|0:0,0:0:0:0:
240,144,36984,2,0,L|200:136|160:128,1,80,0|8,0:0|0:0,0:0:0:0:
352,264,37412,2,0,L|392:280|432:296,1,80,0|0,0:0|0:0,0:0:0:0:
352,144,37841,2,0,L|440:120,1,80,0|8,0:0|0:0,0:0:0:0:
296,192,38270,6,0,P|336:187|363:215,1,80,0|0,0:0|0:0,0:0:0:0:
296,192,38698,2,0,P|256:197|229:169,1,80,0|8,0:0|0:0,0:0:0:0:
296,192,39127,1,0,0:0:0:0:
200,32,39555,1,0,0:0:0:0:
304,33,39984,2,0,B|200:33|200:33|200:105|200:105|304:129|304:129|200:161|200:161|200:273,1,480,0|0,0:0|0:0,0:0:0:0:
336,324,41484,1,8,0:0:0:0:
388,320,41591,1,0,0:0:0:0:
436,300,41698,1,8,0:0:0:0:
464,260,41805,1,0,0:0:0:0:
480,216,41912,1,4,0:0:0:0:
88,60,42341,6,0,L|156:112,1,80
88,324,42770,2,0,L|156:272,1,80
152,108,43198,1,0,0:0:0:0:
152,276,43412,1,0,0:0:0:0:
344,336,43627,6,0,P|381:347|423:335,1,80
392,256,44055,2,0,P|429:245|471:257,1,80,0|0,0:0|0:0,0:0:0:0:
504,144,44484,1,0,0:0:0:0:
392,168,44698,1,0,0:0:0:0:
464,256,44912,2,0,B|400:280|400:280|358:252|358:252|296:248,1,160,8|0,0:0|0:0,0:0:0:0:
288,256,45555,1,2,0:0:0:0:
160,160,45770,5,8,0:0:0:0:
48,160,45984,1,0,0:0:0:0:
48,40,46198,1,0,0:0:0:0:
160,40,46413,1,0,0:0:0:0:
314,34,46627,2,0,P|311:77|327:109,1,80,8|0,0:0|0:0,0:0:0:0:
456,32,47055,2,0,P|459:75|443:107,1,80,8|0,0:0|0:0,0:0:0:0:
424,216,47484,2,0,L|344:216,1,80,8|0,0:0|0:0,0:0:0:0:
224,256,47913,1,0,0:0:0:0:
120,216,48127,1,0,0:0:0:0:
116,102,48341,2,0,B|150:51|150:51|194:82|194:82|243:82,1,160,8|0,0:0|0:0,0:0:0:0:
264,64,48984,1,2,0:0:0:0:
256,208,49198,5,8,0:0:0:0:
280,224,49412,2,0,P|319:236|360:223,2,80
344,112,50055,1,8,0:0:0:0:
448,48,50270,1,0,0:0:0:0:
488,176,50484,2,0,L|488:260,1,80
416,344,50912,2,0,P|376:354|336:344,1,80,8|0,0:0|0:0,0:0:0:0:
280,276,51341,1,0,0:0:0:0:
185,260,51555,1,0,0:0:0:0:
97,299,51770,2,0,P|89:260|101:219,2,80,8|0|0,0:0|0:0|0:0,0:0:0:0:
184,344,52412,1,2,0:0:0:0:
288,319,52627,5,8,0:0:0:0:
371,271,52841,1,0,0:0:0:0:
288,222,53055,1,0,0:0:0:0:
372,175,53270,1,0,0:0:0:0:
287,221,53484,1,8,0:0:0:0:
285,119,53698,1,0,0:0:0:0:
216,72,53912,2,0,B|176:40|176:40|120:72,1,80
94,122,54341,2,0,B|136:152|136:152|160:136,1,80,8|0,0:0|0:0,0:0:0:0:
32,208,54770,1,0,0:0:0:0:
88,288,54984,1,0,0:0:0:0:
168,336,55198,2,0,L|280:336,1,80,8|0,0:0|0:0,0:0:0:0:
347,284,55627,5,8,0:0:0:0:
391,264,55734,1,0,0:0:0:0:
426,232,55841,1,0,0:0:0:0:
452,189,55948,1,0,0:0:0:0:
473,146,56055,1,8,0:0:0:0:
428,60,56270,1,0,0:0:0:0:
316,34,56484,5,8,0:0:0:0:
256,192,56805,1,0,0:0:0:0:
69,281,57341,6,0,P|59:244|77:202,1,80
156,256,57770,2,0,P|165:219|147:177,1,80,8|0,0:0|0:0,0:0:0:0:
72,208,58198,1,0,0:0:0:0:
112,304,58412,1,0,0:0:0:0:
208,305,58627,2,0,B|240:225|240:377|280:297|280:297|401:296,1,240,8|2,0:0|0:0,0:0:0:0:
457,161,59484,5,8,0:0:0:0:
412,76,59698,1,0,0:0:0:0:
320,47,59912,1,0,0:0:0:0:
320,47,60127,2,0,L|224:47,1,80,0|8,0:0|0:0,0:0:0:0:
104,56,60555,1,0,0:0:0:0:
104,56,60770,2,0,L|40:128,1,80
128,172,61199,2,0,L|184:260,1,80,8|0,0:0|0:0,0:0:0:0:
75,249,61628,1,0,0:0:0:0:
172,240,61842,1,0,0:0:0:0:
221,320,62055,2,0,B|253:400|253:248|293:328|293:328|427:326,1,240,8|2,0:0|0:0,0:0:0:0:
496,224,62912,5,8,0:0:0:0:
459,134,63127,1,0,0:0:0:0:
388,69,63341,1,0,0:0:0:0:
298,33,63555,1,0,0:0:0:0:
208,69,63770,2,0,B|112:157|264:173|144:221,1,160,8|0,0:0|0:0,0:0:0:0:
50,59,64627,1,10,0:0:0:0:
55,250,65055,5,0,0:0:0:0:
120,320,65270,1,0,0:0:0:0:
190,253,65484,2,0,B|254:181|302:325|350:221,1,160,8|0,0:0|0:0,0:0:0:0:
428,80,66341,1,10,0:0:0:0:
393,269,66770,5,0,0:0:0:0:
303,302,66984,1,0,0:0:0:0:
214,270,67198,1,8,0:0:0:0:
152,191,67412,1,0,0:0:0:0:
87,119,67627,2,0,L|199:119,1,80
224,41,68056,2,0,L|128:41,1,80,8|0,0:0|0:0,0:0:0:0:
88,119,68484,1,0,0:0:0:0:
151,191,68698,1,0,0:0:0:0:
240,119,68912,2,0,B|88:119|88:119|168:159|168:159|168:319,1,400,8|0,0:0|0:0,0:0:0:0:
280,332,70198,5,0,0:0:0:0:
315,313,70305,1,0,0:0:0:0:
344,286,70412,1,0,0:0:0:0:
366,253,70519,1,0,0:0:0:0:
381,216,70626,1,0,0:0:0:0:
394,178,70733,1,0,0:0:0:0:
409,140,70840,1,0,0:0:0:0:
430,107,70947,1,0,0:0:0:0:
459,80,71055,1,0,0:0:0:0:
