osu file format v12

[General]
AudioFilename: i hope short ver.mp3
AudioLeadIn: 1985
PreviewTime: 41912
Countdown: 1
SampleSet: Soft
StackLeniency: 0.7
Mode: 0
LetterboxInBreaks: 1
StoryFireInFront: 0
EpilepsyWarning: 1
WidescreenStoryboard: 0

[Editor]
DistanceSpacing: 1
BeatDivisor: 4
GridSize: 8

[Metadata]
Title:I hope (Short Ver.)
TitleUnicode:바래
Artist:FTisland
ArtistUnicode:FTisland
Creator:da shu kong
Version:Normal
Source:
Tags:K-pop Korea Band
BeatmapID:214612
BeatmapSetID:76084

[Difficulty]
HPDrainRate:3
CircleSize:3
OverallDifficulty:3
ApproachRate:5
SliderMultiplier:1
SliderTickRate:1

[Events]
//Background and Video events
0,0,"520cd2c451da81cb613ec2b25266d01608243153.jpg",0,0
//Break Periods
//Storyboard Layer 0 (Background)
//Storyboard Layer 1 (Fail)
//Storyboard Layer 2 (Pass)
//Storyboard Layer 3 (Foreground)
//Storyboard Sound Samples
//Background Colour Transformations
3,100,163,162,255

[TimingPoints]
770,428.571428571429,4,2,1,50,1,0
12770,-100,4,2,1,100,0,0
15770,-100,4,1,1,40,0,0
43627,-100,4,1,1,70,0,1
71055,-100,4,2,1,100,0,0

[Colours]
Combo1 : 255,206,60
Combo2 : 60,255,60
Combo3 : 81,159,255
Combo4 : 248,129,147

[HitObjects]
32,88,770,2,0,P|80:72|128:96,1,100,6|0,0:0|0:0,0:0:0:0:
220,265,2055,1,2,0:0:0:0:
293,333,2484,2,0,P|341:349|389:333,1,100,6|0,0:0|0:0,0:0:0:0:
280,165,3770,1,2,0:0:0:0:
342,87,4198,2,0,P|390:71|438:95,2,100,6|0|0,0:0|0:0|0:0,0:0:0:0:
254,135,5484,1,2,0:0:0:0:
110,126,5912,6,0,L|182:46,1,100,6|6,0:0|0:0,0:0:0:0:
277,50,6770,1,0,0:0:0:0:
376,54,7198,1,2,0:0:0:0:
368,176,7627,6,0,L|264:176,2,100,6|0|0,0:0|0:0|0:0,0:0:0:0:
448,112,8912,1,2,0:0:0:0:
360,64,9341,2,0,L|256:64,1,100,6|0,0:0|0:0,0:0:0:0:
192,120,10198,1,0,0:0:0:0:
192,120,10627,1,2,0:0:0:0:
96,192,11055,6,8,L|144:240,1,50
192,264,11484,2,8,L|256:264,1,50
304,264,11912,2,8,L|376:264,1,50
416,224,12341,2,8,L|464:168,1,50
256,192,12770,12,0,15770,0:0:0:0:
24,64,16198,5,0,0:0:0:0:
78,148,16627,1,8,0:0:0:0:
133,231,17055,2,0,P|184:247|236:228,1,100,0|8,0:0|0:0,0:0:0:0:
284,152,17912,5,0,0:0:0:0:
341,69,18341,1,8,0:0:0:0:
440,59,18769,2,0,L|440:163,1,100,0|8,0:0|0:0,0:0:0:0:
480,250,19627,1,0,0:0:0:0:
410,321,20055,1,8,0:0:0:0:
337,252,20484,1,0,0:0:0:0:
274,174,20912,1,8,0:0:0:0:
232,280,21341,6,0,B|216:344|216:344|160:352,1,100,0|8,0:0|0:0,0:0:0:0:
96,296,22198,1,0,0:0:0:0:
32,216,22627,1,8,0:0:0:0:
96,128,23055,1,0,0:0:0:0:
96,128,23484,1,8,0:0:0:0:
96,128,23912,2,0,L|200:128,1,100,0|8,0:0|0:0,0:0:0:0:
304,136,24770,5,0,0:0:0:0:
384,200,25198,1,8,0:0:0:0:
328,288,25627,2,0,L|208:288,1,100,0|8,0:0|0:0,0:0:0:0:
144,224,26484,2,0,L|88:224,2,50,0|0|8,0:0|0:0|0:0,0:0:0:0:
240,192,27341,1,0,0:0:0:0:
320,136,27770,1,8,0:0:0:0:
320,232,28198,5,0,0:0:0:0:
368,232,28412,1,0,0:0:0:0:
416,232,28627,1,8,0:0:0:0:
448,144,29055,2,0,L|448:40,1,100,0|8,0:0|0:0,0:0:0:0:
344,32,29912,5,0,0:0:0:0:
240,32,30341,1,8,0:0:0:0:
248,128,30770,2,0,P|296:104|336:136,1,100,0|8,0:0|0:0,0:0:0:0:
344,224,31627,5,0,0:0:0:0:
232,216,32055,1,8,0:0:0:0:
224,128,32484,2,0,P|200:80|144:64,1,100,0|8,0:0|0:0,0:0:0:0:
56,112,33341,6,0,L|56:224,1,100,0|8,0:0|0:0,0:0:0:0:
104,296,34198,1,0,0:0:0:0:
152,320,34412,1,0,0:0:0:0:
200,344,34627,1,8,0:0:0:0:
312,312,35055,5,0,0:0:0:0:
408,240,35484,1,8,0:0:0:0:
304,256,35912,1,0,0:0:0:0:
400,184,36341,1,8,0:0:0:0:
328,104,36770,6,0,B|328:48|328:48|272:24,1,100,0|8,0:0|0:0,0:0:0:0:
168,56,37627,1,0,0:0:0:0:
72,120,38055,1,8,0:0:0:0:
64,224,38484,2,0,B|64:272|64:272|128:280,1,100,0|8,0:0|0:0,0:0:0:0:
216,312,39341,1,0,0:0:0:0:
256,192,39770,1,8,0:0:0:0:
256,192,40198,12,4,41912,0:0:0:0:
40,64,42341,1,4,0:0:0:0:
104,136,42770,1,0,0:0:0:0:
176,64,43198,1,0,0:0:0:0:
288,232,43627,6,0,L|288:336,1,100,4|8,0:0|0:0,0:0:0:0:
192,264,44484,1,0,0:0:0:0:
184,168,44912,2,0,P|160:120|192:72,1,100,8|0,0:0|0:0,0:0:0:0:
272,56,45769,5,8,0:0:0:0:
336,56,45984,1,0,0:0:0:0:
400,56,46198,1,0,0:0:0:0:
400,152,46627,2,0,L|312:232,1,100,8|0,0:0|0:0,0:0:0:0:
248,288,47484,1,8,0:0:0:0:
184,216,47912,1,0,0:0:0:0:
184,128,48341,2,0,B|184:80|184:80|248:80,1,100,8|0,0:0|0:0,0:0:0:0:
336,88,49198,5,8,0:0:0:0:
368,136,49412,1,0,0:0:0:0:
400,184,49627,1,0,0:0:0:0:
328,256,50055,2,0,P|280:232|232:264,1,100,8|0,0:0|0:0,0:0:0:0:
176,320,50912,1,8,0:0:0:0:
112,240,51341,2,0,L|64:192,1,50
40,160,51770,1,8,0:0:0:0:
88,64,52198,2,0,L|192:64,1,100,0|8,0:0|0:0,0:0:0:0:
296,64,53055,6,0,L|368:64,4,50,0|0|8|0|0,0:0|0:0|0:0|0:0|0:0,0:0:0:0:
296,160,54341,1,8,0:0:0:0:
288,280,54770,2,0,B|232:248|232:248|184:280,1,100,0|8,0:0|0:0,0:0:0:0:
128,320,55627,1,0,0:0:0:0:
80,240,56055,1,8,0:0:0:0:
64,152,56484,1,0,0:0:0:0:
112,64,56912,1,8,0:0:0:0:
176,144,57341,6,0,L|200:88,1,50
280,112,57770,2,0,L|304:176,1,50,8|0,0:0|0:0,0:0:0:0:
384,160,58198,2,0,L|400:112,1,50
488,136,58627,2,0,L|512:184,2,50,8|0|0,0:0|0:0|0:0,0:0:0:0:
424,224,59484,5,8,0:0:0:0:
384,296,59912,1,0,0:0:0:0:
312,328,60341,1,8,0:0:0:0:
224,272,60770,2,0,L|168:232,1,50
144,192,61199,2,0,L|144:136,1,50,8|0,0:0|0:0,0:0:0:0:
176,88,61627,2,0,L|224:40,1,50
280,64,62056,2,0,L|344:96,2,50,8|0|0,0:0|0:0|0:0,0:0:0:0:
144,56,62912,5,8,0:0:0:0:
104,152,63341,1,0,0:0:0:0:
144,240,63770,1,8,0:0:0:0:
216,152,64198,2,0,P|240:112|296:80,1,100,0|8,0:0|0:0,0:0:0:0:
408,40,65055,5,0,0:0:0:0:
440,136,65484,1,8,0:0:0:0:
392,224,65912,2,0,P|352:256|304:216,1,100,0|8,0:0|0:0,0:0:0:0:
232,152,66770,1,0,0:0:0:0:
120,112,67198,1,8,0:0:0:0:
88,248,67627,2,0,L|128:280,1,50
208,248,68055,2,0,L|240:192,1,50,8|0,0:0|0:0,0:0:0:0:
320,176,68484,2,0,L|368:208,1,50
448,176,68912,2,0,L|480:120,2,50,8|0|0,0:0|0:0|0:0,0:0:0:0:
256,192,69555,12,0,71055,0:0:0:0:
