osu file format v6

[General]
AudioFilename: kiraitune.mp3
AudioLeadIn: 0
PreviewTime: 50407
Countdown: 0
SampleSet: Normal
StackLeniency: 0.7
Mode: 0
LetterboxInBreaks: 0
SkinPreference:Bobobo

[Editor]
Bookmarks: 30532,49856,60159
DistanceSpacing: 0.800000011920929
BeatDivisor: 2
GridSize: 8

[Metadata]
Title:Kirai Tune
Artist:FREENOTE
Creator:Behonkiss
Version:Normal
Source:Bobobo-bo Bo-bobo
Tags:

[Difficulty]
HPDrainRate:5
CircleSize:4
OverallDifficulty:5
SliderMultiplier:1.4
SliderTickRate:1

[Events]
//Background and Video events
0,0,"Bobobo-Bo 1.jpg"
Video,1,"kiraitune.avi"
//Break Periods
//Storyboard Layer 0 (Background)
//Storyboard Layer 1 (Fail)
//Storyboard Layer 2 (Pass)
//Storyboard Layer 3 (Foreground)
//Storyboard Sound Samples
//Background Colour Transformations
3,100,163,162,255

[TimingPoints]
7507,348.653502962705,4,1,0,76,1,0

[HitObjects]
424,288,8552,1,0
312,288,8901,2,2,B|80:288,1,210
256,56,10296,1,0
256,56,10470,1,8
256,168,10819,1,8
256,280,11167,1,8
144,304,11516,2,0,B|272:408|432:280,1,280,0|2
192,112,13085,5,0
192,112,13259,1,0
304,112,13608,1,8
416,112,13957,1,8
416,224,14305,2,2,B|408:352|216:336,2,245
304,224,15874,1,0
304,224,16049,1,0
192,224,16397,1,0
80,224,16746,2,0,B|96:0|424:48,1,420,2|4
416,96,19709,5,0
416,208,20058,2,2,B|192:208,1,210
456,328,21453,1,0
456,328,21627,1,8
344,328,21976,1,8
240,328,22324,1,8
128,328,22673,2,2,B|0:240|40:72,1,280
320,64,24242,5,0
320,64,24416,1,8
416,120,24765,1,8
416,232,25114,1,8
320,288,25462,2,2,B|192:352|64:280,2,245
208,240,27031,1,0
208,240,27205,1,8
136,152,27554,1,8
136,40,27903,2,0,B|232:16|368:48,2,210
136,40,29123,2,0,B|88:192|112:352|480:328,1,560,0|4
472,216,30866,5,0
360,192,31215,1,2
192,192,31738,1,2
296,56,32261,1,0
184,56,32610,1,2
16,56,33133,1,2
56,328,34004,5,0
152,272,34353,1,8
152,272,34527,1,8
152,272,34701,1,8
152,104,35224,1,2
264,104,35573,1,2
376,104,35922,1,2
432,200,36270,6,0,B|432:328|288:336,2,210,0|2|2
264,192,37839,1,0
152,192,38188,1,2
40,192,38537,1,0
40,192,38711,1,2
152,72,39234,5,0
264,72,39583,2,8,B|432:72|456:272,3,280,12|12|8|8
248,336,42372,5,0
136,336,42721,1,0
136,336,42895,1,2
56,248,43243,1,2
56,136,43592,2,2,B|128:0|304:24,1,280
384,152,44812,5,0
384,264,45161,2,2,B|248:304|104:264,1,280
112,152,46207,1,8
184,64,46556,2,2,B|328:16|480:72,1,280
408,280,47950,1,0
184,280,48648,2,0,B|0:176|120:-80|344:64,1,490,0|4
256,344,50740,5,0
256,232,51088,1,0
256,120,51437,1,8
256,120,51611,1,8
192,24,51960,2,2,B|256:-16|360:32,2,140
256,344,53529,5,0
256,232,53877,1,0
256,120,54226,1,8
256,120,54400,1,8
320,24,54749,2,2,B|256:-16|152:32,2,140
448,272,56318,5,2
360,344,56667,1,2
248,344,57015,1,2
248,344,57190,1,0
136,344,57538,2,0,B|-24:344,2,140
64,192,58759,5,0
64,80,59107,2,0,B|504:80,1,420,0|2
448,192,60502,1,0
448,192,60676,1,0
384,280,61025,1,8
272,280,61373,1,12
104,280,61896,5,0
192,192,62245,1,0
304,192,62594,1,8
304,192,62768,1,8
256,88,63117,1,2
144,88,63465,1,2
32,88,63814,1,2
288,192,64686,5,0
400,192,65034,1,0
344,288,65383,1,8
344,288,65557,1,8
232,288,65906,2,2,B|160:352|88:272,1,140
80,176,66603,2,2,B|24:88|96:40,1,140
256,208,67475,12,4,70263
