osu file format v14

[General]
AudioFilename: kanashii.mp3
AudioLeadIn: 0
PreviewTime: 61173
Countdown: 0
SampleSet: Soft
StackLeniency: 0.7
Mode: 0
LetterboxInBreaks: 0
WidescreenStoryboard: 0

[Editor]
DistanceSpacing: 1.3
BeatDivisor: 4
GridSize: 32
TimelineZoom: 1

[Metadata]
Title:Kanashii Ureshii
TitleUnicode:かなしいうれしい
Artist:FREDERIC
ArtistUnicode:フレデリック
Creator:Underforest
Version:Normal
Source:恋と嘘
Tags:koi to uso love and lies opening tv size liden films a-sketch
BeatmapID:1348015
BeatmapSetID:635275

[Difficulty]
HPDrainRate:4
CircleSize:3.5
OverallDifficulty:4
ApproachRate:5
SliderMultiplier:1.2
SliderTickRate:1

[Events]
//Background and Video events
0,0,"bg.jpg",0,0
Video,0,"video.flv"
//Break Periods
//Storyboard Layer 0 (Background)
//Storyboard Layer 1 (Fail)
//Storyboard Layer 2 (Pass)
//Storyboard Layer 3 (Foreground)
//Storyboard Sound Samples

[TimingPoints]
434,422.535211267606,4,2,1,60,1,0
5504,-100,4,2,1,70,0,0
34236,-100,4,2,1,60,0,0
57898,-100,4,2,1,70,0,0
61279,-100,4,2,1,80,0,1
87053,-100,4,2,1,70,0,0

[Colours]
Combo1 : 250,199,22
Combo2 : 255,43,48
Combo3 : 118,103,250
Combo4 : 252,197,242

[HitObjects]
36,147,434,6,0,P|62:161|158:138,1,120,2|2,0:0|0:0,0:0:0:0:
204,94,1067,1,0,0:0:0:0:
256,36,1279,2,0,P|311:17|367:36,1,120,2|2,0:0|0:0,0:0:0:0:
410,100,1912,1,0,0:0:0:0:
449,167,2124,2,0,L|457:302,1,120,2|2,0:0|0:0,0:0:0:0:
397,337,2757,1,0,0:0:0:0:
321,358,2969,2,0,P|265:376|209:357,1,120,2|2,0:0|0:0,0:0:0:0:
101,243,3814,6,0,B|91:182|91:182|106:118,1,120,2|2,0:0|0:0,0:0:0:0:
154,65,4448,1,0,0:0:0:0:
229,46,4659,2,0,P|286:38|364:35,1,120,2|2,0:0|0:0,0:0:0:0:
418,70,5293,1,0,0:0:0:0:
354,115,5504,1,4,0:3:0:0:
279,251,5926,2,0,L|142:266,2,120,4|4|4,0:3|0:3|0:3,0:0:0:0:
434,235,7194,6,0,P|451:166|415:103,1,120,4|8,0:0|0:0,0:0:0:0:
363,88,7828,1,0,0:0:0:0:
286,74,8039,2,0,L|205:79,2,60,2|2|8,0:0|0:0|0:0,0:0:0:0:
203,206,8884,2,0,B|152:195|152:195|84:207,1,120,2|8,0:0|0:0,0:0:0:0:
142,352,9729,2,0,B|208:363|208:363|259:352,1,120,2|8,0:0|0:0,0:0:0:0:
412,321,10574,6,0,P|431:277|407:204,1,120,2|8,0:0|0:0,0:0:0:0:
409,131,11208,1,0,0:0:0:0:
332,115,11419,2,0,L|258:110,1,60,2|2,0:0|0:0,0:0:0:0:
193,111,11842,2,0,L|119:116,1,60,8|0,0:0|0:0,0:0:0:0:
54,113,12264,2,0,P|70:163|138:194,2,120,2|8|2,0:0|0:0|0:0,0:0:0:0:
185,25,13532,1,8,0:0:0:0:
334,70,13955,6,0,L|417:56,2,60,2|0|8,0:0|0:0|0:0,0:0:0:0:
286,131,14588,2,0,P|286:194|277:264,1,120,0|2,0:0|0:0,0:0:0:0:
262,326,15222,1,8,0:0:0:0:
106,307,15645,2,0,L|23:321,2,60,2|0|8,0:0|0:0|0:0,0:0:0:0:
154,246,16279,2,0,P|154:183|163:113,1,120,0|2,0:0|0:0,0:0:0:0:
178,51,16912,1,8,0:0:0:0:
333,42,17335,6,0,P|366:39|411:47,1,60,2|0,0:0|0:0,0:0:0:0:
431,109,17757,2,0,P|438:145|436:170,1,60,8|0,0:0|0:0,0:0:0:0:
489,225,18180,2,0,P|438:245|367:206,1,120,2|8,0:0|0:0,0:0:0:0:
318,173,18814,1,0,0:0:0:0:
307,251,19025,2,0,P|313:293|292:376,2,120,2|8|2,0:0|0:0|0:0,0:0:0:0:
159,303,20293,1,8,0:0:0:0:
56,186,20715,6,0,P|39:117|75:54,1,120,4|8,0:0|0:0,0:0:0:0:
130,47,21349,1,0,0:0:0:0:
207,57,21560,2,0,L|288:62,2,60,2|2|8,0:0|0:0|0:0,0:0:0:0:
296,185,22405,2,0,B|347:174|347:174|415:186,1,120,2|8,0:0|0:0,0:0:0:0:
373,336,23250,2,0,B|306:347|306:347|255:336,1,120,2|8,0:0|0:0,0:0:0:0:
100,321,24095,6,0,P|81:277|105:204,1,120,2|8,0:0|0:0,0:0:0:0:
127,136,24729,2,0,L|269:119,1,120,2|0,0:0|0:0,0:0:0:0:
323,106,25363,2,0,L|397:111,1,60,8|0,0:0|0:0,0:0:0:0:
461,105,25786,2,0,P|445:155|377:186,2,120,2|8|2,0:0|0:0|0:0,0:0:0:0:
327,25,27053,1,8,0:0:0:0:
192,103,27476,5,2,0:0:0:0:
156,173,27688,2,0,L|96:182,2,60,0|8|0,0:0|0:0|0:0,0:0:0:0:
220,219,28321,2,0,P|226:278|226:338,1,120,2|8,0:0|0:0,0:0:0:0:
376,294,29166,2,0,L|459:308,2,60,2|0|8,0:0|0:0|0:0,0:0:0:0:
347,140,30011,2,0,L|430:154,2,60,2|2|8,0:0|0:0|0:0,0:0:0:0:
211,61,30856,6,0,P|178:58|133:66,1,60,2|0,0:0|0:0,0:0:0:0:
113,128,31279,2,0,P|106:164|108:189,1,60,8|0,0:0|0:0,0:0:0:0:
55,244,31701,2,0,P|106:264|174:225,1,120,2|8,0:0|0:0,0:0:0:0:
238,219,32335,1,0,0:0:0:0:
304,261,32546,2,0,L|446:273,2,120,0|0|0,3:0|3:0|3:0,0:0:0:0:
183,163,33814,1,0,3:0:0:0:
307,69,34236,6,0,P|354:58|438:93,1,120,4|10,0:0|0:0,0:0:0:0:
402,233,35081,2,0,P|355:244|271:209,1,120,10|8,0:0|0:0,0:0:0:0:
231,169,35715,1,0,0:0:0:0:
171,119,35926,2,0,P|124:108|40:143,1,120,10|10,0:0|0:0,0:0:0:0:
75,284,36772,2,0,P|122:295|206:260,1,120,10|8,0:0|0:0,0:0:0:0:
259,240,37405,1,0,0:0:0:0:
312,182,37617,6,0,B|331:124|331:124|313:55,1,120,10|10,0:0|0:0,0:0:0:0:
161,83,38462,2,0,B|146:140|146:140|165:198,1,120,10|8,0:0|0:0,0:0:0:0:
231,238,39095,1,0,0:0:0:0:
301,272,39307,2,0,P|350:262|402:209,2,120,10|10|10,0:0|0:0|0:0,0:0:0:0:
160,339,40574,1,8,0:0:0:0:
45,232,40997,6,0,L|58:96,1,120,12|10,0:0|0:0,0:0:0:0:
183,22,41842,2,0,L|196:158,1,120,10|8,0:0|0:0,0:0:0:0:
225,213,42476,1,0,0:0:0:0:
294,248,42687,2,0,L|307:112,1,120,10|10,0:0|0:0,0:0:0:0:
443,54,43532,2,0,L|456:190,1,120,10|8,0:0|0:0,0:0:0:0:
457,251,44166,1,0,0:0:0:0:
457,329,44377,6,0,P|412:351|334:337,1,120,10|10,0:0|0:0,0:0:0:0:
205,270,45222,2,0,P|160:248|82:262,1,120,10|8,0:0|0:0,0:0:0:0:
46,192,45856,1,0,0:0:0:0:
94,130,46067,1,0,3:0:0:0:
94,130,46490,1,0,3:0:0:0:
248,145,46912,1,0,3:0:0:0:
248,145,47335,1,4,0:3:0:0:
354,258,47757,6,0,P|358:303|335:344,2,90,12|10|10,0:0|0:0|0:0,0:0:0:0:
419,215,48603,2,0,P|464:219|505:196,2,90,10|10|10,0:0|0:0|0:0,0:0:0:0:
374,151,49448,2,0,P|370:106|393:65,2,90,10|10|10,0:0|0:0|0:0,0:0:0:0:
309,195,50293,2,0,P|264:199|223:176,2,90,10|10|10,0:0|0:0|0:0,0:0:0:0:
281,121,51138,6,0,L|208:59,2,90,10|10|10,0:0|0:0|0:0,0:0:0:0:
309,195,51983,2,0,L|306:299,2,90,10|10|10,0:0|0:0|0:0,0:0:0:0:
359,134,52828,2,0,L|427:75,2,90,10|10|10,0:0|0:0|0:0,0:0:0:0:
309,195,53673,2,0,P|265:188|212:210,2,90,10|10|10,0:0|0:0|0:0,0:0:0:0:
385,209,54518,5,12,0:0:0:0:
385,209,55574,2,0,B|431:214|431:214|482:195,2,90,10|10|12,0:0|0:0|0:0,0:0:0:0:
114,52,57053,2,0,P|105:123|109:185,1,120,4|4,0:0|0:3,0:0:0:0:
120,326,57898,1,4,3:2:0:0:
256,192,58004,12,8,60434,3:2:0:0:
477,115,61279,6,0,L|335:103,1,120,4|8,0:0|0:0,0:0:0:0:
235,202,62124,2,0,L|93:214,1,120,2|8,0:0|0:0,0:0:0:0:
50,70,62969,2,0,L|192:58,1,120,2|8,0:0|0:0,0:0:0:0:
301,143,63814,2,0,P|323:188|295:267,1,120,2|8,0:0|0:0,0:0:0:0:
253,310,64448,6,0,P|201:316|126:316,1,120,2|0,0:0|0:0,0:0:0:0:
65,278,65081,2,0,P|67:231|65:203,1,60,8|0,0:0|0:0,0:0:0:0:
103,149,65504,2,0,P|81:87|118:24,1,120,2|8,0:0|0:0,0:0:0:0:
256,50,66349,2,0,L|381:37,1,120,2|10,0:0|0:0,0:0:0:0:
444,73,66983,1,2,0:0:0:0:
464,148,67194,2,0,L|470:226,2,60,2|0|8,0:0|0:0|0:0,0:0:0:0:
327,224,68039,6,0,L|321:302,2,60,2|0|8,0:0|0:0|0:0,0:0:0:0:
175,184,68884,2,0,L|169:262,2,60,0|0|8,0:0|0:0|0:0,0:0:0:0:
276,65,69729,2,0,P|316:55|356:60,1,60,2|0,0:0|0:0,0:0:0:0:
323,132,70152,2,0,P|354:133|389:143,1,60,10|0,0:0|0:0,0:0:0:0:
440,191,70574,2,0,P|460:247|423:304,1,120,2|8,0:0|0:0,0:0:0:0:
361,329,71208,1,0,0:0:0:0:
285,348,71419,6,0,L|146:365,1,120,2|8,0:0|0:0,0:0:0:0:
35,277,72264,2,0,P|84:255|106:247,1,60,2|2,0:0|0:0,0:0:0:0:
165,231,72687,1,8,0:0:0:0:
316,192,73110,2,0,L|461:171,2,120,2|8|0,0:0|0:0|3:0,0:0:0:0:
165,231,74377,1,8,3:2:0:0:
50,124,74800,6,0,L|192:112,1,120,4|8,0:0|0:0,0:0:0:0:
293,209,75645,2,0,L|435:221,1,120,2|8,0:0|0:0,0:0:0:0:
462,70,76490,2,0,L|320:58,1,120,2|8,0:0|0:0,0:0:0:0:
211,143,77335,2,0,P|189:188|217:267,1,120,2|8,0:0|0:0,0:0:0:0:
259,310,77969,6,0,P|311:316|386:316,1,120,2|0,0:0|0:0,0:0:0:0:
447,278,78603,2,0,P|445:231|447:203,1,60,8|0,0:0|0:0,0:0:0:0:
409,149,79025,2,0,P|431:87|394:24,1,120,2|8,0:0|0:0,0:0:0:0:
256,50,79870,2,0,L|131:37,1,120,2|10,0:0|0:0,0:0:0:0:
68,73,80504,1,2,0:0:0:0:
48,148,80715,2,0,L|42:226,2,60,2|0|8,0:0|0:0|0:0,0:0:0:0:
185,224,81560,6,0,L|191:302,2,60,2|0|8,0:0|0:0|0:0,0:0:0:0:
337,184,82405,2,0,L|343:262,2,60,0|0|8,0:0|0:0|0:0,0:0:0:0:
236,65,83250,2,0,P|196:55|156:60,1,60,2|0,0:0|0:0,0:0:0:0:
189,132,83673,2,0,P|158:133|123:143,1,60,10|0,0:0|0:0,0:0:0:0:
72,191,84095,2,0,P|52:247|89:304,1,120,2|8,0:0|0:0,0:0:0:0:
152,323,84729,1,0,0:0:0:0:
226,346,84941,6,0,L|365:363,1,120,2|8,0:0|0:0,0:0:0:0:
477,277,85786,2,0,P|428:255|406:247,1,60,2|0,0:0|3:0,0:0:0:0:
353,215,86208,1,8,3:2:0:0:
277,235,86419,1,0,3:0:0:0:
205,266,86631,2,0,P|170:258|132:232,2,60,8|2|8,0:0|0:0|0:0,0:0:0:0:
