osu file format v14

[General]
AudioFilename: kanashii.mp3
AudioLeadIn: 0
PreviewTime: 61173
Countdown: 0
SampleSet: Soft
StackLeniency: 0.5
Mode: 0
LetterboxInBreaks: 0
WidescreenStoryboard: 0

[Editor]
DistanceSpacing: 1.3
BeatDivisor: 4
GridSize: 32
TimelineZoom: 1.9

[Metadata]
Title:Kanashii Ureshii
TitleUnicode:かなしいうれしい
Artist:FREDERIC
ArtistUnicode:フレデリック
Creator:Underforest
Version:Love
Source:恋と嘘
Tags:koi to uso love and lies opening tv size liden films a-sketch
BeatmapID:1348014
BeatmapSetID:635275

[Difficulty]
HPDrainRate:6
CircleSize:4.3
OverallDifficulty:7.5
ApproachRate:8.5
SliderMultiplier:1.8
SliderTickRate:1

[Events]
//Background and Video events
0,0,"bg.jpg",0,0
Video,0,"video.flv"
//Break Periods
//Storyboard Layer 0 (Background)
//Storyboard Layer 1 (Fail)
//Storyboard Layer 2 (Pass)
//Storyboard Layer 3 (Foreground)
//Storyboard Sound Samples

[TimingPoints]
434,422.535211267606,4,2,1,60,1,0
5504,-100,4,2,1,70,0,0
34236,-133.333333333333,4,2,1,60,0,0
35081,-111.111111111111,4,2,1,60,0,0
35926,-133.333333333333,4,2,1,60,0,0
36772,-111.111111111111,4,2,1,60,0,0
37617,-133.333333333333,4,2,1,60,0,0
38462,-111.111111111111,4,2,1,60,0,0
39307,-133.333333333333,4,2,1,60,0,0
40152,-111.111111111111,4,2,1,60,0,0
40997,-133.333333333333,4,2,1,60,0,0
41842,-111.111111111111,4,2,1,60,0,0
42687,-133.333333333333,4,2,1,60,0,0
43532,-111.111111111111,4,2,1,60,0,0
44377,-133.333333333333,4,2,1,60,0,0
45222,-111.111111111111,4,2,1,60,0,0
46067,-133.333333333333,4,2,1,60,0,0
47757,-111.111111111111,4,2,1,60,0,0
57053,-133.333333333333,4,2,1,60,0,0
57898,-100,4,2,1,70,0,0
61279,-100,4,2,1,80,0,1
87053,-100,4,2,1,70,0,0

[Colours]
Combo1 : 250,199,22
Combo2 : 255,43,48
Combo3 : 118,103,250
Combo4 : 252,197,242

[HitObjects]
146,348,434,6,0,P|163:302|155:249,1,90,2|0,0:0|0:0,0:0:0:0:
134,115,856,1,2,0:0:0:0:
69,276,1067,1,0,0:0:0:0:
249,255,1278,2,0,L|372:238,1,90,2|0,0:0|0:0,0:0:0:0:
512,204,1701,1,2,0:0:0:0:
442,309,1912,1,0,0:0:0:0:
419,96,2124,6,0,L|289:115,1,90,2|0,0:0|0:0,0:0:0:0:
163,106,2546,1,2,0:0:0:0:
307,21,2757,1,0,0:0:0:0:
262,185,2969,2,0,P|257:234|251:303,1,90,2|0,0:0|0:0,0:0:0:0:
404,326,3392,2,0,L|408:281|412:236,1,90,2|0,0:0|0:0,0:0:0:0:
254,273,3814,6,0,L|139:279,1,90,2|0,0:0|0:0,0:0:0:0:
80,96,4236,1,2,0:0:0:0:
249,113,4448,1,0,0:0:0:0:
60,237,4659,2,0,P|49:285|92:364,1,135,2|0,0:0|3:0,0:0:0:0:
127,361,5081,2,0,L|236:355,1,90,2|0,0:0|0:0,0:0:0:0:
430,272,5504,5,4,0:3:0:0:
89,157,5926,1,4,0:3:0:0:
427,32,6349,1,4,0:3:0:0:
153,266,6772,1,4,0:3:0:0:
288,145,6983,1,8,0:0:0:0:
288,145,7088,1,8,0:0:0:0:
288,145,7194,6,0,P|295:211|288:248,1,90,4|0,0:0|0:0,0:0:0:0:
173,347,7617,1,8,0:0:0:0:
205,205,7828,1,0,0:0:0:0:
275,327,8039,2,0,P|318:325|367:291,1,90,2|2,0:0|0:0,0:0:0:0:
379,285,8356,1,2,0:0:0:0:
399,267,8462,1,8,0:0:0:0:
442,141,8673,1,0,0:0:0:0:
272,87,8884,5,2,0:0:0:0:
397,31,9095,1,0,0:0:0:0:
299,165,9307,2,0,B|211:185|211:122|121:151,1,180,8|2,0:0|0:0,0:0:0:0:
272,87,9941,1,2,0:0:0:0:
272,87,10046,1,2,0:0:0:0:
272,87,10152,1,8,0:0:0:0:
171,222,10363,1,0,0:0:0:0:
356,248,10574,6,0,P|368:288|363:341,1,90,2|0,0:0|0:0,0:0:0:0:
266,299,10997,1,8,0:0:0:0:
470,284,11208,1,0,0:0:0:0:
375,142,11419,2,0,P|327:154|264:156,1,90,0|2,0:0|0:0,0:0:0:0:
244,99,11736,1,2,0:0:0:0:
244,99,11842,2,0,P|199:100|155:110,1,90,8|0,0:0|0:0,0:0:0:0:
39,226,12264,5,2,0:0:0:0:
68,63,12476,1,0,0:0:0:0:
183,199,12687,2,0,P|176:279|96:361,1,180,8|2,0:0|0:0,0:0:0:0:
275,301,13321,1,2,0:0:0:0:
275,301,13426,1,2,0:0:0:0:
275,301,13532,2,0,P|310:306|379:312,1,90,8|0,0:0|0:0,0:0:0:0:
264,214,13955,5,2,0:0:0:0:
361,135,14166,1,0,0:0:0:0:
214,103,14377,1,8,0:0:0:0:
420,193,14588,2,0,P|441:124|417:74,1,90,0|2,0:0|0:0,0:0:0:0:
302,53,15011,1,2,0:0:0:0:
302,53,15117,1,2,0:0:0:0:
302,53,15222,2,0,P|288:128|279:161,1,90,8|0,0:0|0:0,0:0:0:0:
168,31,15645,5,2,0:0:0:0:
182,210,15856,1,0,0:0:0:0:
22,127,16067,1,8,0:0:0:0:
241,145,16279,2,0,P|284:144|353:173,1,90,0|2,0:0|0:0,0:0:0:0:
425,266,16701,1,2,0:0:0:0:
425,266,16807,1,2,0:0:0:0:
425,266,16912,2,0,L|415:372,1,90,8|0,0:0|0:0,0:0:0:0:
272,295,17335,6,0,L|263:205,1,90,2|0,0:0|0:0,0:0:0:0:
319,52,17757,1,8,0:0:0:0:
374,159,17969,1,0,0:0:0:0:
206,92,18180,2,0,P|156:82|79:89,1,90,2|2,0:0|0:0,0:0:0:0:
90,86,18497,1,2,0:0:0:0:
64,93,18603,1,8,0:0:0:0:
218,213,18814,1,0,0:0:0:0:
218,213,18919,1,0,0:0:0:0:
218,213,19025,6,0,P|278:213|327:201,1,90,2|0,0:0|0:0,0:0:0:0:
418,67,19448,1,8,0:0:0:0:
249,30,19659,1,0,0:0:0:0:
232,27,19764,1,0,0:0:0:0:
216,26,19870,6,0,L|145:18,1,45,2|0,0:0|0:0,0:0:0:0:
59,80,20081,2,0,L|103:85,1,45,2|0,0:0|0:0,0:0:0:0:
216,144,20292,1,8,0:0:0:0:
128,222,20504,1,2,0:0:0:0:
128,222,20610,1,2,0:0:0:0:
128,222,20715,6,0,P|121:288|128:325,1,90,4|0,0:0|0:0,0:0:0:0:
308,344,21138,1,8,0:0:0:0:
226,270,21349,1,0,0:0:0:0:
145,384,21560,2,0,P|102:382|53:348,1,90,2|2,0:0|0:0,0:0:0:0:
46,343,21877,1,2,0:0:0:0:
26,325,21983,1,8,0:0:0:0:
67,174,22194,1,0,0:0:0:0:
232,84,22405,5,2,0:0:0:0:
107,28,22617,1,0,0:0:0:0:
205,162,22829,2,0,B|292:188|292:128|383:148,1,180,8|2,0:0|0:0,0:0:0:0:
247,72,23462,1,2,0:0:0:0:
247,72,23567,1,2,0:0:0:0:
247,72,23673,1,8,0:0:0:0:
344,241,23884,6,0,P|350:285|336:329,1,90,0|2,0:0|0:0,0:0:0:0:
158,346,24306,1,0,0:0:0:0:
182,157,24518,1,8,0:0:0:0:
182,157,24729,2,0,P|138:162|94:172,1,90,0|2,0:0|0:0,0:0:0:0:
227,69,25152,1,2,0:0:0:0:
227,69,25257,1,2,0:0:0:0:
227,69,25363,2,0,P|272:70|316:80,1,90,8|0,0:0|0:0,0:0:0:0:
465,223,25786,5,2,0:0:0:0:
436,60,25997,1,0,0:0:0:0:
329,199,26208,2,0,P|339:280|412:351,1,180,8|2,0:0|0:0,0:0:0:0:
229,298,26842,1,2,0:0:0:0:
229,298,26948,1,2,0:0:0:0:
229,298,27053,2,0,P|194:303|125:309,1,90,8|0,0:0|0:0,0:0:0:0:
170,184,27475,5,2,0:0:0:0:
329,199,27687,2,0,P|380:202|453:208,2,90,0|8|0,0:0|0:0|0:0,0:0:0:0:
238,29,28320,1,2,0:0:0:0:
46,66,28532,1,2,0:0:0:0:
46,66,28638,1,2,0:0:0:0:
46,66,28743,1,8,0:0:0:0:
208,120,28955,1,0,0:0:0:0:
334,32,29166,5,2,0:0:0:0:
401,218,29377,1,0,0:0:0:0:
496,42,29588,1,8,0:0:0:0:
268,123,29800,2,0,P|225:122|156:151,1,90,0|2,0:0|0:0,0:0:0:0:
70,231,30222,1,2,0:0:0:0:
70,231,30328,1,2,0:0:0:0:
70,231,30434,2,0,L|80:337,1,90,8|0,0:0|0:0,0:0:0:0:
21,127,30856,5,2,0:0:0:0:
249,192,31067,1,0,0:0:0:0:
190,39,31279,1,8,0:0:0:0:
126,173,31490,1,0,0:0:0:0:
298,89,31701,2,0,P|348:79|425:86,1,90,2|2,0:0|0:0,0:0:0:0:
414,83,32018,1,2,0:0:0:0:
440,90,32124,2,0,P|450:175|429:205,1,90,8|0,0:0|0:0,0:0:0:0:
306,267,32546,5,0,3:0:0:0:
286,277,32652,1,0,3:0:0:0:
264,284,32757,1,0,3:0:0:0:
242,286,32863,1,0,3:0:0:0:
220,283,32969,1,0,3:0:0:0:
198,275,33074,1,0,3:0:0:0:
178,265,33180,1,0,3:0:0:0:
160,252,33286,1,0,3:0:0:0:
143,238,33391,5,0,3:0:0:0:
159,223,33497,1,0,3:0:0:0:
181,220,33603,1,0,3:0:0:0:
203,223,33708,1,0,3:0:0:0:
224,231,33814,1,0,3:0:0:0:
224,231,34236,6,0,P|226:174|251:80,1,135.000005149842,4|10,0:0|0:0,0:0:0:0:
434,274,35081,2,0,L|338:288,1,80.9999975280763,10|0,0:0|0:0,0:0:0:0:
311,323,35398,2,0,L|230:311,1,80.9999975280763,10|0,0:0|0:0,0:0:0:0:
178,289,35715,1,10,0:0:0:0:
178,289,35926,6,0,L|33:314,1,135.000005149842,10|10,0:0|0:0,0:0:0:0:
49,51,36772,2,0,P|89:37|135:57,1,80.9999975280763,10|0,0:0|0:0,0:0:0:0:
161,91,37088,2,0,P|176:125|161:173,1,80.9999975280763,10|0,0:0|0:0,0:0:0:0:
145,219,37405,1,10,0:0:0:0:
145,219,37617,6,0,L|297:208,1,135.000005149842,10|10,0:0|0:0,0:0:0:0:
330,91,38250,1,0,0:0:0:0:
457,65,38462,2,0,L|443:157,1,80.9999975280763,10|0,0:0|0:0,0:0:0:0:
419,191,38779,2,0,L|433:283,1,80.9999975280763,10|0,0:0|0:0,0:0:0:0:
424,322,39095,1,10,0:0:0:0:
424,322,39307,6,0,P|388:339|299:296,1,135.000005149842,10|10,0:0|0:0,0:0:0:0:
236,196,39941,1,0,0:0:0:0:
160,301,40152,2,0,P|129:310|74:322,1,80.9999975280763,10|0,0:0|0:0,0:0:0:0:
44,277,40469,2,0,P|39:213|68:179,1,80.9999975280763,10|0,0:0|0:0,0:0:0:0:
81,156,40786,1,10,0:0:0:0:
236,196,40997,6,0,P|234:139|316:132,1,135.000005149842,12|10,0:0|0:0,0:0:0:0:
480,305,41842,2,0,L|399:293,1,80.9999975280763,10|0,0:0|0:0,0:0:0:0:
353,325,42159,2,0,L|272:337,1,80.9999975280763,10|0,0:0|0:0,0:0:0:0:
217,348,42476,1,10,0:0:0:0:
217,348,42687,6,0,B|171:337|134:357|134:357|104:335|78:343,1,135.000005149842,10|10,0:0|0:0,0:0:0:0:
48,83,43533,2,0,P|86:71|123:85,1,80.9999975280763,10|0,0:0|0:0,0:0:0:0:
169,118,43849,2,0,P|203:133|251:118,1,80.9999975280763,10|0,0:0|0:0,0:0:0:0:
288,87,44166,1,10,0:0:0:0:
288,87,44378,6,0,L|303:242,1,135.000005149842,10|10,0:0|0:0,0:0:0:0:
274,346,45011,1,0,0:0:0:0:
145,327,45223,2,0,L|36:337,1,80.9999975280763,10|0,0:0|0:0,0:0:0:0:
33,287,45539,2,0,P|24:234|46:197,1,80.9999975280763,10|0,0:0|0:0,0:0:0:0:
71,167,45856,1,10,0:0:0:0:
204,63,46067,5,0,3:0:0:0:
218,65,46490,1,0,3:0:0:0:
231,69,46912,1,0,3:0:0:0:
244,73,47335,2,0,P|300:113|297:157,1,101.250003862381,4|0,0:3|0:0,0:0:0:0:
268,185,47757,6,0,L|164:175,1,80.9999975280763,12|0,0:0|0:0,0:0:0:0:
134,197,48074,2,0,P|124:230|126:284,1,80.9999975280763,10|0,0:0|0:0,0:0:0:0:
145,329,48391,1,10,0:0:0:0:
305,300,48603,2,0,L|411:313,1,80.9999975280763,10|0,0:0|0:0,0:0:0:0:
433,281,48919,2,0,P|443:248|444:186,1,80.9999975280763,10|0,0:0|0:0,0:0:0:0:
418,151,49236,1,10,0:0:0:0:
267,90,49448,6,0,P|230:84|172:93,1,80.9999975280763,10|0,0:0|0:0,0:0:0:0:
144,125,49764,2,0,P|103:121|64:109,1,80.9999975280763,10|0,0:0|0:0,0:0:0:0:
8,113,50081,1,10,0:0:0:0:
48,270,50293,2,0,B|40:309|40:309|55:365,1,80.9999975280763,10|0,0:0|0:0,0:0:0:0:
105,363,50610,2,0,P|141:368|206:351,1,80.9999975280763,10|0,0:0|0:0,0:0:0:0:
237,342,50926,1,10,0:0:0:0:
398,322,51138,6,0,L|406:219,1,80.9999975280763,10|0,0:0|0:0,0:0:0:0:
387,191,51455,2,0,L|394:110,1,80.9999975280763,10|0,0:0|0:0,0:0:0:0:
375,61,51772,1,10,0:0:0:0:
214,37,51983,2,0,L|133:27,1,80.9999975280763,10|0,0:0|0:0,0:0:0:0:
109,74,52300,2,0,P|112:114|98:151,1,80.9999975280763,10|0,0:0|0:0,0:0:0:0:
81,201,52617,1,10,0:0:0:0:
39,357,52828,6,0,P|71:367|133:349,1,80.9999975280763,10|0,0:0|0:0,0:0:0:0:
169,337,53145,2,0,L|249:330,1,80.9999975280763,10|0,0:0|0:0,0:0:0:0:
304,316,53462,1,10,0:0:0:0:
286,155,53673,2,0,L|205:162,1,80.9999975280763,10|0,0:0|0:0,0:0:0:0:
150,149,53990,2,0,B|140:110|140:110|146:69,1,80.9999975280763,10|0,0:0|0:0,0:0:0:0:
178,23,54306,1,10,0:0:0:0:
371,39,54518,5,12,0:0:0:0:
371,39,54941,1,2,0:0:0:0:
371,39,55363,1,2,0:0:0:0:
359,143,55574,2,0,P|327:151|267:163,1,80.9999975280763,10|0,0:0|0:0,0:0:0:0:
231,190,55891,2,0,P|199:182|140:167,1,80.9999975280763,10|0,0:0|0:0,0:0:0:0:
103,141,56208,5,12,0:0:0:0:
103,141,56631,1,0,0:0:0:0:
103,141,57053,2,0,P|96:187|92:286,1,135.000005149842,4|4,0:0|0:3,0:0:0:0:
208,343,57687,1,0,0:0:0:0:
421,297,57898,5,4,3:2:0:0:
424,274,58003,1,0,3:0:0:0:
425,252,58109,1,0,3:0:0:0:
424,229,58214,1,0,3:0:0:0:
425,207,58321,5,0,3:0:0:0:
424,173,58426,1,0,3:0:0:0:
410,143,58532,1,0,3:0:0:0:
385,120,58637,1,0,3:0:0:0:
353,111,58743,5,0,3:0:0:0:
311,127,58848,1,0,3:0:0:0:
266,126,58954,1,0,3:0:0:0:
225,108,59059,1,0,3:0:0:0:
190,78,59166,5,0,3:0:0:0:
138,51,59271,1,0,3:0:0:0:
80,41,59377,1,0,3:0:0:0:
23,49,59482,1,0,3:0:0:0:
0,102,59589,6,0,L|6:162,1,45,0|0,3:0|3:0,0:0:0:0:
105,224,59800,2,0,L|111:164,1,45,0|0,3:0|3:0,0:0:0:0:
190,78,60011,2,0,L|196:138,1,45,0|0,3:0|3:0,0:0:0:0:
283,216,60222,2,0,L|289:156,1,45,0|0,3:0|3:0,0:0:0:0:
328,59,60434,5,8,3:2:0:0:
331,50,60539,1,0,3:0:0:0:
335,42,60645,1,8,3:2:0:0:
335,42,61279,6,0,P|290:35|226:76,1,90,4|0,0:0|0:0,0:0:0:0:
294,236,61701,2,0,P|320:187|311:146,1,90,8|0,0:0|0:0,0:0:0:0:
144,97,62124,2,0,P|158:123|215:155,1,90,2|0,0:0|0:0,0:0:0:0:
399,245,62546,1,8,0:0:0:0:
323,94,62757,1,0,0:0:0:0:
294,236,62969,6,0,P|236:240|164:249,1,90,2|0,0:0|0:0,0:0:0:0:
87,349,63391,2,0,P|135:348|187:343,1,90,8|0,0:0|0:0,0:0:0:0:
129,182,63814,2,0,P|51:186|-1:193,1,90,2|0,0:0|0:0,0:0:0:0:
108,266,64236,1,8,0:0:0:0:
233,178,64448,1,2,0:0:0:0:
233,178,64553,1,2,0:0:0:0:
233,178,64659,6,0,P|240:142|226:81,1,90,2|0,0:0|0:0,0:0:0:0:
295,243,65081,2,0,P|285:286|292:330,1,90,8|0,0:0|0:0,0:0:0:0:
405,142,65504,1,2,0:0:0:0:
371,289,65715,1,0,0:0:0:0:
236,185,65926,2,0,L|135:194,1,90,8|0,0:0|0:0,0:0:0:0:
41,351,66349,6,0,L|155:344,1,90,2|0,0:0|0:0,0:0:0:0:
295,243,66772,1,10,0:0:0:0:
295,243,66877,1,2,0:0:0:0:
295,243,66983,1,2,0:0:0:0:
73,256,67194,1,2,0:0:0:0:
232,351,67405,1,0,0:0:0:0:
407,285,67617,2,0,P|416:244|402:191,1,90,8|0,0:0|0:0,0:0:0:0:
266,91,68039,5,2,0:0:0:0:
455,23,68250,1,0,0:0:0:0:
316,164,68462,2,0,B|257:171|257:171|188:143|188:143|136:149,1,180,8|0,0:0|0:0,0:0:0:0:
266,91,69095,1,0,0:0:0:0:
185,241,69307,1,8,0:0:0:0:
356,248,69518,1,0,0:0:0:0:
356,248,69729,6,0,P|360:289|363:341,1,90,2|0,0:0|0:0,0:0:0:0:
185,241,70152,1,8,0:0:0:0:
259,336,70363,1,0,0:0:0:0:
293,166,70574,2,0,P|298:129|304:68,1,90,2|2,0:0|0:0,0:0:0:0:
235,47,70890,1,2,0:0:0:0:
235,47,70996,2,0,P|190:48|146:58,1,90,8|0,0:0|0:0,0:0:0:0:
35,189,71419,6,0,L|47:80,1,90,2|0,0:0|0:0,0:0:0:0:
193,227,71842,2,0,L|205:336,1,90,8|0,0:0|0:0,0:0:0:0:
449,267,72264,1,2,0:0:0:0:
272,169,72476,1,2,0:0:0:0:
272,169,72581,1,2,0:0:0:0:
272,169,72687,1,8,0:0:0:0:
350,355,72898,1,0,0:0:0:0:
425,162,73110,6,0,P|431:120|408:63,1,90,2|0,0:0|0:0,0:0:0:0:
310,269,73532,1,8,0:0:0:0:
210,97,73743,1,0,0:0:0:0:
96,311,73955,1,0,3:0:0:0:
85,291,74060,1,0,3:0:0:0:
78,269,74166,1,0,3:0:0:0:
74,247,74272,1,0,3:0:0:0:
75,225,74377,1,8,3:2:0:0:
78,202,74483,1,0,3:0:0:0:
86,181,74588,1,0,3:0:0:0:
157,48,74800,6,0,L|266:82,1,90,4|0,0:0|0:0,0:0:0:0:
187,227,75222,2,0,L|170:137,1,90,8|0,0:0|0:0,0:0:0:0:
333,122,75645,2,0,L|262:180,1,90,2|0,0:0|0:0,0:0:0:0:
101,239,76067,1,8,0:0:0:0:
160,99,76279,1,0,0:0:0:0:
221,278,76490,6,0,P|279:282|351:291,1,90,2|0,0:0|0:0,0:0:0:0:
470,367,76912,2,0,P|422:366|370:361,1,90,8|0,0:0|0:0,0:0:0:0:
211,260,77335,2,0,P|289:264|341:271,1,90,2|0,0:0|0:0,0:0:0:0:
460,178,77757,1,8,0:0:0:0:
260,110,77969,1,2,0:0:0:0:
260,110,78074,1,2,0:0:0:0:
260,110,78180,6,0,P|253:74|267:13,1,90,2|0,0:0|0:0,0:0:0:0:
458,91,78603,2,0,P|468:134|461:178,1,90,8|0,0:0|0:0,0:0:0:0:
327,327,79025,1,2,0:0:0:0:
286,183,79236,1,0,0:0:0:0:
410,258,79448,2,0,L|511:267,1,90,8|0,0:0|0:0,0:0:0:0:
327,327,79870,6,0,L|213:320,1,90,2|0,0:0|0:0,0:0:0:0:
132,177,80293,1,10,0:0:0:0:
132,177,80398,1,2,0:0:0:0:
132,177,80504,1,2,0:0:0:0:
337,178,80715,1,2,0:0:0:0:
239,341,80926,1,0,0:0:0:0:
71,233,81138,2,0,P|51:190|55:139,1,90,8|0,0:0|0:0,0:0:0:0:
243,71,81561,5,2,0:0:0:0:
56,25,81772,1,0,0:0:0:0:
196,163,81983,2,0,P|274:170|343:97,1,180,8|0,0:0|0:0,0:0:0:0:
243,71,82617,1,0,0:0:0:0:
355,246,82828,1,8,0:0:0:0:
156,248,83039,1,0,0:0:0:0:
156,248,83250,6,0,P|152:289|149:341,1,90,2|0,0:0|0:0,0:0:0:0:
355,246,83673,1,8,0:0:0:0:
219,170,83884,1,0,0:0:0:0:
361,330,84095,2,0,P|403:316|430:281,1,90,2|2,0:0|0:0,0:0:0:0:
434,207,84412,1,2,0:0:0:0:
434,207,84518,2,0,P|424:182|409:107,1,90,8|0,0:0|0:0,0:0:0:0:
277,269,84941,5,2,0:0:0:0:
126,134,85152,1,0,0:0:0:0:
325,160,85363,1,8,0:0:0:0:
151,258,85574,1,0,0:0:0:0:
235,72,85786,1,2,0:0:0:0:
361,253,85997,1,0,3:0:0:0:
380,242,86103,1,0,3:0:0:0:
397,227,86208,1,8,3:2:0:0:
410,209,86314,1,0,3:0:0:0:
420,188,86419,1,0,3:0:0:0:
414,336,86631,5,8,0:0:0:0:
150,316,86842,1,2,0:0:0:0:
305,101,87053,1,8,0:0:0:0:
