osu file format v14

[General]
AudioFilename: kanashii.mp3
AudioLeadIn: 0
PreviewTime: 61173
Countdown: 0
SampleSet: Soft
StackLeniency: 0.7
Mode: 0
LetterboxInBreaks: 0
WidescreenStoryboard: 0

[Editor]
DistanceSpacing: 1
BeatDivisor: 4
GridSize: 32
TimelineZoom: 1

[Metadata]
Title:Kanashii Ureshii
TitleUnicode:かなしいうれしい
Artist:FREDERIC
ArtistUnicode:フレデリック
Creator:Underforest
Version:Easy
Source:恋と嘘
Tags:koi to uso love and lies opening tv size liden films a-sketch
BeatmapID:1348012
BeatmapSetID:635275

[Difficulty]
HPDrainRate:2
CircleSize:3
OverallDifficulty:2
ApproachRate:3
SliderMultiplier:0.9
SliderTickRate:1

[Events]
//Background and Video events
0,0,"bg.jpg",0,0
Video,0,"video.flv"
//Break Periods
//Storyboard Layer 0 (Background)
//Storyboard Layer 1 (Fail)
//Storyboard Layer 2 (Pass)
//Storyboard Layer 3 (Foreground)
//Storyboard Sound Samples

[TimingPoints]
434,422.535211267606,4,2,1,60,1,0
5504,-100,4,2,1,70,0,0
34236,-100,4,2,1,60,0,0
57898,-100,4,2,1,70,0,0
61279,-100,4,2,1,80,0,1
87053,-100,4,2,1,70,0,0

[Colours]
Combo1 : 250,199,22
Combo2 : 255,43,48
Combo3 : 118,103,250
Combo4 : 252,197,242

[HitObjects]
62,47,434,6,0,P|51:87|69:144,1,89.9999999999999,2|2,0:0|0:0,0:0:0:0:
136,184,1279,2,0,P|147:224|129:281,1,89.9999999999999,2|2,0:0|0:0,0:0:0:0:
187,344,2124,2,0,L|286:340,1,89.9999999999999,2|2,0:0|0:0,0:0:0:0:
354,294,2969,2,0,L|453:298,1,89.9999999999999,2|2,0:0|0:0,0:0:0:0:
474,212,3814,6,0,B|483:167|483:167|470:112,1,89.9999999999999,2|2,0:0|0:0,0:0:0:0:
394,79,4659,2,0,B|385:124|385:124|398:179,1,89.9999999999999,2|2,0:0|0:0,0:0:0:0:
316,211,5504,1,4,0:3:0:0:
253,146,5926,1,4,0:3:0:0:
179,198,6349,2,0,P|132:213|83:240,1,89.9999999999999,4|4,0:3|0:3,0:0:0:0:
6,241,7194,6,0,P|34:299|146:309,1,180,4|2,0:0|0:0,0:0:0:0:
222,275,8462,1,8,0:0:0:0:
308,297,8884,2,0,L|403:316,2,89.9999999999999,2|8|2,0:0|0:0|0:0,0:0:0:0:
286,209,10152,1,8,0:0:0:0:
210,161,10574,6,0,B|124:129|124:204|35:161,1,180,2|2,0:0|0:0,0:0:0:0:
85,85,11842,1,8,0:0:0:0:
172,62,12264,2,0,L|278:56,1,89.9999999999999,2|8,0:0|0:0,0:0:0:0:
344,93,13110,1,2,0:0:0:0:
432,78,13532,1,8,0:0:0:0:
460,163,13955,6,0,P|483:209|460:287,2,135,2|0|8,0:0|0:0|0:0,0:0:0:0:
395,225,15645,2,0,P|334:199|273:223,2,135,2|0|8,0:0|0:0|0:0,0:0:0:0:
333,290,17335,6,0,P|285:310|235:303,1,89.9999999999999,2|8,0:0|0:0,0:0:0:0:
157,310,18180,2,0,P|111:291|61:295,1,89.9999999999999,2|8,0:0|0:0,0:0:0:0:
32,211,19025,1,2,0:0:0:0:
73,130,19448,2,0,L|270:134,1,180,8|8,0:0|0:0,0:0:0:0:
316,70,20715,6,0,P|301:105|326:240,1,180,4|2,0:0|0:0,0:0:0:0:
384,308,21983,1,8,0:0:0:0:
309,358,22405,2,0,L|208:364,1,89.9999999999999,2|8,0:0|0:0,0:0:0:0:
184,280,23250,2,0,L|94:274,1,89.9999999999999,2|8,0:0|0:0,0:0:0:0:
33,207,24095,6,0,B|45:149|45:149|5:100|44:33,1,180,2|2,0:0|0:0,0:0:0:0:
111,94,25363,1,8,0:0:0:0:
190,51,25786,2,0,P|229:41|288:56,1,89.9999999999999,2|8,0:0|0:0,0:0:0:0:
350,109,26631,2,0,P|393:118|437:108,1,89.9999999999999,2|8,0:0|0:0,0:0:0:0:
393,24,27476,6,0,L|391:219,1,180,2|2,0:0|0:0,0:0:0:0:
398,292,28743,1,8,0:0:0:0:
323,341,29166,2,0,P|281:348|223:356,1,89.9999999999999,2|8,0:0|0:0,0:0:0:0:
195,273,30011,2,0,P|150:266|106:259,1,89.9999999999999,2|8,0:0|0:0,0:0:0:0:
56,334,30856,6,0,P|20:276|64:180,1,180,2|2,0:0|0:0,0:0:0:0:
135,128,32124,1,8,0:0:0:0:
204,71,32546,2,0,B|254:86|314:52|314:52|353:80|353:80|399:56|466:83,1,270,0|0,3:0|3:0,0:0:0:0:
464,169,34236,6,0,L|469:277,1,89.9999999999999,4|10,0:0|0:0,0:0:0:0:
379,278,35081,2,0,L|374:188,1,89.9999999999999,10|8,0:0|0:0,0:0:0:0:
288,163,35926,2,0,P|249:175|194:161,1,89.9999999999999,10|10,0:0|0:0,0:0:0:0:
155,87,36772,1,10,0:0:0:0:
74,127,37194,1,8,0:0:0:0:
109,209,37617,6,0,P|103:262|110:317,1,89.9999999999999,10|10,0:0|0:0,0:0:0:0:
185,340,38462,2,0,P|232:327|275:297,1,89.9999999999999,10|8,0:0|0:0,0:0:0:0:
285,216,39307,2,0,P|262:179|225:147,1,89.9999999999999,10|10,0:0|0:0,0:0:0:0:
174,75,40152,1,10,0:0:0:0:
84,85,40574,1,8,0:0:0:0:
49,168,40997,6,0,L|44:276,1,89.9999999999999,12|10,0:0|0:0,0:0:0:0:
133,278,41842,2,0,L|137:188,1,89.9999999999999,10|8,0:0|0:0,0:0:0:0:
224,163,42687,2,0,P|263:175|318:161,1,89.9999999999999,10|10,0:0|0:0,0:0:0:0:
357,87,43532,1,10,0:0:0:0:
438,127,43955,1,8,0:0:0:0:
392,204,44377,6,0,P|398:257|391:312,1,89.9999999999999,10|10,0:0|0:0,0:0:0:0:
328,354,45222,2,0,P|283:356|238:351,1,89.9999999999999,10|8,0:0|0:0,0:0:0:0:
159,307,46067,1,0,3:0:0:0:
83,353,46490,1,0,3:0:0:0:
43,272,46912,2,0,L|36:166,1,89.9999999999999,0|4,3:0|0:3,0:0:0:0:
50,93,47757,6,0,P|108:64|214:115,1,180,12|2,0:0|0:0,0:0:0:0:
287,148,49025,1,8,0:0:0:0:
367,188,49448,2,0,P|396:246|345:352,1,180,2|2,0:0|0:0,0:0:0:0:
278,297,50715,1,8,0:0:0:0:
197,255,51138,6,0,L|10:267,1,180,2|2,0:0|0:0,0:0:0:0:
51,183,52405,1,8,0:0:0:0:
81,98,52828,2,0,L|177:93,1,89.9999999999999,2|8,0:0|0:0,0:0:0:0:
256,121,53673,2,0,L|352:116,1,89.9999999999999,2|8,0:0|0:0,0:0:0:0:
432,89,54518,5,12,0:0:0:0:
499,303,55574,2,0,P|447:325|368:307,1,135,10|12,0:0|0:0,0:0:0:0:
199,259,57053,2,0,L|102:274,1,89.9999999999999,4|4,0:0|0:3,0:0:0:0:
64,195,57898,6,0,P|52:130|98:20,2,180,4|0|0,0:0|3:0|3:0,0:0:0:0:
234,134,60434,2,0,L|288:127,1,45,8|8,3:2|3:2,0:0:0:0:
413,135,61279,6,0,P|421:179|395:233,1,89.9999999999999,4|8,0:0|0:0,0:0:0:0:
358,297,62124,2,0,P|314:305|260:279,1,89.9999999999999,2|8,0:0|0:0,0:0:0:0:
208,226,62969,2,0,P|164:218|110:244,1,89.9999999999999,2|8,0:0|0:0,0:0:0:0:
47,183,63814,2,0,L|57:81,1,89.9999999999999,2|8,0:0|0:0,0:0:0:0:
133,49,64659,6,0,B|176:39|176:39|226:50,1,89.9999999999999,2|8,0:0|0:0,0:0:0:0:
297,96,65504,2,0,B|340:106|340:106|390:95,1,89.9999999999999,2|8,0:0|0:0,0:0:0:0:
466,59,66349,1,2,0:0:0:0:
495,144,66772,1,10,0:0:0:0:
413,181,67194,2,0,L|417:274,1,89.9999999999999,2|8,0:0|0:0,0:0:0:0:
348,330,68039,6,0,P|299:342|248:322,1,89.9999999999999,2|8,0:0|0:0,0:0:0:0:
191,278,68884,2,0,P|142:266|91:286,1,89.9999999999999,0|8,0:0|0:0,0:0:0:0:
34,220,69729,2,0,B|26:174|26:174|38:123,1,89.9999999999999,2|10,0:0|0:0,0:0:0:0:
120,99,70574,2,0,B|128:145|128:145|116:196,1,89.9999999999999,2|8,0:0|0:0,0:0:0:0:
104,276,71419,6,0,P|127:342|214:236,1,270,2|8,0:0|0:0,0:0:0:0:
217,161,73110,1,2,0:0:0:0:
162,89,73532,1,8,0:0:0:0:
247,61,73955,2,0,L|347:77,1,89.9999999999999,0|8,3:0|3:2,0:0:0:0:
416,35,74800,6,0,P|426:76|405:133,1,89.9999999999999,4|8,0:0|0:0,0:0:0:0:
367,198,75645,2,0,P|356:238|374:295,1,89.9999999999999,2|8,0:0|0:0,0:0:0:0:
316,358,76490,2,0,L|217:354,1,89.9999999999999,2|8,0:0|0:0,0:0:0:0:
158,294,77335,2,0,L|59:298,1,89.9999999999999,2|8,0:0|0:0,0:0:0:0:
38,212,78180,6,0,B|29:167|29:167|42:112,1,89.9999999999999,2|8,0:0|0:0,0:0:0:0:
129,121,79025,2,0,B|138:166|138:166|125:221,1,89.9999999999999,2|8,0:0|0:0,0:0:0:0:
158,294,79870,1,2,0:0:0:0:
224,233,80293,1,10,0:0:0:0:
313,238,80715,2,0,P|360:253|409:280,1,89.9999999999999,2|8,0:0|0:0,0:0:0:0:
447,345,81560,6,0,P|410:360|352:351,1,89.9999999999999,2|8,0:0|0:0,0:0:0:0:
276,323,82405,2,0,P|239:308|183:313,1,89.9999999999999,0|8,0:0|0:0,0:0:0:0:
116,361,83250,1,2,0:0:0:0:
64,287,83673,1,10,0:0:0:0:
140,239,84095,2,0,L|133:128,1,89.9999999999999,2|8,0:0|0:0,0:0:0:0:
256,192,84941,12,8,87053,0:0:0:0:
