osu file format v14

[General]
AudioFilename: kanashii.mp3
AudioLeadIn: 0
PreviewTime: 61173
Countdown: 0
SampleSet: Soft
StackLeniency: 0.5
Mode: 0
LetterboxInBreaks: 0
WidescreenStoryboard: 0

[Editor]
DistanceSpacing: 1.3
BeatDivisor: 4
GridSize: 32
TimelineZoom: 1

[Metadata]
Title:Kanashii Ureshii
TitleUnicode:かなしいうれしい
Artist:FREDERIC
ArtistUnicode:フレデリック
Creator:Underforest
Version:Hard
Source:恋と嘘
Tags:koi to uso love and lies opening tv size liden films a-sketch
BeatmapID:1348013
BeatmapSetID:635275

[Difficulty]
HPDrainRate:5
CircleSize:4
OverallDifficulty:6
ApproachRate:7.5
SliderMultiplier:1.5
SliderTickRate:1

[Events]
//Background and Video events
0,0,"bg.jpg",0,0
Video,0,"video.flv"
//Break Periods
//Storyboard Layer 0 (Background)
//Storyboard Layer 1 (Fail)
//Storyboard Layer 2 (Pass)
//Storyboard Layer 3 (Foreground)
//Storyboard Sound Samples

[TimingPoints]
434,422.535211267606,4,2,1,60,1,0
5504,-100,4,2,1,70,0,0
34236,-133.333333333333,4,2,1,60,0,0
57898,-100,4,2,1,70,0,0
61279,-100,4,2,1,80,0,1
87053,-100,4,2,1,70,0,0

[Colours]
Combo1 : 250,199,22
Combo2 : 255,43,48
Combo3 : 118,103,250
Combo4 : 252,197,242

[HitObjects]
104,157,434,6,0,P|158:159|198:152,1,75,2|0,0:0|0:0,0:0:0:0:
247,87,856,1,2,0:0:0:0:
331,135,1067,1,0,0:0:0:0:
394,60,1279,2,0,P|431:60|469:73,1,75,2|0,0:0|0:0,0:0:0:0:
416,155,1701,2,0,L|422:262,1,75,2|0,0:0|0:0,0:0:0:0:
348,296,2124,6,0,L|343:370,1,75,2|0,0:0|0:0,0:0:0:0:
246,373,2546,1,2,0:0:0:0:
188,294,2757,1,0,0:0:0:0:
110,353,2969,2,0,P|96:326|98:256,1,75,2|0,0:0|0:0,0:0:0:0:
188,294,3391,2,0,P|223:292|271:285,1,75,2|0,0:0|0:0,0:0:0:0:
347,237,3814,6,0,P|361:181|351:141,1,75,2|0,0:0|0:0,0:0:0:0:
275,114,4236,1,2,0:0:0:0:
223,197,4448,1,0,0:0:0:0:
262,285,4659,2,0,P|288:319|381:328,1,112.5,2|0,0:0|3:0,0:0:0:0:
400,347,5081,2,0,L|496:334,1,75,2|0,0:0|0:0,0:0:0:0:
347,237,5504,5,4,0:3:0:0:
347,237,5926,1,4,0:3:0:0:
248,68,6349,1,4,0:3:0:0:
248,68,6772,1,4,0:3:0:0:
251,165,6983,1,8,0:0:0:0:
251,165,7088,1,8,0:0:0:0:
251,165,7194,6,0,P|205:167|175:173,1,75,4|0,0:0|0:0,0:0:0:0:
93,223,7617,2,0,L|86:322,1,75,8|0,0:0|0:0,0:0:0:0:
175,339,8039,1,2,0:0:0:0:
259,290,8250,2,0,L|272:226,2,37.5,2|2|8,0:0|0:0|0:0,0:0:0:0:
344,337,8673,1,0,0:0:0:0:
403,259,8884,6,0,P|443:265|485:252,1,75,2|0,0:0|0:0,0:0:0:0:
434,167,9307,2,0,P|383:122|281:145,1,150,8|2,0:0|0:0,0:0:0:0:
207,129,9941,1,2,0:0:0:0:
207,129,10046,1,2,0:0:0:0:
207,129,10152,2,0,P|174:125|121:117,1,75,8|0,0:0|0:0,0:0:0:0:
44,200,10574,5,2,0:0:0:0:
44,297,10786,1,0,0:0:0:0:
140,287,10997,2,0,B|150:247|150:247|140:207,1,75,8|0,0:0|0:0,0:0:0:0:
134,117,11419,1,2,0:0:0:0:
216,65,11631,2,0,L|200:17,2,37.5,2|2|8,0:0|0:0|0:0,0:0:0:0:
280,140,12053,1,0,0:0:0:0:
362,88,12264,6,0,P|406:86|453:99,1,75,2|0,0:0|0:0,0:0:0:0:
477,180,12687,2,0,B|494:237|494:237|475:346,1,150,8|2,0:0|0:0,0:0:0:0:
382,342,13321,1,2,0:0:0:0:
382,342,13426,1,2,0:0:0:0:
382,342,13532,2,0,P|338:346|304:352,1,75,8|0,0:0|0:0,0:0:0:0:
195,308,13955,6,0,P|184:247|193:210,1,75,2|0,0:0|0:0,0:0:0:0:
239,153,14377,1,8,0:0:0:0:
311,96,14588,2,0,P|351:84|395:89,1,75,0|2,0:0|0:0,0:0:0:0:
450,157,15011,1,2,0:0:0:0:
450,157,15117,1,2,0:0:0:0:
450,157,15222,2,0,L|441:260,1,75,8|0,0:0|0:0,0:0:0:0:
360,283,15645,5,2,0:0:0:0:
360,283,15856,1,0,0:0:0:0:
337,188,16067,1,8,0:0:0:0:
241,167,16279,2,0,P|195:161|153:166,1,75,0|2,0:0|0:0,0:0:0:0:
69,163,16701,1,2,0:0:0:0:
69,163,16807,1,2,0:0:0:0:
69,163,16912,2,0,P|57:211|65:244,1,75,8|0,0:0|0:0,0:0:0:0:
153,312,17335,6,0,L|243:301,1,75,2|0,0:0|0:0,0:0:0:0:
321,278,17757,2,0,L|395:287,1,75,8|0,0:0|0:0,0:0:0:0:
419,382,18180,1,2,0:0:0:0:
488,314,18391,2,0,P|496:348|499:373,2,37.5,2|2|8,0:0|0:0|0:0,0:0:0:0:
454,222,18814,1,2,0:0:0:0:
454,222,18919,1,2,0:0:0:0:
454,222,19025,6,0,P|412:222|355:221,1,75,2|0,0:0|0:0,0:0:0:0:
291,177,19448,1,8,0:0:0:0:
195,159,19659,2,0,L|189:214,1,37.5,0|0,0:0|0:0,0:0:0:0:
176,243,19870,1,2,0:0:0:0:
176,243,19976,2,0,P|158:318|184:375,1,112.5,0|8,0:0|0:0,0:0:0:0:
254,304,20504,1,2,0:0:0:0:
350,294,20715,6,0,P|396:296|426:302,1,75,4|0,0:0|0:0,0:0:0:0:
481,222,21138,2,0,L|475:147,1,75,8|0,0:0|0:0,0:0:0:0:
390,100,21560,1,2,0:0:0:0:
296,129,21772,2,0,L|283:65,2,37.5,2|2|8,0:0|0:0|0:0,0:0:0:0:
247,213,22194,1,0,0:0:0:0:
156,248,22405,6,0,P|116:254|74:241,1,75,2|0,0:0|0:0,0:0:0:0:
71,148,22828,2,0,P|122:103|224:126,1,150,8|2,0:0|0:0,0:0:0:0:
295,130,23462,1,2,0:0:0:0:
295,130,23567,1,2,0:0:0:0:
295,130,23673,1,8,0:0:0:0:
406,172,23884,6,0,L|483:159,2,75,0|2|0,0:0|0:0|0:0,0:0:0:0:
316,211,24518,2,0,B|307:243|307:243|317:283,1,75,8|0,0:0|0:0,0:0:0:0:
265,366,24941,1,2,0:0:0:0:
187,307,25152,2,0,L|159:331,2,37.5,2|2|8,0:0|0:0|0:0,0:0:0:0:
212,212,25574,1,0,0:0:0:0:
186,117,25786,6,0,P|142:115|95:128,1,75,2|0,0:0|0:0,0:0:0:0:
35,180,26208,2,0,B|18:237|18:237|37:346,1,150,8|2,0:0|0:0,0:0:0:0:
130,342,26842,1,2,0:0:0:0:
130,342,26948,1,2,0:0:0:0:
130,342,27053,2,0,P|174:346|208:352,1,75,8|0,0:0|0:0,0:0:0:0:
317,308,27476,6,0,P|328:247|319:210,1,75,2|0,0:0|0:0,0:0:0:0:
272,153,27898,2,0,P|232:141|188:146,1,75,8|0,0:0|0:0,0:0:0:0:
124,79,28321,1,2,0:0:0:0:
62,157,28532,1,2,0:0:0:0:
62,157,28638,1,2,0:0:0:0:
62,157,28743,2,0,L|71:260,1,75,8|0,0:0|0:0,0:0:0:0:
145,293,29166,6,0,L|154:190,1,75,2|0,0:0|0:0,0:0:0:0:
205,137,29588,2,0,P|242:139|279:133,1,75,8|0,0:0|0:0,0:0:0:0:
375,112,30011,1,2,0:0:0:0:
450,173,30222,1,2,0:0:0:0:
450,173,30328,1,2,0:0:0:0:
450,173,30434,2,0,P|462:221|454:254,1,75,8|0,0:0|0:0,0:0:0:0:
358,313,30856,6,0,L|268:302,1,75,2|0,0:0|0:0,0:0:0:0:
190,279,31279,2,0,L|115:288,1,75,8|0,0:0|0:0,0:0:0:0:
92,383,31701,2,0,P|31:337|24:318,1,75,2|2,0:0|0:0,0:0:0:0:
28,318,32018,1,2,0:0:0:0:
28,295,32124,1,8,0:0:0:0:
69,206,32335,1,0,0:0:0:0:
149,149,32546,6,0,P|173:143|194:136,3,37.5,0|0|0|0,3:0|3:0|3:0|3:0,0:0:0:0:
234,142,32969,2,0,P|251:147|270:151,3,37.5,0|0|0|0,3:0|3:0|3:0|3:0,0:0:0:0:
319,152,33391,2,0,P|343:146|364:139,3,37.5,0|0|0|0,3:0|3:0|3:0|3:0,0:0:0:0:
400,122,33814,1,0,3:0:0:0:
400,122,34236,6,0,P|407:178|408:238,1,112.500004291535,4|10,0:0|0:0,0:0:0:0:
264,343,35081,2,0,L|168:331,2,84.3750032186509,10|10|10,0:0|0:0|0:0,0:0:0:0:
287,255,35926,2,0,L|157:239,1,112.500004291535,10|10,0:0|0:0,0:0:0:0:
37,124,36772,2,0,P|27:78|53:23,2,84.3750032186509,10|10|10,0:0|0:0|0:0,0:0:0:0:
117,82,37617,6,0,L|252:74,1,112.500004291535,10|10,0:0|0:0,0:0:0:0:
394,147,38462,2,0,L|486:137,2,84.3750032186509,10|10|10,0:0|0:0|0:0,0:0:0:0:
308,119,39307,2,0,P|303:154|340:219,1,112.500004291535,10|10,0:0|0:0,0:0:0:0:
402,283,39941,1,0,0:0:0:0:
313,298,40152,2,0,P|266:278|227:262,2,84.3750032186509,10|10|10,0:0|0:0|0:0,0:0:0:0:
270,377,40997,6,0,L|154:324,1,112.500004291535,12|10,0:0|0:0,0:0:0:0:
252,171,41842,2,0,P|288:156|335:163,2,84.3750032186509,10|10|10,0:0|0:0|0:0,0:0:0:0:
174,217,42687,2,0,P|109:210|72:165,1,112.500004291535,10|10,0:0|0:0,0:0:0:0:
218,65,43532,2,0,L|319:71,2,84.3750032186509,10|10|10,0:0|0:0|0:0,0:0:0:0:
170,141,44377,6,0,P|151:190|143:262,1,112.500004291535,10|10,0:0|0:0,0:0:0:0:
291,351,45222,2,0,P|347:354|382:335,2,84.3750032186509,10|10|10,0:0|0:0|0:0,0:0:0:0:
206,318,46067,5,8,3:2:0:0:
206,318,46490,1,8,3:2:0:0:
52,224,46912,1,8,3:2:0:0:
52,224,47335,1,4,0:3:0:0:
164,82,47757,6,0,P|197:65|249:72,1,84.3750032186509,12|10,0:0|0:0,0:0:0:0:
277,99,48180,2,0,P|308:93|346:81,1,56.2500021457673,0|10,0:0|0:0,0:0:0:0:
403,31,48603,2,0,P|420:64|416:118,1,84.3750032186509,10|10,0:0|0:0,0:0:0:0:
390,145,49025,2,0,P|396:176|408:214,1,56.2500021457673,0|10,0:0|0:0,0:0:0:0:
406,289,49448,6,0,P|366:324|327:327,1,84.3750032186509,10|10,0:0|0:0,0:0:0:0:
291,329,49870,2,0,P|265:330|234:337,1,56.2500021457673,0|10,0:0|0:0,0:0:0:0:
151,303,50293,2,0,B|140:259|140:259|155:196,1,84.3750032186509,10|10,0:0|0:0,0:0:0:0:
173,183,50715,2,0,L|244:187,1,56.2500021457673,0|10,0:0|0:0,0:0:0:0:
244,97,51138,6,0,L|148:91,1,84.3750032186509,10|10,0:0|0:0,0:0:0:0:
116,105,51560,2,0,P|94:132|81:171,1,56.2500021457673,0|10,0:0|0:0,0:0:0:0:
141,222,51983,2,0,P|174:229|244:208,1,84.3750032186509,10|10,0:0|0:0,0:0:0:0:
261,244,52405,2,0,L|266:312,1,56.2500021457673,0|10,0:0|0:0,0:0:0:0:
351,272,52828,6,0,L|345:179,1,84.3750032186509,10|10,0:0|0:0,0:0:0:0:
368,149,53250,2,0,P|402:141|440:151,1,56.2500021457673,0|10,0:0|0:0,0:0:0:0:
449,230,53673,2,0,L|443:314,1,84.3750032186509,10|10,0:0|0:0,0:0:0:0:
419,352,54095,2,0,P|386:356|356:346,1,56.2500021457673,0|10,0:0|0:0,0:0:0:0:
255,301,54518,5,12,0:0:0:0:
255,301,54941,1,2,0:0:0:0:
255,301,55363,1,2,0:0:0:0:
168,275,55574,6,0,P|115:265|58:264,2,84.3750032186509,10|10|12,0:0|0:0|0:0,0:0:0:0:
150,129,56631,1,0,0:0:0:0:
150,129,57053,2,0,P|198:147|264:119,1,112.500004291535,4|4,0:0|0:3,0:0:0:0:
59,116,57898,6,0,P|54:139|47:173,7,37.5,4|0|0|0|0|0|0|0,3:2|3:0|3:0|3:0|3:0|3:0|3:0|3:0,0:0:0:0:
72,197,58743,2,0,P|75:215|78:235,7,37.5,0|0|0|0|0|0|0|0,3:0|3:0|3:0|3:0|3:0|3:0|3:0|3:0,0:0:0:0:
74,282,59588,2,0,P|70:299|64:318,7,37.5,0|0|0|0|0|0|0|0,3:0|3:0|3:0|3:0|3:0|3:0|3:0|3:0,0:0:0:0:
70,367,60434,1,8,3:2:0:0:
200,332,60645,1,8,3:2:0:0:
200,332,61279,6,0,P|237:336|295:336,1,75,4|0,0:0|0:0,0:0:0:0:
326,254,61701,2,0,P|288:249|251:249,1,75,8|0,0:0|0:0,0:0:0:0:
192,171,62124,2,0,P|205:121|230:86,1,75,2|0,0:0|0:0,0:0:0:0:
297,45,62546,1,8,0:0:0:0:
368,110,62757,1,0,0:0:0:0:
461,80,62969,6,0,L|468:175,1,75,2|0,0:0|0:0,0:0:0:0:
440,248,63391,2,0,L|434:322,1,75,8|0,0:0|0:0,0:0:0:0:
338,343,63814,2,0,P|283:352|198:301,1,150,2|8,0:0|0:0,0:0:0:0:
161,219,64448,1,2,0:0:0:0:
161,219,64553,1,2,0:0:0:0:
161,219,64658,6,0,P|114:214|67:215,1,75,2|0,0:0|0:0,0:0:0:0:
130,126,65081,1,8,0:0:0:0:
140,28,65293,1,0,0:0:0:0:
237,34,65504,2,0,P|281:31|322:53,1,75,2|0,0:0|0:0,0:0:0:0:
405,30,65926,1,8,0:0:0:0:
419,126,66138,1,0,0:0:0:0:
323,145,66349,6,0,L|315:230,1,75,2|0,0:0|0:0,0:0:0:0:
233,271,66772,2,0,L|225:196,1,75,10|0,0:0|0:0,0:0:0:0:
171,115,67194,1,2,0:0:0:0:
74,99,67405,1,0,0:0:0:0:
50,194,67617,2,0,P|37:226|40:266,1,75,8|0,0:0|0:0,0:0:0:0:
79,354,68039,5,2,0:0:0:0:
172,328,68250,1,0,0:0:0:0:
268,347,68462,2,0,P|307:342|370:251,1,150,8|0,0:0|0:0,0:0:0:0:
273,247,69095,1,0,0:0:0:0:
175,243,69307,2,0,P|136:242|77:232,1,75,8|0,0:0|0:0,0:0:0:0:
104,140,69729,6,0,P|113:91|129:56,1,75,2|0,0:0|0:0,0:0:0:0:
218,51,70152,2,0,P|254:47|296:53,1,75,10|0,0:0|0:0,0:0:0:0:
389,60,70574,2,0,P|365:119|334:140,1,75,2|2,0:0|0:0,0:0:0:0:
339,138,70891,1,2,0:0:0:0:
319,149,70997,1,8,0:0:0:0:
224,171,71208,1,0,0:0:0:0:
171,279,71419,6,0,L|162:369,1,75,2|0,0:0|0:0,0:0:0:0:
75,309,71842,2,0,L|66:219,1,75,8|0,0:0|0:0,0:0:0:0:
79,137,72264,1,2,0:0:0:0:
174,117,72476,1,2,0:0:0:0:
174,117,72581,1,2,0:0:0:0:
174,117,72687,2,0,P|233:109|263:102,1,75,8|0,0:0|0:0,0:0:0:0:
299,22,73110,6,0,P|342:74|334:155,1,150,2|8,0:0|0:0,0:0:0:0:
450,158,73743,1,0,0:0:0:0:
468,254,73955,2,0,L|528:249,2,37.5,0|0|0,3:0|3:0|3:0,0:0:0:0:
390,312,74377,2,0,L|397:371,2,37.5,8|0|0,3:2|3:0|3:0,0:0:0:0:
269,314,74800,6,0,P|232:318|174:318,1,75,4|0,0:0|0:0,0:0:0:0:
161,227,75222,2,0,P|198:222|235:222,1,75,8|0,0:0|0:0,0:0:0:0:
320,171,75645,2,0,P|307:121|282:86,1,75,2|0,0:0|0:0,0:0:0:0:
215,45,76067,1,8,0:0:0:0:
144,110,76279,1,0,0:0:0:0:
51,80,76490,6,0,L|44:175,1,75,2|0,0:0|0:0,0:0:0:0:
72,248,76912,2,0,L|77:322,1,75,8|0,0:0|0:0,0:0:0:0:
174,343,77335,2,0,P|229:352|314:301,1,150,2|8,0:0|0:0,0:0:0:0:
354,221,77969,1,2,0:0:0:0:
354,221,78074,1,2,0:0:0:0:
354,221,78179,6,0,P|401:216|448:217,1,75,2|0,0:0|0:0,0:0:0:0:
384,127,78603,1,8,0:0:0:0:
374,30,78814,1,0,0:0:0:0:
278,34,79025,2,0,P|234:31|193:53,1,75,2|0,0:0|0:0,0:0:0:0:
109,29,79448,1,8,0:0:0:0:
93,126,79659,1,0,0:0:0:0:
189,145,79870,6,0,L|197:230,1,75,2|0,0:0|0:0,0:0:0:0:
279,271,80293,2,0,L|286:196,1,75,10|2,0:0|0:0,0:0:0:0:
340,115,80715,1,2,0:0:0:0:
436,99,80926,1,0,0:0:0:0:
462,194,81138,2,0,P|475:226|472:266,1,75,8|0,0:0|0:0,0:0:0:0:
437,356,81560,5,2,0:0:0:0:
341,339,81772,1,0,0:0:0:0:
244,347,81983,2,0,P|205:342|142:251,1,150,8|0,0:0|0:0,0:0:0:0:
239,247,82617,1,0,0:0:0:0:
337,243,82828,2,0,P|376:242|435:232,1,75,8|0,0:0|0:0,0:0:0:0:
408,140,83250,6,0,P|399:91|383:56,1,75,2|0,0:0|0:0,0:0:0:0:
294,51,83673,2,0,P|258:47|216:53,1,75,10|0,0:0|0:0,0:0:0:0:
123,60,84095,2,0,P|147:119|178:140,1,75,2|2,0:0|0:0,0:0:0:0:
173,138,84412,1,2,0:0:0:0:
189,152,84518,1,8,0:0:0:0:
263,214,84729,1,0,0:0:0:0:
349,259,84941,6,0,L|337:349,1,75,2|0,0:0|0:0,0:0:0:0:
245,358,85363,2,0,L|170:368,1,75,8|0,0:0|0:0,0:0:0:0:
139,275,85786,1,2,0:0:0:0:
60,333,85997,1,0,3:0:0:0:
23,242,86208,1,8,3:2:0:0:
23,242,86314,1,0,3:0:0:0:
23,242,86419,1,0,3:0:0:0:
102,182,86631,5,8,0:0:0:0:
228,229,86842,1,2,0:0:0:0:
201,96,87053,1,8,0:0:0:0:
