osu file format v14

[General]
AudioFilename: kanashii ureshii.mp3
AudioLeadIn: 0
PreviewTime: 61173
Countdown: 0
SampleSet: Normal
StackLeniency: 0.7
Mode: 1
LetterboxInBreaks: 0
WidescreenStoryboard: 0

[Editor]
Bookmarks: 34236
DistanceSpacing: 1.3
BeatDivisor: 4
GridSize: 32
TimelineZoom: 1

[Metadata]
Title:Kanashii Ureshii
TitleUnicode:かなしいうれしい
Artist:FREDERIC
ArtistUnicode:フレデリック
Creator:Nardoxyribonucleic
Version:Kisses' Muzukashii
Source:恋と嘘
Tags:Taiko Koi to Uso Love and Lies Opening TV Size Kisses Chaoslitz
BeatmapID:1397456
BeatmapSetID:659103

[Difficulty]
HPDrainRate:5
CircleSize:4
OverallDifficulty:4.5
ApproachRate:10
SliderMultiplier:1.4
SliderTickRate:1

[Events]
//Background and Video events
0,0,"bg2.jpg",0,40
//Break Periods
//Storyboard Layer 0 (Background)
//Storyboard Layer 1 (Fail)
//Storyboard Layer 2 (Pass)
//Storyboard Layer 3 (Foreground)
//Storyboard Sound Samples

[TimingPoints]
434,422.535211267606,4,1,0,55,1,0
7194,-100,4,1,0,60,0,0
20715,-100,4,1,0,65,0,0
34236,-100,4,1,0,70,0,0
47757,-100,4,1,0,75,0,0
54518,-100,4,1,0,80,0,0
61279,-100,4,1,0,85,0,1
86631,-100,4,1,0,85,0,0

[HitObjects]
190,240,434,5,0,0:0:0:0:
279,242,856,1,0,0:0:0:0:
280,251,1067,1,0,0:0:0:0:
281,255,1279,1,8,0:0:0:0:
92,279,1701,1,0,0:0:0:0:
172,274,2124,1,8,0:0:0:0:
183,161,2546,1,8,0:0:0:0:
394,211,2757,1,0,0:0:0:0:
221,229,2969,1,8,0:0:0:0:
263,255,3391,1,0,0:0:0:0:
135,191,3814,1,0,0:0:0:0:
265,228,4236,1,0,0:0:0:0:
312,263,4448,1,0,0:0:0:0:
312,263,4659,1,8,0:0:0:0:
351,234,5081,1,8,0:0:0:0:
350,241,5293,1,0,0:0:0:0:
382,282,5504,1,4,0:0:0:0:
419,324,5926,1,4,0:0:0:0:
224,291,6349,1,12,0:0:0:0:
224,291,6772,1,12,0:0:0:0:
32,224,6983,1,0,0:0:0:0:
167,275,7088,1,0,0:0:0:0:
167,275,7194,1,0,0:0:0:0:
303,229,7617,1,8,0:0:0:0:
303,229,7828,1,8,0:0:0:0:
303,229,8039,1,0,0:0:0:0:
365,242,8462,1,8,0:0:0:0:
270,271,8673,1,0,0:0:0:0:
365,242,8884,1,0,0:0:0:0:
238,182,9307,1,8,0:0:0:0:
159,249,9518,1,0,0:0:0:0:
159,249,9624,1,0,0:0:0:0:
159,249,9729,1,0,0:0:0:0:
276,237,10152,1,8,0:0:0:0:
192,128,10574,1,0,0:0:0:0:
192,128,10786,1,0,0:0:0:0:
224,256,10997,1,8,0:0:0:0:
192,256,11208,1,0,0:0:0:0:
288,224,11419,1,8,0:0:0:0:
288,224,11631,1,8,0:0:0:0:
288,224,11842,1,0,0:0:0:0:
192,192,12264,1,8,0:0:0:0:
192,192,12476,1,0,0:0:0:0:
192,192,12687,1,8,0:0:0:0:
256,288,13532,1,8,0:0:0:0:
128,192,13955,1,0,0:0:0:0:
128,192,14166,1,0,0:0:0:0:
192,160,14377,1,8,0:0:0:0:
192,160,14588,1,0,0:0:0:0:
288,192,15011,1,8,0:0:0:0:
288,192,15117,1,8,0:0:0:0:
192,256,15222,1,8,0:0:0:0:
160,128,15645,1,8,0:0:0:0:
160,128,15856,1,8,0:0:0:0:
224,192,16067,1,0,0:0:0:0:
224,192,16279,1,8,0:0:0:0:
168,158,16701,1,0,0:0:0:0:
168,158,16807,1,0,0:0:0:0:
168,158,16912,1,0,0:0:0:0:
192,256,17124,1,8,0:0:0:0:
288,256,17546,1,0,0:0:0:0:
288,256,17757,1,8,0:0:0:0:
256,224,17969,1,0,0:0:0:0:
256,224,18180,1,8,0:0:0:0:
160,128,18603,1,0,0:0:0:0:
128,192,18814,1,0,0:0:0:0:
160,224,19025,1,8,0:0:0:0:
160,224,19236,1,0,0:0:0:0:
128,160,19448,1,8,0:0:0:0:
288,256,19870,1,0,0:0:0:0:
256,256,19976,1,0,0:0:0:0:
256,256,20081,1,0,0:0:0:0:
384,256,20293,1,8,0:0:0:0:
165,186,20715,1,12,0:0:0:0:
176,244,20926,1,8,0:0:0:0:
246,248,21138,1,0,0:0:0:0:
245,256,21349,1,0,0:0:0:0:
258,257,21560,1,8,0:0:0:0:
259,299,21983,1,8,0:0:0:0:
216,320,22194,1,0,0:0:0:0:
282,296,22405,1,0,0:0:0:0:
327,293,22828,1,8,0:0:0:0:
96,192,23039,1,0,0:0:0:0:
96,192,23145,1,0,0:0:0:0:
96,192,23250,1,0,0:0:0:0:
234,297,23462,1,0,0:0:0:0:
179,222,23673,1,8,0:0:0:0:
234,297,23884,1,0,0:0:0:0:
250,220,24307,1,0,0:0:0:0:
250,220,24518,1,0,0:0:0:0:
250,220,24729,1,8,0:0:0:0:
250,220,25152,1,8,0:0:0:0:
246,226,25363,1,0,0:0:0:0:
185,286,25574,1,8,0:0:0:0:
234,178,25786,1,8,0:0:0:0:
234,178,25997,1,0,0:0:0:0:
301,288,26208,1,8,0:0:0:0:
92,240,26631,1,0,0:0:0:0:
172,293,26736,1,0,0:0:0:0:
172,293,26842,1,0,0:0:0:0:
181,224,27053,1,8,0:0:0:0:
72,242,27476,1,0,0:0:0:0:
117,268,27898,1,8,0:0:0:0:
117,268,28321,1,0,0:0:0:0:
224,256,29166,1,8,0:0:0:0:
256,256,29377,1,8,0:0:0:0:
320,288,29588,1,0,0:0:0:0:
320,288,29800,1,0,0:0:0:0:
352,256,30011,1,8,0:0:0:0:
352,256,30222,1,0,0:0:0:0:
352,256,30434,1,8,0:0:0:0:
128,224,30856,1,8,0:0:0:0:
160,224,31067,1,8,0:0:0:0:
192,256,31279,1,0,0:0:0:0:
192,256,31490,1,0,0:0:0:0:
192,256,31701,1,8,0:0:0:0:
256,192,32124,1,4,0:0:0:0:
35,122,32546,2,0,L|388:81,1,350
62,209,33814,1,0,0:0:0:0:
255,238,34236,5,4,0:0:0:0:
304,285,34659,1,0,0:0:0:0:
339,298,35081,1,0,0:0:0:0:
269,293,35398,1,0,0:0:0:0:
345,273,35715,1,0,0:0:0:0:
276,231,35926,1,8,0:0:0:0:
328,235,36349,1,8,0:0:0:0:
114,257,36772,1,8,0:0:0:0:
232,300,37088,1,8,0:0:0:0:
184,251,37405,1,8,0:0:0:0:
184,251,37617,1,0,0:0:0:0:
306,229,38039,1,0,0:0:0:0:
163,232,38462,1,0,0:0:0:0:
263,289,38779,1,0,0:0:0:0:
263,289,39095,1,0,0:0:0:0:
92,217,39307,1,8,0:0:0:0:
143,249,39729,1,8,0:0:0:0:
183,270,40152,1,8,0:0:0:0:
234,271,40469,1,8,0:0:0:0:
234,271,40786,1,8,0:0:0:0:
185,218,40997,1,4,0:0:0:0:
308,260,41419,1,0,0:0:0:0:
308,260,41842,1,0,0:0:0:0:
308,260,42159,1,0,0:0:0:0:
308,260,42476,1,0,0:0:0:0:
343,264,42687,1,8,0:0:0:0:
343,264,43110,1,8,0:0:0:0:
79,235,43532,1,8,0:0:0:0:
154,238,43849,1,8,0:0:0:0:
154,238,44166,1,8,0:0:0:0:
154,238,44377,1,0,0:0:0:0:
225,257,44800,1,0,0:0:0:0:
137,236,45222,1,0,0:0:0:0:
265,230,45539,1,0,0:0:0:0:
265,230,45856,1,0,0:0:0:0:
164,188,46067,1,4,0:0:0:0:
172,291,46490,1,4,0:0:0:0:
185,287,46912,1,12,0:0:0:0:
185,286,47335,1,12,0:0:0:0:
228,227,47757,5,4,0:0:0:0:
327,215,48074,1,0,0:0:0:0:
324,220,48391,1,0,0:0:0:0:
270,271,48603,1,8,0:0:0:0:
226,226,48919,1,8,0:0:0:0:
148,173,49236,1,8,0:0:0:0:
148,173,49448,1,0,0:0:0:0:
109,164,49764,1,0,0:0:0:0:
184,238,50081,1,8,0:0:0:0:
184,238,50293,1,0,0:0:0:0:
120,238,50610,1,0,0:0:0:0:
120,238,50926,1,0,0:0:0:0:
197,253,51138,1,8,0:0:0:0:
266,269,51455,1,8,0:0:0:0:
266,269,51772,1,8,0:0:0:0:
245,258,51983,1,8,0:0:0:0:
238,258,52300,1,8,0:0:0:0:
237,260,52617,1,8,0:0:0:0:
237,260,52828,1,0,0:0:0:0:
238,258,53145,1,0,0:0:0:0:
237,260,53462,1,8,0:0:0:0:
237,260,53673,1,0,0:0:0:0:
238,258,53990,1,0,0:0:0:0:
237,260,54307,1,0,0:0:0:0:
221,257,54518,1,12,0:0:0:0:
137,222,55574,1,8,0:0:0:0:
137,222,55891,1,8,0:0:0:0:
137,222,56208,1,4,0:0:0:0:
172,212,57053,1,12,0:0:0:0:
256,192,57898,12,0,59377,0:0:0:0:
230,142,59588,5,0,0:0:0:0:
160,160,59694,1,0,0:0:0:0:
230,142,59800,1,0,0:0:0:0:
230,142,60011,1,8,0:0:0:0:
230,142,60222,1,0,0:0:0:0:
186,257,60434,1,8,0:0:0:0:
186,257,60539,1,8,0:0:0:0:
186,257,60645,1,8,0:0:0:0:
224,224,61279,5,12,0:0:0:0:
192,160,61701,1,0,0:0:0:0:
224,256,62124,1,8,0:0:0:0:
288,256,62441,1,8,0:0:0:0:
256,192,62546,1,8,0:0:0:0:
288,224,62757,1,0,0:0:0:0:
160,224,62969,1,8,0:0:0:0:
160,224,63180,1,0,0:0:0:0:
288,192,63391,1,8,0:0:0:0:
288,192,63497,1,8,0:0:0:0:
160,224,63603,1,8,0:0:0:0:
256,224,63814,1,0,0:0:0:0:
223,284,64448,1,0,0:0:0:0:
261,264,64870,1,0,0:0:0:0:
330,260,65081,1,8,0:0:0:0:
330,260,65187,1,8,0:0:0:0:
330,260,65293,1,8,0:0:0:0:
191,194,65504,1,0,0:0:0:0:
272,181,65926,1,8,0:0:0:0:
272,181,66138,1,8,0:0:0:0:
263,181,66349,1,0,0:0:0:0:
299,200,66560,1,8,0:0:0:0:
299,200,66772,1,8,0:0:0:0:
299,200,66983,1,0,0:0:0:0:
299,200,67194,1,8,0:0:0:0:
299,200,67405,1,0,0:0:0:0:
299,200,67617,1,8,0:0:0:0:
256,224,68039,1,8,0:0:0:0:
192,192,68250,1,8,0:0:0:0:
192,192,68462,1,0,0:0:0:0:
224,288,68884,1,8,0:0:0:0:
224,288,68990,1,8,0:0:0:0:
224,288,69095,1,8,0:0:0:0:
224,288,69307,1,0,0:0:0:0:
224,160,69729,1,8,0:0:0:0:
224,160,69941,1,8,0:0:0:0:
224,160,70152,1,0,0:0:0:0:
224,160,70363,1,0,0:0:0:0:
153,235,70574,1,8,0:0:0:0:
247,240,70997,1,8,0:0:0:0:
247,240,71208,1,0,0:0:0:0:
304,250,71419,1,0,0:0:0:0:
237,186,71842,1,8,0:0:0:0:
263,226,72264,1,0,0:0:0:0:
311,210,72476,1,8,0:0:0:0:
263,226,72687,1,8,0:0:0:0:
288,209,72898,1,0,0:0:0:0:
309,213,73321,1,8,0:0:0:0:
293,214,73532,1,0,0:0:0:0:
311,210,73638,1,0,0:0:0:0:
263,226,73743,1,0,0:0:0:0:
289,215,73955,1,8,0:0:0:0:
224,224,74377,1,8,0:0:0:0:
224,224,74483,1,8,0:0:0:0:
224,224,74588,1,8,0:0:0:0:
281,240,74800,1,4,0:0:0:0:
257,142,75222,1,0,0:0:0:0:
256,224,75645,1,8,0:0:0:0:
256,224,75962,1,8,0:0:0:0:
256,224,76067,1,8,0:0:0:0:
242,231,76279,1,0,0:0:0:0:
306,214,76490,1,8,0:0:0:0:
343,203,76701,1,0,0:0:0:0:
354,204,76912,1,8,0:0:0:0:
354,204,77018,1,8,0:0:0:0:
130,184,77124,1,8,0:0:0:0:
354,204,77335,1,0,0:0:0:0:
268,275,77969,1,8,0:0:0:0:
237,167,78391,1,0,0:0:0:0:
237,167,78603,1,8,0:0:0:0:
230,169,78814,1,0,0:0:0:0:
265,197,79025,1,8,0:0:0:0:
294,210,79236,1,8,0:0:0:0:
294,210,79448,1,0,0:0:0:0:
126,250,79659,1,8,0:0:0:0:
173,264,79870,1,0,0:0:0:0:
252,299,80293,1,8,0:0:0:0:
252,299,80504,1,8,0:0:0:0:
234,289,80715,1,0,0:0:0:0:
197,262,80821,1,0,0:0:0:0:
197,262,80926,1,0,0:0:0:0:
197,262,81138,1,8,0:0:0:0:
193,228,81349,1,0,0:0:0:0:
218,238,81560,1,8,0:0:0:0:
218,238,81772,1,8,0:0:0:0:
218,238,81983,1,0,0:0:0:0:
193,228,82405,1,8,0:0:0:0:
192,228,82511,1,8,0:0:0:0:
192,228,82617,1,8,0:0:0:0:
191,230,82828,1,0,0:0:0:0:
274,237,83250,1,8,0:0:0:0:
274,237,83462,1,8,0:0:0:0:
274,237,83673,1,0,0:0:0:0:
274,237,83884,1,0,0:0:0:0:
274,237,84095,1,8,0:0:0:0:
204,246,84518,1,8,0:0:0:0:
204,246,84729,1,0,0:0:0:0:
204,246,84941,1,0,0:0:0:0:
261,262,85363,1,8,0:0:0:0:
298,258,85786,1,0,0:0:0:0:
298,258,86208,1,8,0:0:0:0:
274,251,86419,1,0,0:0:0:0:
326,226,86631,1,12,0:0:0:0:
326,226,86842,1,12,0:0:0:0:
326,226,87053,1,12,0:0:0:0:
