osu file format v14

[General]
AudioFilename: kanashii ureshii.mp3
AudioLeadIn: 0
PreviewTime: 61173
Countdown: 0
SampleSet: Normal
StackLeniency: 0.7
Mode: 1
LetterboxInBreaks: 0
WidescreenStoryboard: 0

[Editor]
DistanceSpacing: 1.3
BeatDivisor: 4
GridSize: 32
TimelineZoom: 1

[Metadata]
Title:Kanashii Ureshii
TitleUnicode:かなしいうれしい
Artist:FREDERIC
ArtistUnicode:フレデリック
Creator:Nardoxyribonucleic
Version:Futsuu
Source:恋と嘘
Tags:Taiko Koi to Uso Love and Lies Opening TV Size Kisses Chaoslitz
BeatmapID:1398500
BeatmapSetID:659103

[Difficulty]
HPDrainRate:6
CircleSize:5
OverallDifficulty:4
ApproachRate:4
SliderMultiplier:1.4
SliderTickRate:1

[Events]
//Background and Video events
0,0,"bg4.jpg",0,65
//Break Periods
//Storyboard Layer 0 (Background)
//Storyboard Layer 1 (Fail)
//Storyboard Layer 2 (Pass)
//Storyboard Layer 3 (Foreground)
//Storyboard Sound Samples

[TimingPoints]
434,422.535211267606,4,1,0,55,1,0
7194,-100,4,1,0,60,0,0
20715,-100,4,1,0,65,0,0
34236,-100,4,1,0,70,0,0
47757,-100,4,1,0,75,0,0
54518,-100,4,1,0,80,0,0
61279,-100,4,1,0,85,0,1
86631,-100,4,1,0,85,0,0

[HitObjects]
256,192,434,5,0,0:0:0:0:
256,192,856,1,0,0:0:0:0:
256,192,1067,1,0,0:0:0:0:
256,192,1279,1,8,0:0:0:0:
256,192,2124,1,8,0:0:0:0:
256,192,2546,1,8,0:0:0:0:
256,192,2757,1,0,0:0:0:0:
256,192,2969,1,0,0:0:0:0:
256,192,3814,1,0,0:0:0:0:
256,192,4236,1,0,0:0:0:0:
256,192,4448,1,0,0:0:0:0:
256,192,4659,1,8,0:0:0:0:
256,192,5504,1,4,0:0:0:0:
256,192,5926,1,12,0:0:0:0:
256,192,6349,1,4,0:0:0:0:
256,192,6772,1,12,0:0:0:0:
256,192,7194,1,4,0:0:0:0:
256,192,7617,1,8,0:0:0:0:
256,192,8039,1,0,0:0:0:0:
256,192,8462,1,8,0:0:0:0:
256,192,8673,1,0,0:0:0:0:
256,192,8884,1,0,0:0:0:0:
256,192,9307,1,8,0:0:0:0:
256,192,10152,1,8,0:0:0:0:
256,192,10574,1,0,0:0:0:0:
256,192,10997,1,8,0:0:0:0:
256,192,11419,1,8,0:0:0:0:
256,192,11631,1,8,0:0:0:0:
256,192,11842,1,0,0:0:0:0:
256,192,12264,1,0,0:0:0:0:
256,192,12687,1,8,0:0:0:0:
256,192,13955,1,8,0:0:0:0:
256,192,14377,1,0,0:0:0:0:
256,192,14588,1,8,0:0:0:0:
256,192,15222,1,8,0:0:0:0:
256,192,15645,1,0,0:0:0:0:
256,192,16067,1,8,0:0:0:0:
256,192,16279,1,0,0:0:0:0:
256,192,16912,1,8,0:0:0:0:
256,192,17335,1,0,0:0:0:0:
256,192,17757,1,8,0:0:0:0:
256,192,17969,1,0,0:0:0:0:
256,192,18180,1,8,0:0:0:0:
256,192,18603,1,0,0:0:0:0:
256,192,19025,1,8,0:0:0:0:
256,192,19870,1,0,0:0:0:0:
256,192,20081,1,0,0:0:0:0:
256,192,20293,1,8,0:0:0:0:
256,192,20715,1,4,0:0:0:0:
256,192,21138,1,8,0:0:0:0:
256,192,21560,1,0,0:0:0:0:
256,192,21983,1,8,0:0:0:0:
256,192,22194,1,0,0:0:0:0:
256,192,22405,1,0,0:0:0:0:
256,192,22828,1,8,0:0:0:0:
256,192,23673,1,8,0:0:0:0:
256,192,24095,1,0,0:0:0:0:
256,192,24518,1,8,0:0:0:0:
256,192,24729,1,8,0:0:0:0:
256,192,25152,1,8,0:0:0:0:
256,192,25363,1,0,0:0:0:0:
256,192,25786,1,0,0:0:0:0:
256,192,26208,1,8,0:0:0:0:
256,192,27476,1,0,0:0:0:0:
256,192,27898,1,8,0:0:0:0:
256,192,28110,1,0,0:0:0:0:
256,192,28321,1,0,0:0:0:0:
256,192,29166,1,8,0:0:0:0:
256,192,29588,1,8,0:0:0:0:
256,192,29800,1,0,0:0:0:0:
256,192,30011,1,8,0:0:0:0:
256,192,30434,1,8,0:0:0:0:
256,192,30856,1,0,0:0:0:0:
256,192,31279,1,8,0:0:0:0:
256,192,31490,1,8,0:0:0:0:
256,192,31701,1,0,0:0:0:0:
256,192,32546,2,0,L|320:192,12,35
256,192,34236,1,12,0:0:0:0:
256,192,34659,1,0,0:0:0:0:
256,192,34870,1,0,0:0:0:0:
256,192,35081,1,8,0:0:0:0:
256,192,35926,1,8,0:0:0:0:
256,192,36349,1,8,0:0:0:0:
256,192,36560,1,0,0:0:0:0:
256,192,36772,1,0,0:0:0:0:
256,192,37617,1,8,0:0:0:0:
256,192,38039,1,0,0:0:0:0:
256,192,38250,1,0,0:0:0:0:
256,192,38462,1,8,0:0:0:0:
256,192,39307,1,8,0:0:0:0:
256,192,39729,1,0,0:0:0:0:
256,192,39941,1,8,0:0:0:0:
256,192,40152,1,0,0:0:0:0:
256,192,40574,1,8,0:0:0:0:
256,192,40997,1,12,0:0:0:0:
256,192,41419,1,0,0:0:0:0:
256,192,41631,1,0,0:0:0:0:
256,192,41842,1,8,0:0:0:0:
256,192,42687,1,8,0:0:0:0:
256,192,43110,1,8,0:0:0:0:
256,192,43321,1,0,0:0:0:0:
256,192,43532,1,0,0:0:0:0:
256,192,44377,1,8,0:0:0:0:
256,192,44800,1,0,0:0:0:0:
256,192,45011,1,0,0:0:0:0:
256,192,45222,1,8,0:0:0:0:
256,192,46067,1,4,0:0:0:0:
256,192,46490,1,12,0:0:0:0:
256,192,46912,1,4,0:0:0:0:
256,192,47335,1,12,0:0:0:0:
256,192,47757,1,12,0:0:0:0:
256,192,48603,1,8,0:0:0:0:
256,192,48919,1,0,0:0:0:0:
256,192,49236,1,8,0:0:0:0:
256,192,49448,1,8,0:0:0:0:
256,192,50293,1,0,0:0:0:0:
256,192,50610,1,0,0:0:0:0:
256,192,50926,1,0,0:0:0:0:
256,192,51138,1,8,0:0:0:0:
256,192,51983,1,8,0:0:0:0:
256,192,52300,1,0,0:0:0:0:
256,192,52617,1,8,0:0:0:0:
256,192,52828,1,0,0:0:0:0:
256,192,53673,1,0,0:0:0:0:
256,192,53990,1,8,0:0:0:0:
256,192,54307,1,0,0:0:0:0:
256,192,54518,1,12,0:0:0:0:
256,192,56208,1,4,0:0:0:0:
256,192,57053,1,12,0:0:0:0:
256,192,57898,1,4,0:0:0:0:
256,192,58321,12,0,60434,0:0:0:0:
256,192,61279,5,12,0:0:0:0:
256,192,62124,1,0,0:0:0:0:
256,192,62546,1,8,0:0:0:0:
256,192,62969,1,0,0:0:0:0:
256,192,63180,1,0,0:0:0:0:
256,192,63391,1,8,0:0:0:0:
256,192,63814,1,0,0:0:0:0:
256,192,64236,1,8,0:0:0:0:
256,192,64448,1,0,0:0:0:0:
256,192,64870,1,8,0:0:0:0:
256,192,65081,1,8,0:0:0:0:
256,192,65504,1,0,0:0:0:0:
256,192,66349,1,0,0:0:0:0:
256,192,66772,1,8,0:0:0:0:
256,192,66983,1,8,0:0:0:0:
256,192,67194,1,0,0:0:0:0:
256,192,67617,1,8,0:0:0:0:
256,192,68039,1,0,0:0:0:0:
256,192,68462,1,8,0:0:0:0:
256,192,68884,1,0,0:0:0:0:
256,192,69095,1,0,0:0:0:0:
256,192,69307,1,8,0:0:0:0:
256,192,69729,1,0,0:0:0:0:
256,192,70574,1,8,0:0:0:0:
256,192,70997,1,8,0:0:0:0:
256,192,71419,1,0,0:0:0:0:
256,192,71842,1,8,0:0:0:0:
256,192,72053,1,8,0:0:0:0:
256,192,72264,1,0,0:0:0:0:
256,192,72687,1,8,0:0:0:0:
256,192,73110,1,0,0:0:0:0:
256,192,73532,1,8,0:0:0:0:
256,192,73743,1,0,0:0:0:0:
256,192,73955,1,8,0:0:0:0:
256,192,74377,1,0,0:0:0:0:
256,192,74800,1,12,0:0:0:0:
256,192,75645,1,0,0:0:0:0:
256,192,76067,1,8,0:0:0:0:
256,192,76490,1,0,0:0:0:0:
256,192,76701,1,0,0:0:0:0:
256,192,76912,1,8,0:0:0:0:
256,192,77335,1,0,0:0:0:0:
256,192,77757,1,8,0:0:0:0:
256,192,77969,1,0,0:0:0:0:
256,192,78391,1,8,0:0:0:0:
256,192,78603,1,8,0:0:0:0:
256,192,79025,1,0,0:0:0:0:
256,192,79870,1,0,0:0:0:0:
256,192,80293,1,8,0:0:0:0:
256,192,80715,1,0,0:0:0:0:
256,192,80926,1,8,0:0:0:0:
256,192,81138,1,0,0:0:0:0:
256,192,81349,1,0,0:0:0:0:
256,192,81560,1,8,0:0:0:0:
256,192,81983,1,8,0:0:0:0:
256,192,82405,1,0,0:0:0:0:
256,192,82617,1,0,0:0:0:0:
256,192,82828,1,8,0:0:0:0:
256,192,83250,1,0,0:0:0:0:
256,192,84095,1,8,0:0:0:0:
256,192,84518,1,8,0:0:0:0:
256,192,84941,1,0,0:0:0:0:
256,192,85363,1,8,0:0:0:0:
256,192,85786,1,0,0:0:0:0:
256,192,85997,1,0,0:0:0:0:
256,192,86208,1,0,0:0:0:0:
256,192,86631,1,12,0:0:0:0:
256,192,87053,1,12,0:0:0:0:
