osu file format v5

[General]
AudioFilename: FM Static - Nice Piece of Art.mp3
AudioLeadIn: 0
PreviewTime: -1
Countdown: 2
SampleSet: Normal
EditorBookmarks: 40

[Metadata]
Title:Nice Piece of Art
Artist:FM Static
Creator:calv1124
Version:Hard

[Difficulty]
HPDrainRate:3
CircleSize:5
OverallDifficulty:5
SliderMultiplier:1.5
SliderTickRate:4

[Events]
//Background and Video events
//Break Periods
2,77494,82306
//Storyboard Layer 0 (Background)
//Storyboard Layer 1 (Failing)
//Storyboard Layer 2 (Passing)
//Storyboard Layer 3 (Foreground)
//Storyboard Sound Samples
//Background Colour Transformations
3,100,163,162,255

[TimingPoints]
0,172.4667,4,1,0,100

[HitObjects]
256,64,6208,1,4
256,160,6898,1,4
256,192,7243,1,4
256,224,7588,1,4
256,256,7933,1,4
256,288,8278,1,4
320,288,8623,1,0
320,256,8968,1,0
320,224,9313,1,0
256,64,10003,1,0
256,96,10348,1,0
256,128,10692,1,0
192,192,11382,1,0
320,192,11727,1,0
256,192,12417,1,0
256,256,12762,1,0
256,320,13107,1,0
256,64,14832,5,0
320,96,15522,1,0
352,160,15866,1,0
224,288,16211,1,0
160,256,16556,1,0
128,192,16901,1,0
256,128,17246,1,0
256,192,17591,1,0
256,256,17936,1,0
128,64,18281,1,0
384,64,18626,1,0
128,320,18971,1,0
384,320,19316,1,0
256,128,19661,1,0
256,192,20006,1,0
256,256,20351,1,0
64,320,21040,1,0
256,32,21385,1,0
448,320,21730,1,0
256,32,22765,5,0
256,352,23110,1,0
256,256,23800,1,0
256,128,24145,1,0
256,192,24490,1,0
256,32,25525,1,0
256,352,25870,1,0
256,192,26904,1,0
256,192,27249,12,0,31390
256,96,32078,5,0
256,192,32423,1,0
256,288,32768,1,0
416,192,33458,1,0
256,32,33803,1,0
96,192,34493,1,0
256,352,34838,1,0
352,192,35183,5,0
256,96,35528,1,0
160,192,35873,1,0
256,288,36218,1,0
256,192,36562,5,0
256,192,36907,1,0
32,192,37597,5,0
96,192,37942,1,0
160,192,38287,1,0
224,192,38632,1,0
288,192,38977,1,0
352,192,39322,1,0
416,192,39667,1,0
480,192,40012,1,0
448,128,40357,1,0
384,128,40702,1,0
320,128,41047,1,0
256,128,41392,1,0
192,128,41736,1,0
128,128,42081,1,0
64,128,42426,1,0
256,96,43461,1,0
256,288,43806,1,0
256,32,44841,1,0
256,352,45186,1,0
256,192,45876,1,0
256,128,46221,1,0
256,256,46566,1,0
416,192,47600,1,0
96,192,47945,1,0
96,320,49325,5,0
96,64,49670,1,0
416,64,50015,1,0
416,320,50360,1,0
256,192,50705,1,0
256,192,51050,1,0
256,192,51395,1,0
256,352,51567,2,0,B|256:192,1,150
256,32,52429,2,0,B|256:192,1,150
128,96,53119,5,0
384,96,53809,1,0
256,320,54499,1,0
256,192,55016,1,0
256,192,55361,1,0
64,320,55879,1,0
64,320,56224,2,0,B|448:64,1,450
256,192,57258,5,0
256,192,57603,1,0
224,224,58638,1,0
224,160,58983,1,0
288,160,59328,1,0
288,224,59673,1,0
256,192,60018,1,0
64,0,60363,2,0,B|224:0|416:64|416:416,1,600
128,320,61398,5,0
128,320,61743,1,0
128,320,62088,1,0
128,320,62432,1,0
128,320,62777,1,0
128,320,63122,1,0
160,288,63812,1,0
192,256,64157,1,0
224,224,64502,1,0
256,192,64847,1,0
288,224,65537,1,0
320,256,65882,1,0
352,288,66227,1,0
128,288,66917,1,0
128,288,67262,1,0
128,288,68296,1,0
128,288,68641,1,0
128,288,69331,1,0
128,288,69676,1,0
128,288,70021,1,0
128,288,70366,1,0
128,288,70711,1,0
128,288,71056,1,0
128,288,71401,1,0
128,288,72091,1,0
128,288,72436,1,4
128,288,72780,1,0
128,288,73125,1,0
128,288,73470,1,0
128,288,73815,1,0
128,288,74160,1,0
128,288,74850,1,0
128,288,75195,1,0
128,288,75540,1,0
128,288,75885,1,0
128,288,76575,1,0
128,288,76920,1,0
128,288,77265,1,0
256,64,83128,5,4
256,64,83473,1,0
256,160,84163,1,4
256,192,84508,1,4
256,224,84853,1,4
256,256,85198,1,4
256,288,85543,1,4
320,288,85888,1,0
320,256,86233,1,0
320,224,86578,1,0
256,64,87268,1,0
256,96,87613,1,0
256,128,87958,1,0
192,192,88647,1,0
320,192,88992,1,0
256,192,89337,1,0
256,192,89682,1,0
256,256,90027,1,0
256,320,90372,1,0
256,96,90717,1,0
352,192,91062,1,0
160,192,91407,1,0
256,192,91752,1,0
256,64,92097,5,0
320,96,92787,1,0
352,160,93132,1,0
224,288,93476,1,0
160,256,93821,1,0
128,192,94166,1,0
256,128,94511,1,0
256,192,94856,1,0
256,256,95201,1,0
128,64,95546,1,0
384,64,95891,1,0
128,320,96236,1,0
384,320,96581,1,0
256,128,96926,1,0
256,192,97271,1,0
256,256,97616,1,0
64,320,98306,1,0
256,32,98650,1,0
448,320,98995,1,0
256,32,100030,5,0
256,352,100375,1,0
256,256,101065,1,0
256,128,101410,1,0
256,192,101755,1,0
256,32,102790,1,0
256,352,103135,1,0
256,192,104169,5,0
256,32,105549,1,4
256,64,106239,1,4
256,96,106584,1,4
256,128,106929,1,4
256,160,107274,1,4
256,192,107619,1,4
256,224,107964,1,4
256,320,108654,1,4
256,64,109343,1,4
256,192,109688,1,4
256,192,110033,1,4
256,192,110378,1,4
256,320,110723,1,4
256,64,111068,1,4
64,192,111758,1,4
128,192,112103,1,4
192,192,112448,1,4
256,192,112793,1,4
320,192,113138,1,4
384,192,113483,1,4
256,288,114172,1,4
256,96,114517,1,4
96,96,115207,5,4
160,96,115552,1,4
224,96,115897,1,4
288,96,116242,1,4
352,96,116587,1,4
352,128,116932,1,4
352,160,117277,1,4
288,160,117622,1,4
224,160,117967,1,4
160,160,118312,1,4
96,160,118657,1,4
256,352,119002,1,4
256,288,119346,1,4
256,224,119691,1,4
192,128,120726,1,4
320,128,121071,1,4
256,160,122106,1,4
256,160,122451,1,4
352,192,123141,1,4
352,192,123486,1,4
352,192,123831,1,4
160,192,124865,1,4
160,192,125210,1,4
256,192,126590,1,4
256,192,126935,1,4
256,192,127280,1,4
256,192,127625,1,4
256,192,127970,1,4
256,192,128315,1,0
256,192,128660,1,0
256,192,129005,1,0
256,320,129694,1,0
256,256,130384,1,0
256,192,131074,1,0
256,320,131419,2,6,B|192:288|100:204|96:160|80:10|111:-1|183:26|285:67|251:14|298:168|240:303|231:203|275:131|213:156|241:74|299:-128|404:-21|580:-3|342:233|328:254|404:236|319:225|326:272|249:351|160:384,1,900
256,32,133144,5,0
256,96,133489,1,0
256,160,134179,1,0
256,224,134524,1,0
256,288,134868,1,0
96,288,135903,1,0
160,288,136248,1,0
224,288,136593,1,0
288,288,136938,1,0
352,288,137283,1,0
416,288,137628,1,0
96,96,138318,1,0
96,192,138663,1,0
96,288,139008,1,0
192,288,139353,1,0
320,288,139698,1,0
416,288,140042,1,0
416,192,140387,1,0
416,96,141077,1,0
256,192,141422,1,0
192,192,141767,1,0
128,192,142112,1,0
128,128,142802,1,0
192,128,143147,1,0
256,128,143492,1,0
256,192,144182,1,0
256,256,144527,1,0
320,256,145216,1,0
384,256,145561,1,0
384,192,145906,1,0
384,128,146596,1,0
320,128,146941,1,0
256,128,147286,1,0
256,192,147631,1,0
256,256,147976,1,0
192,256,148321,1,0
128,256,148666,1,0
256,32,149356,1,0
96,128,149528,2,0,B|416:128,1,300
416,192,150390,1,0
384,256,150735,1,0
352,320,151080,1,0
288,256,151425,1,0
256,128,152115,1,0
192,64,152460,1,0
128,128,152805,1,0
192,192,153150,1,0
192,128,153840,1,0
192,128,154185,1,0
192,128,154530,1,0
256,192,154875,12,0,159531
192,192,160394,2,0,B|352:192,125,150
256,32,185574,5,0
256,96,185919,1,0
256,160,186609,1,0
256,224,186954,1,0
256,288,187298,1,0
96,288,188333,1,0
160,288,188678,1,0
224,288,189023,1,0
288,288,189368,1,0
352,288,189713,1,0
416,288,190058,1,0
96,96,190748,1,0
96,192,191093,1,0
96,288,191438,1,0
192,288,191783,1,0
320,288,192128,1,0
416,288,192472,1,0
416,192,192817,1,0
416,96,193507,1,0
256,192,193852,1,0
192,192,194197,1,0
128,192,194542,1,0
128,128,195232,1,0
192,128,195577,1,0
256,128,195922,1,0
256,192,196612,1,0
256,256,196957,1,0
320,256,197646,1,0
384,256,197991,1,0
384,192,198336,1,0
384,128,199026,1,0
320,128,199371,1,0
256,128,199716,1,0
256,192,200061,1,0
256,256,200406,1,0
192,256,200751,1,0
128,256,201096,1,0
256,32,201786,1,0
96,128,201958,2,0,B|416:128,1,300
416,192,202820,1,0
384,256,203165,1,0
352,320,203510,1,0
288,256,203855,1,0
256,128,204545,1,0
192,64,204890,1,0
128,128,205235,1,0
192,192,205580,1,0
256,192,206270,1,0
256,192,206615,1,0
256,192,206960,1,0
256,192,207477,12,0,213448
