osu file format v9

[General]
AudioFilename: Katoniago ~TV size~.mp3
AudioLeadIn: 2000
PreviewTime: 52916
Countdown: 1
SampleSet: Normal
StackLeniency: 0.7
Mode: 0
LetterboxInBreaks: 1

[Editor]
DistanceSpacing: 0.8
BeatDivisor: 4
GridSize: 8

[Metadata]
Title:Katoniago (TV Size)
Artist:FLiP
Creator:jericho2442
Version:Shinpachi
Source:Yorinuki Gintama-san
Tags:opening OP 4 arken1015 arien666

[Difficulty]
HPDrainRate:1
CircleSize:3
OverallDifficulty:2
ApproachRate:2
SliderMultiplier:0.999999999999999
SliderTickRate:2

[Events]
//Background and Video events
Video,0,"Yorinuki Gintama-san OP4.AVI"
0,0,"BG.jpg"
//Break Periods
//Storyboard Layer 0 (Background)
//Storyboard Layer 1 (Fail)
//Storyboard Layer 2 (Pass)
//Storyboard Layer 3 (Foreground)
//Storyboard Sound Samples
//Background Colour Transformations
3,100,0,0,0

[TimingPoints]
100,368.098159509202,4,1,1,100,1,0
52916,-100,4,1,1,100,0,1
73713,-100,4,1,1,100,0,0
78130,366.97247706422,4,1,1,100,1,0

[Colours]
Combo1 : 0,151,151
Combo2 : 187,94,0
Combo3 : 0,128,0
SliderBorder : 30,30,30

[HitObjects]
40,192,100,2,0,B|32:56|160:32|160:32,1,200,8|0
256,64,1388,2,0,B|296:216|152:272|152:272,1,250,8|0
16,352,3044,6,0,B|216:352|216:352,1,200,8|0
128,272,4333,2,0,B|248:272|248:272|248:184|344:184|344:184,1,250,8|0
480,224,5989,5,8
464,64,6725,1,0
304,48,7461,1,8
144,48,8198,1,0
144,208,8934,6,0,B|144:352|264:360|264:360,2,200,8|0|8
464,192,11879,6,0,B|464:128|400:112|400:112,1,99.9999999999999,8|0
384,192,12615,1,0
224,192,13351,6,0,B|224:256|288:272|288:272,1,99.9999999999999,8|0
304,192,14087,1,0
144,192,14823,6,0,B|80:192|72:128|72:128,2,99.9999999999999,8|0|0
256,72,16296,5,8
416,72,17032,1,0
472,224,17768,6,0,B|344:224|320:352|320:352|232:352|232:352,1,300,8|2
160,352,19241,2,0,B|162:292|227:275|227:275|168:192|168:192|88:256|88:256,1,300,8|2
48,184,20713,6,0,B|112:136|112:136|152:104|184:112|212:120|232:144|232:144|288:220|288:220,1,300,8|2
328,280,22185,1,4
256,192,23658,12,4,26603
256,32,28075,5,8
256,192,28811,1,0
256,352,29547,6,0,B|136:336|104:232|104:232|64:232|64:232|64:160|64:160,1,300,8|2
64,96,31020,2,0,B|64:48|64:48|128:48|128:48|184:48|272:96|256:176|256:176,1,300,8|2
176,176,32492,6,0,B|186:239|240:276|318:266|354:209|366:164|320:107|320:107,1,300,8|2
288,40,33965,1,4
256,192,35437,12,4,38382
256,192,39118,5,0
96,192,39854,6,0,B|88:264|144:288|144:288,1,99.9999999999999,8|0
176,216,40590,2,0,B|223:242|210:313|210:313,1,99.9999999999999
256,368,41326,5,8
416,368,42063,1,2
488,224,42799,2,0,B|488:112|488:112,1,99.9999999999999,8|0
408,128,43535,2,0,B|408:232|408:232,1,99.9999999999999
328,224,44271,5,8
208,120,45007,1,2
88,224,45744,2,0,B|200:224|200:224,1,99.9999999999999,8|0
192,304,46480,2,0,B|304:304|304:304,1,99.9999999999999
368,304,47216,5,8
480,192,47952,1,2
368,80,48688,1,8
288,80,49057,1,0
232,136,49425,1,0
232,216,49793,1,0
192,288,50161,5,8
72,288,50713,1,0
128,184,51265,1,0
128,64,51817,1,0
232,120,52369,1,2
352,120,52922,6,0,B|456:120|456:232|456:232,1,150,4|0
448,288,53842,2,0,B|344:272|336:384|336:384,1,150,8|0
272,328,54762,1,0
152,328,55314,6,0,B|48:328|48:224|48:224,1,150,4|0
48,160,56234,1,8
48,40,56787,6,0,B|144:40|168:139|168:139,1,150,4|0
240,120,57707,1,8
320,120,58075,2,0,B|313:192|246:201|246:201|246:247|246:247,1,150,4|0
248,312,58995,6,0,B|328:376|328:376|408:312|408:312,1,200,4|0
488,224,60284,1,8
488,144,60652,1,0
368,40,61388,5,0
368,120,61756,2,0,B|408:328|208:352|208:352,1,300,4|0
152,352,63228,6,0,B|40:344|64:240|64:240,1,150,4|0
64,176,64149,1,8
184,176,64701,6,0,B|288:176|288:88|288:88,1,150,4|0
368,72,65621,2,0,B|368:232|368:232,1,150
288,232,66541,1,8
168,232,67093,6,0,B|64:224|64:328|64:328,1,150,4|0
136,360,68014,1,8
256,360,68566,6,0,B|360:368|360:264|360:264,1,150,4|0
288,232,69486,1,8
288,152,69854,2,0,B|288:40|392:48|392:48,1,150,4|0
456,48,70774,6,0,B|456:160|456:160,1,99.9999999999999,4|0
456,232,71511,2,0,B|472:336|376:352|376:352,1,150,0|8
304,352,72431,2,0,B|152:352|152:352,1,150
256,232,73719,6,8,B|256:184|216:176|216:176,2,74.9999999999999
296,232,74455,2,8,B|384:232|384:232,2,74.9999999999999
256,192,75192,12,4,78130
256,40,78863,5,0
96,40,79597,2,0,B|96:152|96:152,1,99.9999999999999,8|0
88,216,80331,2,0,B|160:216|168:160|168:160,1,99.9999999999999
240,192,81065,6,0,B|240:312|240:312,1,99.9999999999999,4|0
320,288,81799,2,0,B|320:184|320:184,1,99.9999999999999
400,192,82533,5,8
400,272,82900,1,0
376,352,83267,1,0
296,368,83634,1,0
256,192,84001,12,4,86203
