osu file format v9

[General]
AudioFilename: Katoniago ~TV size~.mp3
AudioLeadIn: 2000
PreviewTime: 52916
Countdown: 1
SampleSet: Normal
StackLeniency: 0.7
Mode: 0
LetterboxInBreaks: 1

[Editor]
Bookmarks: 68560
DistanceSpacing: 0.8
BeatDivisor: 4
GridSize: 8

[Metadata]
Title:Katoniago (TV Size)
Artist:FLiP
Creator:jericho2442
Version:Kagura
Source:Yorinuki Gintama-san
Tags:opening OP 4 arken1015 arien666

[Difficulty]
HPDrainRate:4
CircleSize:4
OverallDifficulty:4
ApproachRate:5
SliderMultiplier:1.4
SliderTickRate:2

[Events]
//Background and Video events
Video,0,"Yorinuki Gintama-san OP4.AVI"
0,0,"BG.jpg"
//Break Periods
//Storyboard Layer 0 (Background)
//Storyboard Layer 1 (Fail)
//Storyboard Layer 2 (Pass)
//Storyboard Layer 3 (Foreground)
//Storyboard Sound Samples
//Background Colour Transformations
3,100,0,0,0

[TimingPoints]
100,368.098159509202,4,1,1,100,1,0
52916,-100,4,1,1,100,0,1
73713,-100,4,1,1,100,0,0
78130,366.97247706422,4,1,1,100,1,0

[Colours]
Combo1 : 0,151,151
Combo2 : 187,94,0
Combo3 : 0,128,0
SliderBorder : 30,30,30

[HitObjects]
32,192,100,2,0,B|120:192|120:96|120:96|192:96|192:96|192:160|192:160,1,280,8|0
192,208,1020,1,0
304,208,1388,2,0,B|304:267|304:267|376:267|376:267|376:171|464:171,1,280,8|0
464,112,2308,1,8
400,24,2676,1,8
288,24,3044,6,0,B|112:24|112:208|112:208,1,280,8|0
112,256,3965,1,0
216,288,4333,2,0,B|392:288|392:104|392:104,1,280,8|0
376,56,5253,1,8
288,120,5621,1,8
192,176,5989,6,0,B|64:248|64:248|136:272|104:360|104:360,1,280,8|0
160,360,6909,1,0
272,360,7277,2,0,B|400:288|400:288|328:264|360:176|360:176,1,280,8|0
304,176,8198,1,8
416,176,8566,1,8
360,80,8934,6,0,B|264:80|248:16|248:16|160:16|160:112|160:112,1,280,8|0
160,160,9854,1,8
160,272,10222,1,4
256,352,11879,6,0,B|352:360|360:264|360:264,2,140,8|0|0
200,352,12799,1,0
88,352,13167,6,0,B|96:240|192:240|192:240,2,140,8|0|0
32,352,14087,2,0,B|32:208|32:208,1,140,8|0
32,104,14823,6,0,B|128:104|128:16|128:16,2,140,8|0|0
32,160,15744,1,0
144,160,16112,6,0,B|288:160|288:160,2,140,8|0|0
144,216,17032,2,0,B|288:216|288:216,1,140,8|0
256,320,17768,6,0,B|328:344|352:280|352:280,1,105
427,314,18320,2,0,B|427:266|419:230|387:207|342:204|314:218|314:218|293:99|293:99,1,280,2|0
243,122,19241,6,0,B|163:130|163:58|163:58,1,105,8|0
83,66,19793,2,0,B|83:210|83:210|171:210|171:314|171:314,1,280,2|0
227,298,20713,6,0,B|299:290|307:362|307:362,1,105,8|0
387,354,21265,1,0
387,298,21449,2,0,B|395:210|483:218|483:218|483:146|483:146,1,210,2|0
483,98,22185,1,4
256,48,22922,6,0,B|168:48|144:144|144:144,2,140,0|0|4
256,192,23842,12,4,26603
256,352,27339,6,0,B|256:208|256:208,1,140,8|0
144,216,28075,2,0,B|144:360|144:360,1,140,8|0
32,352,28811,2,0,B|32:208|32:208,1,140,8|0
32,104,29547,6,0,B|32:32|96:24|96:24,1,105,8|0
176,24,30099,2,0,B|178:88|119:113|119:113|119:279|119:279,1,280,2|0
176,280,31020,6,0,B|176:352|240:360|240:360,1,105,8|0
320,360,31572,2,0,B|322:296|263:271|263:271|263:105|263:105,1,280,2|0
320,104,32492,6,0,B|320:224|320:224,1,105,8|0
400,208,33044,1,0
456,208,33228,2,0,B|456:96|456:96|392:96|384:24|384:24,1,210,2|0
328,40,33965,1,4
256,248,34701,6,0,B|256:336|176:360|176:360,2,140,0|0|4
256,192,35621,12,4,38382
256,352,39118,6,0,B|72:352|56:184|56:184,1,280,0|8
168,192,40222,1,0
280,192,40590,1,8
392,192,40958,1,0
504,192,41326,6,0,B|496:96|424:80|424:80,3,140,8|0|8|0
320,80,42799,2,0,B|216:96|192:16|192:16,1,140,8|0
144,32,43351,2,0,B|144:176|144:176,1,140,2|0
152,336,44271,6,0,B|256:344|264:256|264:256,3,140,8|0|8|0
160,232,45744,2,0,B|192:152|280:160|280:160,3,140,8|0|2|0
384,160,47216,6,0,B|384:248|480:264|480:264,1,140,8|0
408,352,47952,2,0,B|256:352|256:352,1,140,8|0
205,259,48688,2,0,B|204:259|287:246|287:158,1,140,8|0
176,160,49425,2,0,B|176:159|93:172|93:260,1,140,2|0
48,160,50161,5,4
168,48,50713,1,0
336,40,51265,1,0
456,160,51817,1,0
456,328,52369,1,2
312,240,52922,6,0,B|184:232|192:88|192:88,1,210,4|0
80,96,53842,2,0,B|80:240|80:240,1,140,8|0
80,288,54394,2,0,B|96:384|192:360|192:360,1,140,4|0
352,360,55314,6,0,B|448:360|448:272|448:272,1,140,8|0
446,221,55866,2,0,B|294:221|294:221,1,140,4|0
136,224,56787,6,0,B|48:232|32:144|32:144,1,140,8|0
32,96,57339,2,0,B|176:96|176:96,1,140,4|0
176,152,57891,1,0
224,120,58075,2,0,B|368:120|368:120,1,140,4|0
416,120,58627,2,0,B|472:120|480:176|480:176,1,70
472,208,58995,6,0,B|480:304|384:320|384:320,1,140,8|0
288,316,59731,2,0,B|184:308|160:396|160:396,1,140,0|0
120,344,60284,2,0,B|120:192|120:192,1,140,8|0
128,40,61204,1,0
240,40,61572,5,0
296,40,61756,2,0,B|296:128|384:144|384:144,1,140,8|0
376,200,62308,2,0,B|232:200|232:200,1,140,0|0
184,200,62860,1,0
184,312,63228,6,0,B|96:312|75:226|75:226,1,140,4|0
80,176,63780,2,0,B|80:104|80:104,2,70,0|0|4
248,176,64701,5,4
360,176,65069,1,0
416,176,65253,2,0,B|416:264|496:288|496:288,1,140,8|0
400,352,65989,1,0
344,352,66173,2,0,B|200:352|200:352,1,140,4|0
40,352,67093,6,0,B|48:256|120:240|120:240,1,140,8|0
168,232,67646,2,0,B|160:136|88:120|88:120,1,140,4|0
248,48,68566,6,0,B|256:144|328:160|328:160,1,140,8|0
376,168,69118,2,0,B|368:264|296:280|296:280,1,140,4|0
248,280,69670,1,0
192,280,69854,2,0,B|192:279|126:265|118:169,1,140,4|0
120,112,70406,2,0,B|120:32|120:32,1,70
248,152,71142,5,0
248,40,71511,2,0,B|336:48|352:120|352:120,1,140,8|0
408,120,72063,2,0,B|408:264|408:264,1,140,4|0
272,360,72983,1,0
104,360,73535,5,0
104,304,73719,2,0,B|104:192|104:192,2,105,8|0|8
160,304,74455,2,0,B|216:208|216:208,2,105,8|0|4
256,192,75192,12,4,77768
256,192,78130,6,0,B|72:192|64:16|64:16,1,280,8|0
120,24,79047,1,0
232,24,79414,2,0,B|376:24|376:24,2,140,8|0|0
232,80,80331,2,0,B|328:64|368:152|368:152,1,140,8|0
360,240,81065,6,0,B|264:232|248:328|248:328|120:328|120:328,1,280,8|0
72,328,81983,1,0
128,232,82350,2,0,B|120:144|32:136|32:136,2,140,8|0|0
184,232,83267,2,0,B|192:144|280:136|280:136,1,140,8|0
256,192,84001,12,4,86203
