osu file format v9

[General]
AudioFilename: Katoniago ~TV size~.mp3
AudioLeadIn: 2000
PreviewTime: 52916
Countdown: 1
SampleSet: Normal
StackLeniency: 0.7
Mode: 0
LetterboxInBreaks: 1

[Editor]
DistanceSpacing: 0.8
BeatDivisor: 4
GridSize: 8

[Metadata]
Title:Katoniago (TV Size)
Artist:FLiP
Creator:jericho2442
Version:Gintoki
Source:Yorinuki Gintama-san
Tags:opening OP 4 arken1015 arien666

[Difficulty]
HPDrainRate:6
CircleSize:4
OverallDifficulty:8
ApproachRate:8
SliderMultiplier:2
SliderTickRate:2

[Events]
//Background and Video events
Video,0,"Yorinuki Gintama-san OP4.AVI"
0,0,"BG.jpg"
//Break Periods
//Storyboard Layer 0 (Background)
//Storyboard Layer 1 (Fail)
//Storyboard Layer 2 (Pass)
//Storyboard Layer 3 (Foreground)
//Storyboard Sound Samples
//Background Colour Transformations
3,100,0,0,0

[TimingPoints]
100,368.098159509202,4,1,1,100,1,0
52916,-100,4,1,1,100,0,1
73713,-100,4,1,1,100,0,0
78130,366.97247706422,4,1,1,100,1,0

[Colours]
Combo1 : 0,151,151
Combo2 : 187,94,0
Combo3 : 0,128,0
SliderBorder : 30,30,30

[HitObjects]
256,32,100,1,8
416,32,468,1,8
480,176,836,1,8
400,176,1020,1,8
240,176,1388,1,8
80,176,1756,1,8
168,312,2124,1,0
248,312,2308,1,8
328,288,2492,1,8
408,312,2676,1,8
488,288,2860,1,0
488,208,3044,6,8,B|488:72|360:80|360:80,1,200
208,80,3780,2,8,B|320:80|320:80,1,100
144,80,4333,2,8,B|149:136|206:144|206:144|144:224|144:224,1,200
256,336,5069,1,0
256,256,5253,1,8
320,296,5437,1,8
320,216,5621,1,8
256,176,5805,1,0
192,216,5989,6,8,B|157:160|200:80|256:80|311:117|311:117,2,200
192,296,6909,1,8
48,224,7277,2,8,B|128:224|128:224|104:120|152:104|152:104,1,200
280,32,8014,1,0
360,40,8198,1,8
400,104,8382,1,8
384,184,8566,1,8
400,264,8750,1,0
320,264,8934,6,8,B|264:264|264:264|232:304|232:304|168:304|168:232|168:232,2,200
312,184,9854,1,8
256,192,10222,12,4,11511
256,32,11879,6,0,B|320:32|328:96|328:96,2,100,8|0|0
248,112,12431,1,0
248,112,12523,1,0
248,112,12615,1,8
248,192,12799,1,0
240,352,13167,2,0,B|96:336|112:184|112:184,2,200,0|8|0
320,352,14087,1,0
280,280,14271,1,0
360,280,14455,1,8
400,352,14639,1,0
432,280,14823,6,0,B|431:212|359:204|359:204,1,100,8|0
376,128,15192,1,0
304,160,15376,1,0
304,160,15468,1,0
304,160,15560,1,8
312,80,15744,1,0
152,80,16112,2,0,B|176:224|8:240|8:240,2,200,0|8|0
232,80,17032,1,0
232,160,17216,1,0
232,240,17400,1,8
232,320,17584,1,0
312,320,17768,6,0,B|312:256|376:240|376:240|376:184|376:184,1,150,0|2
376,80,18320,1,0
296,80,18504,1,0
232,32,18688,1,2
168,80,18873,1,0
88,80,19057,1,2
8,80,19241,6,0,B|8:128|64:160|64:160|64:216|64:216,1,150,0|2
184,224,19793,1,0
224,296,19977,1,0
304,296,20161,1,2
344,224,20345,1,0
304,160,20529,1,2
224,160,20713,6,0,B|224:101|279:55|339:86|339:86,1,150,0|2
448,80,21265,1,0
448,160,21449,2,0,B|408:232|480:248|448:312|448:312,2,150,0|2|0
448,80,22185,1,0
256,32,22738,5,0
176,32,22922,1,0
136,104,23106,1,2
176,176,23290,1,0
256,176,23474,1,2
296,104,23658,1,8
216,104,23842,1,8
256,192,24026,12,0,26234
96,32,26603,5,8
256,32,26971,1,0
256,192,27339,1,8
256,112,27523,1,0
256,272,27891,2,0,B|199:267|181:216|181:216|176:266|108:272|108:272,1,200,0|8
112,112,28627,1,0
192,112,28811,1,0
152,184,28995,1,0
72,184,29179,1,8
32,112,29363,1,0
72,40,29547,6,0,B|232:40|232:40,1,150,0|2
344,40,30099,1,0
408,80,30284,1,0
456,144,30468,1,2
456,224,30652,1,0
408,288,30836,1,2
344,336,31020,6,0,B|288:336|288:336|232:304|192:344|192:344,1,150,0|2
80,336,31572,1,0
32,272,31756,1,0
32,192,31940,1,2
80,128,32124,1,0
80,48,32308,1,2
152,88,32492,6,0,B|172:154|156:191|80:216|80:216,1,150,0|2
216,208,33044,1,0
296,208,33228,2,0,B|296:264|248:312|181:281|181:281,2,150,0|2|0
376,208,33965,1,0
208,32,34517,6,0,B|272:24|288:80|288:80,1,100,0|8
216,112,34885,1,10
288,152,35069,1,0
360,112,35253,1,2
344,32,35437,1,8
416,56,35621,1,0
256,192,35805,12,0,38014
256,32,38382,6,0,B|192:32|152:92|156:149|193:213|272:216|308:173|308:173,1,300,8|2
256,112,39118,2,0,B|305:70|374:91|407:137|420:210|362:263|306:253|306:253,1,300,8|2
312,336,39854,6,0,B|256:336|232:280|232:280|184:280|184:280|184:328|184:328,2,200,8|2|8
472,336,40958,1,2
472,176,41326,6,0,B|472:48|344:32|344:32,1,200,8|2
272,32,41879,1,0
355,34,42063,2,0,B|264:128|360:224|360:224,1,200,8|2
352,296,42615,1,0
280,256,42799,1,8
208,296,42983,1,0
136,256,43167,1,2
56,256,43351,2,0,B|56:208|96:152|167:151|206:214|206:214,1,200
200,206,43903,1,2
256,56,44271,6,0,B|264:128|336:120|336:120|392:32|392:32,1,200,8|2
440,104,44823,1,0
380,49,45007,2,0,B|424:0|510:11|536:62|521:142|521:142,1,200,8|2
480,176,45560,1,0
480,256,45744,2,0,B|424:256|400:192|400:192|304:192|304:192,1,200,8|2
232,192,46296,1,0
232,272,46480,2,0,B|184:272|129:229|128:154|196:118|196:118,1,200,8|2
40,192,47216,6,0,B|40:80|152:16|152:16,2,200,8|2|8
40,272,48136,1,0
40,352,48320,1,2
200,352,48688,2,0,B|200:240|312:176|312:176,1,200,8|2
368,144,49241,1,0
368,224,49425,1,8
440,184,49609,1,0
440,104,49793,1,2
256,32,50161,5,4
32,192,50713,1,0
256,352,51265,1,0
480,192,51817,1,0
256,32,52369,1,2
32,192,52922,6,0,B|40:328|160:320|160:320,1,200,4|0
240,320,53474,1,8
320,304,53658,1,0
368,240,53842,1,0
376,160,54026,1,0
304,192,54210,1,8
312,112,54394,2,0,B|248:112|209:162|208:208|253:255|253:255,2,200,4|0|0
312,32,55314,5,0
232,32,55498,1,0
152,32,55682,1,8
72,32,55866,2,0,B|72:80|104:115|160:115|160:115|230:115|230:115,1,200,4|0
224,192,56419,2,0,B|112:192|112:192,1,100
48,192,56787,5,0
88,264,56971,1,0
88,264,57155,1,8
88,344,57339,2,0,B|152:344|171:286|168:256|168:256|240:256|240:256,1,200,4|0
312,256,57891,1,8
312,336,58075,2,0,B|370:337|424:272|401:201|344:184|344:184,1,200,4|0
360,112,58627,1,8
440,112,58811,1,0
400,40,58995,5,0
320,40,59179,1,0
240,56,59363,1,8
192,120,59547,1,0
192,200,59731,1,0
152,272,59915,1,0
72,296,60100,1,8
136,344,60284,2,0,B|200:344|227:303|220:256|220:256|288:256|288:256,2,200,0|0|0
72,296,61204,1,8
32,224,61388,5,0
72,152,61572,1,0
152,152,61756,2,4,B|280:152|280:16|280:16,1,200,0|4
360,24,62308,1,8
344,104,62492,1,0
304,168,62676,1,0
240,216,62860,1,0
160,232,63044,1,8
80,232,63228,6,0,B|80:288|127:314|169:314|169:314|247:314|247:314,1,200,4|0
312,312,63780,2,0,B|384:320|392:264|392:264,2,100,8|0|0
480,136,64701,6,0,B|344:136|344:16|344:16,1,200,4|0
264,20,65253,1,8
264,96,65437,2,0,B|264:208|264:208,1,100
224,264,65805,1,0
160,304,65989,2,0,B|64:352|64:352,1,100,8|4
72,192,66541,1,0
72,32,66909,5,0
72,112,67093,2,0,B|136:112|152:48|152:48,1,100,8|0
224,32,67461,1,0
304,32,67646,2,0,B|416:80|400:0|512:40|512:40,1,200,4|0
480,192,68382,6,0,B|416:192|408:256|408:256,1,100,0|8
488,272,68750,2,0,B|472:328|408:336|408:336|408:328,1,100
352,296,69118,2,0,B|280:256|248:296|192:352|144:288|144:288,1,200,4|0
88,264,69670,1,8
160,232,69854,2,0,B|159:231|191:181|247:237|279:277|351:237,1,200,4|0
296,176,70406,1,8
224,144,70590,1,0
64,144,70958,5,0
144,144,71142,1,8
184,80,71326,1,0
264,80,71511,2,0,B|328:80|344:32|344:32|448:32|448:32,1,200,0|8
480,104,72063,2,0,B|480:208|480:208|424:240|448:304|448:304,1,200,4|0
368,288,72615,1,8
208,288,72983,1,0
64,216,73351,1,0
64,136,73535,5,8
64,56,73719,1,8
176,96,73995,1,0
296,96,74271,1,8
352,152,74455,1,8
240,200,74731,1,0
240,320,75007,1,8
320,320,75192,6,0,B|448:320|471:209|471:209,1,200,2|0
413,155,75744,2,0,B|401:216|384:264|308:260|269:246|269:246,1,200,2|0
272,168,76296,6,0,B|216:168|176:208|162:276|228:312|228:312,1,200,2|0
153,347,76848,2,0,B|104:289|102:231|117:186|148:148|148:148,1,200,2|0
56,160,77400,2,0,B|82:99|119:70|183:101|183:101|200:48|200:48,1,200,2|0
352,32,78130,6,0,B|416:32|432:96|432:96,2,100,8|0|0
344,112,78680,1,0
344,112,78772,1,0
344,112,78863,1,8
344,192,79047,1,0
312,264,79230,1,0
240,304,79414,5,8
96,232,79781,1,0
224,136,80148,1,0
192,208,80331,1,8
160,280,80515,1,0
96,328,80698,1,0
32,280,80882,1,0
32,200,81065,6,0,B|32:88|32:88,1,100,8|0
104,64,81432,1,0
176,24,81616,1,0
176,24,81707,1,0
176,24,81799,1,8
256,24,81983,1,0
328,64,82166,1,0
400,24,82350,5,8
488,160,82717,1,0
400,296,83084,1,0
480,296,83267,1,8
440,224,83451,1,0
360,224,83634,1,0
320,296,83818,1,0
240,296,84001,6,0,B|168:296|152:224|152:224,1,100,8|0
128,168,84368,2,0,B|120:104|48:104|48:104,1,100
56,184,84735,2,0,B|56:296|56:296,1,100,8|0
88,360,85102,1,0
88,360,85285,5,8
248,368,85652,1,0
320,224,86019,1,8
256,192,86203,12,4,88772
