osu file format v14

[General]
AudioFilename: sevendeadlysinsed.mp3
AudioLeadIn: 1500
PreviewTime: 53489
Countdown: 0
SampleSet: Soft
StackLeniency: 0.7
Mode: 0
LetterboxInBreaks: 0
WidescreenStoryboard: 0

[Editor]
DistanceSpacing: 0.9
BeatDivisor: 4
GridSize: 4
TimelineZoom: 1.5

[Metadata]
Title:7 -seven- -TV SIZE -
TitleUnicode:7 -seven- -TV SIZE -
Artist:FLOWxGRANRODEO
ArtistUnicode:FLOW×GRANRODEO
Creator:xxdeathx
Version:Insane
Source:Nanatsu no Taizai
Tags:the seven deadly sins ending ed 七つの大罪 flow granrodeo a-1 pictures
BeatmapID:647685
BeatmapSetID:282345

[Difficulty]
HPDrainRate:5.5
CircleSize:4
OverallDifficulty:7
ApproachRate:9
SliderMultiplier:1.48
SliderTickRate:1

[Events]
//Background and Video events
Video,0,"video.avi"
0,0,"bggc.jpg",0,0
//Break Periods
//Storyboard Layer 0 (Background)
//Storyboard Layer 1 (Fail)
//Storyboard Layer 2 (Pass)
//Storyboard Layer 3 (Foreground)
//Storyboard Sound Samples

[TimingPoints]
637,352.941176470588,4,2,1,60,1,0
3460,-100,4,2,1,70,0,0
10166,-66.6666666666667,4,2,1,70,0,0
10519,-100,4,2,1,70,0,0
11534,-66.6666666666667,4,2,1,70,0,0
11754,-66.6666666666667,4,2,1,5,0,0
11931,-86.9565217391304,4,2,1,80,0,0
17048,-86.9565217391304,4,2,1,70,0,0
17578,-100,4,2,1,60,0,0
21813,-66.6666666666667,4,2,1,80,0,0
23225,-100,4,2,1,60,0,0
30284,-66.6666666666667,4,2,1,80,0,0
31695,-100,4,2,1,60,0,0
37342,-125,4,2,1,50,0,0
47225,-100,4,2,1,60,0,0
53254,-55.5555555555556,4,2,1,30,0,0
53578,-100,4,2,1,50,0,0
54284,-86.9565217391304,4,2,1,70,0,1
65569,352.941176470588,4,2,1,70,1,1
65569,-86.9565217391304,4,2,1,70,0,1
70510,315.789473684211,4,2,1,70,1,1
70667,394.736842105263,4,2,1,70,1,1
70864,352.941176470588,4,2,1,70,1,1
70864,-86.9565217391304,4,2,1,70,0,1
71216,352.941176470588,4,2,1,70,1,1
71216,-86.9565217391304,4,2,1,70,0,1
75451,-125,4,2,1,60,0,1
76863,-86.9565217391304,4,2,1,80,0,0
88157,-200,4,2,1,40,0,0
88863,-200,4,2,1,20,0,0

[Colours]
Combo1 : 185,117,247
Combo2 : 251,235,87
Combo3 : 90,143,224
Combo4 : 166,248,54
Combo5 : 255,172,34

[HitObjects]
144,44,637,6,0,P|192:40|244:48,1,74,8|0,0:0|0:0,0:0:0:0:
368,88,989,2,0,P|320:84|268:92,1,74,8|0,0:0|0:0,0:0:0:0:
144,128,1342,2,0,P|192:124|244:132,1,74,8|0,0:0|0:0,0:0:0:0:
368,172,1695,2,0,P|320:168|268:176,1,74,8|0,0:0|0:0,0:0:0:0:
144,268,2048,6,0,P|192:272|244:264,1,74,8|0,0:0|0:0,0:0:0:0:
368,172,2401,2,0,P|320:168|268:176,1,74,8|0,0:0|0:0,0:0:0:0:
304,328,2754,2,0,P|308:280|300:228,1,74,8|0,0:0|0:0,0:0:0:0:
208,116,3107,2,0,P|204:164|212:216,1,74,12|0,0:0|0:0,0:0:0:0:
328,68,3460,5,12,0:0:0:0:
328,68,3813,2,0,P|400:64|476:12,1,148,8|8,0:0|0:0,0:0:0:0:
225,45,4342,2,0,P|209:93|213:145,1,74,0|8,0:0|0:0,0:0:0:0:
264,224,4695,1,0,0:0:0:0:
264,224,4872,6,0,P|204:208|136:256,1,148,10|8,0:0|0:0,0:0:0:0:
304,300,5401,1,0,0:0:0:0:
392,236,5578,2,0,L|416:76,1,148,8|8,0:0|0:0,0:0:0:0:
304,300,6284,5,10,0:0:0:0:
304,300,6636,2,0,P|220:328|164:300,1,148,8|8,0:0|0:0,0:0:0:0:
224,152,7166,2,0,P|236:196|236:240,1,74,0|8,0:0|0:0,0:0:0:0:
128,168,7519,1,0,0:0:0:0:
128,168,7695,6,0,P|116:104|128:8,1,148,10|8,0:0|0:0,0:0:0:0:
224,152,8225,1,0,0:0:0:0:
304,208,8401,2,0,P|336:204|392:168,1,74,8|0,0:0|0:0,0:0:0:0:
226,237,8754,2,0,P|213:266|216:333,1,74,8|0,0:0|0:0,0:0:0:0:
352,334,9107,5,12,0:0:0:0:
352,334,9460,2,0,P|268:306|184:314,1,148,8|2,0:0|0:0,0:0:0:0:
209,307,9989,1,0,0:0:0:0:
368,168,10166,1,8,0:0:0:0:
422,302,10342,2,0,P|398:350|346:306,1,111.000004234314,2|2,0:0|0:0,0:0:0:0:
276,252,10695,5,8,0:0:0:0:
258,234,10784,1,8,0:0:0:0:
237,222,10872,1,8,0:0:0:0:
213,214,10960,1,8,0:0:0:0:
189,213,11048,1,8,0:0:0:0:
164,217,11136,1,8,0:0:0:0:
142,227,11225,1,8,0:0:0:0:
124,240,11534,6,0,L|248:156,1,138.750005292893
352,80,11931,5,4,0:0:0:0:
416,160,12107,2,0,P|464:172|504:156,1,85.1000016231537,8|0,0:0|0:0,0:0:0:0:
352,80,12460,1,8,0:0:0:0:
332,192,12636,2,0,L|320:280,1,85.1000016231537,2|8,0:0|0:0,0:0:0:0:
252,128,12989,2,0,L|240:216,1,85.1000016231537,0|8,0:0|0:0,0:0:0:0:
184,56,13342,5,2,0:0:0:0:
96,88,13519,2,0,L|56:68,2,42.5500008115769,8|0|0,0:0|0:0|0:0,0:0:0:0:
112,180,13872,1,8,0:0:0:0:
44,244,14048,2,0,L|52:344,1,85.1000016231537,2|8,0:0|0:0,0:0:0:0:
192,232,14401,1,0,0:0:0:0:
192,232,14578,1,8,0:0:0:0:
52,328,14754,6,0,P|88:348|160:328,1,85.1000016231537,2|8,0:0|0:0,0:0:0:0:
168,320,15019,1,0,0:0:0:0:
168,320,15107,2,0,L|264:312,1,85.1000016231537,0|8,0:0|0:0,0:0:0:0:
364,240,15460,2,0,L|264:232,1,85.1000016231537,2|8,0:0|0:0,0:0:0:0:
424,164,15813,2,0,B|436:136|436:136|436:60,1,85.1000016231537,0|8,0:0|0:0,0:0:0:0:
340,28,16166,5,2,0:0:0:0:
288,160,16342,1,8,0:0:0:0:
288,160,16431,1,0,0:0:0:0:
288,160,16519,2,0,P|240:164|196:148,1,85.1000016231537,0|8,0:0|0:0,0:0:0:0:
132,92,16872,1,2,0:0:0:0:
64,184,17048,1,8,0:0:0:0:
52,201,17136,1,8,0:0:0:0:
45,221,17225,1,8,0:3:0:0:
44,243,17313,1,8,0:3:0:0:
48,263,17401,1,8,0:3:0:0:
57,283,17489,1,8,0:3:0:0:
76,308,17578,6,0,P|120:292|160:296,1,74,4|0,0:0|0:0,0:0:0:0:
264,336,17931,2,0,P|284:276|268:188,1,148,8|2,0:0|0:0,0:0:0:0:
216,132,18460,1,0,0:0:0:0:
148,176,18636,1,8,0:0:0:0:
148,176,18725,1,0,0:0:0:0:
148,176,18813,1,0,0:0:0:0:
160,68,18989,6,0,P|216:48|280:80,1,111,2|0,0:0|0:0,0:0:0:0:
292,92,19342,2,0,P|344:80|388:80,1,74,8|0,0:0|0:0,0:0:0:0:
480,164,19695,1,2,0:0:0:0:
404,232,19872,2,0,B|380:236|380:236|312:216,1,74,0|8,0:0|0:0,0:0:0:0:
296,208,20136,2,0,P|264:252|280:316,1,111,0|2,0:0|0:0,0:0:0:0:
344,360,20578,5,0,0:0:0:0:
344,360,20666,1,0,0:0:0:0:
344,360,20754,2,0,L|428:352,1,74,8|0,0:0|0:0,0:0:0:0:
272,305,21107,1,2,0:0:0:0:
200,344,21284,1,0,0:0:0:0:
140,288,21460,2,0,P|136:244|156:208,1,74,8|0,0:0|0:0,0:0:0:0:
236,76,21813,5,8,0:0:0:0:
292,144,21989,1,0,0:0:0:0:
156,84,22166,1,8,0:0:0:0:
284,224,22342,1,0,0:0:0:0:
76,96,22519,1,8,0:0:0:0:
76,96,22607,1,0,0:0:0:0:
76,96,22695,1,0,0:0:0:0:
272,304,22872,1,8,0:0:0:0:
272,304,22960,1,8,0:0:0:0:
272,304,23048,1,8,0:3:0:0:
272,304,23225,6,0,P|228:296|184:304,1,74,4|0,0:0|0:0,0:0:0:0:
348,268,23578,2,0,P|392:272|440:292,1,74,8|0,0:0|0:0,0:0:0:0:
216,192,23931,2,0,P|184:180|144:176,1,74,2|0,0:0|0:0,0:0:0:0:
292,144,24284,2,0,P|328:128|388:136,1,74,8|0,0:0|0:0,0:0:0:0:
362,128,24636,5,2,0:0:0:0:
456,208,24813,2,0,L|516:216,2,37,0|0|8,0:0|0:0|0:0,0:0:0:0:
362,128,25166,1,0,0:0:0:0:
472,44,25342,1,8,0:0:0:0:
456,208,25519,1,8,0:0:0:0:
456,208,25607,1,8,0:0:0:0:
456,208,25695,2,0,L|452:260,2,37,8|8|8,0:3|0:3|0:3,0:0:0:0:
472,44,26048,5,4,0:0:0:0:
362,128,26225,1,0,0:0:0:0:
362,128,26313,1,0,0:0:0:0:
362,128,26401,2,0,L|456:132,1,74,8|0,0:0|0:0,0:0:0:0:
280,204,26754,2,0,P|272:244|288:292,2,74,2|0|8,0:0|0:0|0:0,0:0:0:0:
296,168,27195,2,0,B|216:167|216:167|184:176,1,111,0|2,0:0|0:0,0:0:0:0:
112,248,27636,5,0,0:0:0:0:
112,248,27725,1,0,0:0:0:0:
112,248,27813,2,0,L|108:340,1,74,8|0,0:0|0:0,0:0:0:0:
40,176,28166,1,0,0:0:0:0:
104,96,28342,2,0,P|144:88|188:108,1,74,0|8,0:0|0:0,0:0:0:0:
200,132,28607,2,0,L|192:276,1,111,0|2,0:0|0:0,0:0:0:0:
296,168,29048,5,0,0:0:0:0:
296,168,29136,1,0,0:0:0:0:
296,168,29225,2,0,P|304:124|300:84,1,74,8|0,0:0|0:0,0:0:0:0:
168,36,29578,1,8,0:0:0:0:
168,36,29754,1,0,0:0:0:0:
128,188,29931,2,0,P|92:192|52:180,1,74,8|0,0:0|0:0,0:0:0:0:
200,132,30284,5,8,0:0:0:0:
216,120,30372,1,8,0:0:0:0:
232,108,30460,1,0,0:0:0:0:
296,168,30636,1,8,0:0:0:0:
312,156,30725,1,8,0:0:0:0:
328,144,30813,1,0,0:0:0:0:
428,64,30989,1,8,0:0:0:0:
432,228,31166,1,0,0:0:0:0:
280,180,31342,1,8,0:0:0:0:
448,220,31519,1,0,0:0:0:0:
252,256,31695,6,0,P|244:291|256:340,1,74,4|0,0:0|0:0,0:0:0:0:
280,180,32048,2,0,P|288:145|276:96,1,74,8|0,0:0|0:0,0:0:0:0:
328,248,32401,2,0,L|416:240,1,74,2|0,0:0|0:0,0:0:0:0:
200,192,32754,2,0,L|120:200,1,74,8|0,0:0|0:0,0:0:0:0:
24,128,33107,5,2,0:0:0:0:
148,96,33284,1,0,0:0:0:0:
148,96,33372,1,0,0:0:0:0:
148,96,33460,2,0,P|152:56|140:20,1,74,8|0,0:0|0:0,0:0:0:0:
76,196,33813,1,8,0:0:0:0:
200,192,33989,1,8,0:0:0:0:
64,224,34166,1,8,0:3:0:0:
212,164,34342,1,8,0:3:0:0:
152,296,34519,6,0,P|208:308|248:292,1,74,10|0,0:0|0:0,0:0:0:0:
360,160,34872,2,0,P|304:148|264:164,1,74,8|0,0:0|0:0,0:0:0:0:
373,348,35225,2,0,L|388:276,1,74,8|0,0:0|0:0,0:0:0:0:
142,111,35578,2,0,L|128:184,1,74,8|0,0:0|0:0,0:0:0:0:
256,284,35931,5,8,0:0:0:0:
256,284,36107,1,0,0:0:0:0:
256,100,36284,1,8,0:0:0:0:
256,100,36460,1,0,0:0:0:0:
164,272,36636,5,8,0:0:0:0:
308,160,36813,1,8,0:0:0:0:
100,196,36989,1,8,0:0:0:0:
100,196,37342,6,0,P|152:188|216:220,2,118.4,4|4|4,0:0|0:3|0:3,0:0:0:0:
32,232,38225,1,2,0:1:0:0:
56,304,38401,1,4,0:3:0:0:
164,272,38578,2,0,B|192:236|192:236|200:140,2,118.4,2|2|2,0:1|0:1|0:1,0:0:0:0:
256,60,39813,5,4,0:3:0:0:
304,124,39989,2,0,B|332:88|332:88|340:-8,2,118.4,2|2|0,0:1|0:1|0:1,0:0:0:0:
256,184,40872,2,0,L|264:256,2,59.2,4|2|4,0:3|0:1|0:3,0:0:0:0:
157,141,41578,6,0,P|209:185|273:177,1,118.4,4|4,0:3|0:3,0:0:0:0:
312,120,42107,2,0,B|404:120|404:120|448:148,1,118.4,2|8,0:1|0:3,0:0:0:0:
440,164,42548,1,8,0:3:0:0:
440,164,42636,1,4,0:0:0:0:
440,164,42989,6,0,L|448:292,2,118.4,4|4|4,0:0|0:3|0:3,0:0:0:0:
472,92,43872,1,2,0:1:0:0:
412,44,44048,1,4,0:3:0:0:
336,132,44225,2,0,P|272:156|208:120,2,118.4,2|2|2,0:1|0:1|0:1,0:0:0:0:
268,284,45460,5,4,0:3:0:0:
188,212,45636,2,0,P|128:186|62:224,2,118.4,2|2|2,0:1|0:1|0:1,0:0:0:0:
130,264,46519,2,0,L|126:328,2,59.2,4|2|4,0:3|0:1|0:3,0:0:0:0:
276,72,47225,6,0,L|304:232,1,148,12|4,0:0|0:3,0:0:0:0:
316,304,47754,1,12,0:0:0:0:
216,132,48107,2,0,P|276:156|356:104,1,148,12|8,0:0|0:3,0:0:0:0:
364,84,48548,1,8,0:3:0:0:
364,84,48636,1,4,0:3:0:0:
416,196,48813,6,0,L|500:188,1,74,0|8,0:0|0:0,0:0:0:0:
376,264,49166,1,0,0:0:0:0:
148,224,49519,2,0,L|56:212,1,74,0|8,0:0|0:0,0:0:0:0:
180,304,49872,1,0,0:0:0:0:
424,96,50225,6,0,L|508:104,1,74,0|8,0:0|0:0,0:0:0:0:
360,40,50578,1,0,0:0:0:0:
180,304,50931,2,0,L|88:316,2,74,2|8|0,0:0|0:0|0:0,0:0:0:0:
256,136,51460,5,4,0:0:0:0:
256,136,51813,1,0,0:0:0:0:
192,228,51989,1,2,0:0:0:0:
320,228,52166,1,0,0:0:0:0:
256,48,52342,1,2,0:0:0:0:
256,304,52519,1,0,0:0:0:0:
144,144,52695,1,0,0:0:0:0:
367,143,52872,1,8,0:0:0:0:
367,143,53254,6,0,L|249:135,1,110.999996612549
111,256,53578,5,8,0:0:0:0:
138,260,53666,1,8,0:0:0:0:
165,258,53754,1,8,0:0:0:0:
192,249,53842,1,8,0:0:0:0:
215,234,53931,1,8,0:0:0:0:
234,214,54019,1,8,0:0:0:0:
248,190,54107,1,8,0:0:0:0:
256,164,54195,1,8,0:0:0:0:
256,136,54284,6,0,P|224:112|152:112,1,85.1000016231537,4|8,0:0|0:0,0:0:0:0:
28,44,54636,2,0,P|23:83|59:146,1,85.1000016231537,0|8,0:0|0:0,0:0:0:0:
112,256,54989,1,2,0:0:0:0:
144,144,55166,1,8,0:0:0:0:
328,208,55342,1,0,0:0:0:0:
168,316,55519,6,0,P|96:336|32:264,1,170.200003246307,8|8,0:0|0:0,0:0:0:0:
192,236,56048,2,0,P|244:244|284:268,1,85.1000016231537,0|8,0:0|0:0,0:0:0:0:
112,256,56401,1,2,0:0:0:0:
248,336,56578,1,8,0:0:0:0:
112,256,56754,1,0,0:0:0:0:
256,176,56931,1,8,0:0:0:0:
100,84,57107,6,0,P|76:124|76:192,1,85.1000016231537,2|8,0:0|0:0,0:0:0:0:
168,316,57460,2,0,P|188:280|188:224,1,85.1000016231537,0|8,0:0|0:0,0:0:0:0:
188,72,57813,1,2,0:0:0:0:
256,176,57989,1,8,0:0:0:0:
72,160,58166,1,0,0:0:0:0:
264,264,58342,6,0,P|348:264|436:244,1,170.200003246307,8|8,0:0|0:0,0:0:0:0:
256,176,58872,2,0,P|200:172|152:184,1,85.1000016231537,0|8,0:0|0:0,0:0:0:0:
324,336,59225,2,0,P|368:336|428:316,1,85.1000016231537,2|8,0:0|0:0,0:0:0:0:
328,156,59578,1,0,0:0:0:0:
264,264,59754,1,8,0:0:0:0:
476,300,59931,6,0,B|492:276|492:276|500:208,1,85.1000016231537,2|8,0:0|0:0,0:0:0:0:
351,76,60284,2,0,B|335:104|335:104|327:168,1,85.1000016231537,0|8,0:0|0:0,0:0:0:0:
420,240,60636,1,2,0:0:0:0:
328,156,60813,1,8,0:0:0:0:
472,144,60989,1,0,0:0:0:0:
272,96,61166,6,0,L|160:88,1,85.1000016231537,8|0,0:0|0:0,0:0:0:0:
335,243,61519,2,0,L|439:239,1,85.1000016231537,8|0,0:0|0:0,0:0:0:0:
208,188,61872,2,0,L|116:192,1,85.1000016231537,8|2,0:0|0:0,0:0:0:0:
232,340,62225,2,0,L|348:344,1,85.1000016231537,8|0,0:0|0:0,0:0:0:0:
140,372,62578,1,8,0:0:0:0:
244,260,62754,5,2,0:0:0:0:
116,144,62931,2,0,P|104:184|120:240,1,85.1000016231537,8|0,0:0|0:0,0:0:0:0:
228,108,63284,2,0,P|236:60|220:8,1,85.1000016231537,8|2,0:0|0:0,0:0:0:0:
112,226,63636,2,0,B|64:236|64:236|8:224,2,85.1000016231537,8|0|8,0:0|0:0|0:0,0:0:0:0:
228,108,64166,5,2,0:0:0:0:
268,220,64342,1,8,0:0:0:0:
424,148,64519,1,2,0:0:0:0:
376,284,64695,1,8,0:0:0:0:
184,184,64872,1,2,0:0:0:0:
308,64,65048,1,8,0:0:0:0:
196,272,65225,1,10,0:0:0:0:
448,228,65401,1,0,0:0:0:0:
228,108,65569,6,0,P|184:96|128:116,1,85.1000016231537,4|0,0:0|0:0,0:0:0:0:
196,272,65921,2,0,P|240:304|300:300,1,85.1000016231537,8|0,0:0|0:0,0:0:0:0:
448,228,66275,1,2,0:0:0:0:
488,108,66451,1,0,0:0:0:0:
388,24,66627,1,8,0:0:0:0:
272,176,66804,6,0,P|344:192|432:140,1,170.200003246307,2|0,0:0|0:0,0:0:0:0:
228,108,67333,1,8,0:0:0:0:
286,260,67510,2,0,P|389:257|478:203,1,170.200003246307,2|0,0:0|0:0,0:0:0:0:
272,176,68039,1,8,0:0:0:0:
272,176,68216,1,0,0:0:0:0:
220,332,68392,6,0,P|176:344|116:344,1,85.1000016231537,2|0,0:0|0:0,0:0:0:0:
328,364,68745,2,0,P|380:360|428:344,1,85.1000016231537,8|0,0:0|0:0,0:0:0:0:
286,260,69098,1,2,0:0:0:0:
192,184,69275,1,0,0:0:0:0:
220,332,69451,1,8,0:0:0:0:
108,232,69627,6,0,B|80:268|80:268|80:332|152:384,1,170.200003246307,0|0,0:0|0:0,0:0:0:0:
192,184,70157,2,0,P|200:144|184:88,1,85.1000016231537,8|0,0:0|0:0,0:0:0:0:
64,36,70510,1,8,0:0:0:0:
64,36,70588,1,8,0:0:0:0:
64,36,70667,1,8,0:3:0:0:
20,144,70864,2,0,P|53:152|113:141,1,85.1000016231537,12|0,0:0|0:0,0:0:0:0:
276,92,71215,6,0,L|191:101,1,85.1000016231537,4|0,0:0|0:0,0:0:0:0:
344,180,71568,2,0,L|464:184,1,85.1000016231537,8|0,0:0|0:0,0:0:0:0:
220,240,71921,1,2,0:0:0:0:
344,180,72097,1,0,0:0:0:0:
180,168,72274,1,8,0:0:0:0:
344,260,72450,6,0,P|344:312|328:368,1,85.1000016231537,2|0,0:0|0:0,0:0:0:0:
264,160,72803,2,0,P|260:116|264:68,1,85.1000016231537,0|8,0:0|0:0,0:0:0:0:
144,244,73156,2,0,P|140:300|152:360,1,85.1000016231537,2|0,0:0|0:0,0:0:0:0:
80,128,73509,2,0,P|72:72|84:12,1,85.1000016231537,0|8,0:0|0:0,0:0:0:0:
180,168,73862,1,0,0:0:0:0:
180,168,74039,6,0,P|240:160|308:264,1,170.200003246307,2|8,0:0|0:0,0:0:0:0:
308,352,74568,1,0,0:0:0:0:
224,244,74744,2,0,P|176:244|124:256,1,85.1000016231537,2|8,0:0|0:0,0:0:0:0:
309,235,75097,2,0,L|344:176,1,42.5500008115769,8|0,0:3|0:0,0:0:0:0:
400,232,75274,2,0,L|468:208,1,42.5500008115769,0|0,0:0|0:0,0:0:0:0:
468,288,75451,5,2,0:0:0:0:
309,235,76510,1,8,0:3:0:0:
309,235,76863,6,0,P|316:192|308:144,1,85.1000016231537,4|8,0:0|0:0,0:0:0:0:
284,120,77126,1,0,0:0:0:0:
284,120,77215,2,0,L|276:24,1,85.1000016231537,0|8,0:0|0:0,0:0:0:0:
212,160,77568,2,0,P|176:172|124:160,1,85.1000016231537,2|8,0:0|0:0,0:0:0:0:
356,84,77921,2,0,P|392:72|444:84,1,85.1000016231537,0|8,0:0|0:0,0:0:0:0:
512,196,78274,5,2,0:0:0:0:
472,296,78450,1,8,0:0:0:0:
472,296,78538,1,0,0:0:0:0:
472,296,78626,1,0,0:0:0:0:
400,176,78803,1,8,0:0:0:0:
312,272,78980,2,0,P|352:284|408:272,1,85.1000016231537,2|8,0:0|0:0,0:0:0:0:
212,268,79333,2,0,P|164:268|116:240,1,85.1000016231537,0|8,0:0|0:0,0:0:0:0:
92,128,79685,5,2,0:0:0:0:
192,88,79862,1,8,0:0:0:0:
192,88,79950,1,0,0:0:0:0:
192,88,80039,2,0,L|184:184,1,85.1000016231537,0|8,0:0|0:0,0:0:0:0:
272,28,80391,1,2,0:0:0:0:
336,128,80568,1,8,0:0:0:0:
336,128,80656,1,0,0:0:0:0:
336,128,80744,2,0,L|388:132,2,42.5500008115769,0|0|8,0:0|0:0|0:0,0:0:0:0:
256,240,81097,6,0,P|244:284|260:344,1,85.1000016231537,2|8,0:0|0:0,0:0:0:0:
280,352,81362,1,0,0:0:0:0:
280,352,81450,2,0,P|332:346|384:364,1,85.1000016231537,0|8,0:0|0:0,0:0:0:0:
180,336,81803,2,0,P|136:348|88:340,1,85.1000016231537,2|8,0:0|0:0,0:0:0:0:
44,192,82156,2,0,P|88:180|136:188,1,85.1000016231537,0|8,0:0|0:0,0:0:0:0:
256,240,82509,5,2,0:0:0:0:
328,136,82686,2,0,L|332:88,2,42.5500008115769,8|0|0,0:0|0:0|0:0,0:0:0:0:
424,216,83038,1,8,0:0:0:0:
248,156,83215,1,2,0:0:0:0:
324,292,83391,1,8,0:0:0:0:
324,292,83479,1,0,0:0:0:0:
324,292,83568,2,0,L|348:344,2,42.5500008115769,0|0|8,0:0|0:0|0:0,0:0:0:0:
184,204,83921,6,0,P|136:196|80:224,1,85.1000016231537,2|8,0:0|0:0,0:0:0:0:
72,236,84185,1,0,0:0:0:0:
72,236,84274,1,0,0:0:0:0:
148,312,84450,1,8,0:0:0:0:
256,240,84626,1,2,0:0:0:0:
256,240,84803,1,8,0:0:0:0:
256,376,84979,1,0,0:0:0:0:
256,376,85156,1,8,0:0:0:0:
376,312,85332,5,2,0:0:0:0:
256,240,85509,1,8,0:0:0:0:
256,240,85597,1,0,0:0:0:0:
256,240,85686,2,0,P|212:252|160:232,1,85.1000016231537,0|8,0:0|0:0,0:0:0:0:
344,172,86038,1,2,0:0:0:0:
296,308,86215,1,8,0:0:0:0:
432,104,86391,1,0,0:0:0:0:
388,236,86568,1,8,0:0:0:0:
256,144,86744,5,2,0:0:0:0:
344,52,86921,1,8,0:0:0:0:
344,28,87009,1,0,0:0:0:0:
344,4,87097,1,0,0:0:0:0:
344,172,87274,1,8,0:0:0:0:
232,64,87450,1,2,0:0:0:0:
232,256,87626,1,8,0:0:0:0:
112,172,87803,1,8,0:0:0:0:
112,172,87891,1,8,0:0:0:0:
112,172,87979,1,8,0:0:0:0:
112,172,88068,1,8,0:0:0:0:
112,172,88157,6,0,P|112:224|168:184,1,148,2|0,0:0|0:0,0:0:0:0:
