osu file format v14

[General]
AudioFilename: sevendeadlysinsed.mp3
AudioLeadIn: 1500
PreviewTime: 53489
Countdown: 0
SampleSet: Soft
StackLeniency: 0.7
Mode: 0
LetterboxInBreaks: 0
WidescreenStoryboard: 0

[Editor]
DistanceSpacing: 0.9
BeatDivisor: 4
GridSize: 4
TimelineZoom: 1.5

[Metadata]
Title:7 -seven- -TV SIZE -
TitleUnicode:7 -seven- -TV SIZE -
Artist:FLOWxGRANRODEO
ArtistUnicode:FLOW×GRANRODEO
Creator:xxdeathx
Version:Easy
Source:Nanatsu no Taizai
Tags:the seven deadly sins ending ed 七つの大罪 flow granrodeo a-1 pictures
BeatmapID:652467
BeatmapSetID:282345

[Difficulty]
HPDrainRate:2
CircleSize:3
OverallDifficulty:2
ApproachRate:3.5
SliderMultiplier:1
SliderTickRate:1

[Events]
//Background and Video events
Video,0,"video.avi"
0,0,"bgh.jpg",0,0
//Break Periods
//Storyboard Layer 0 (Background)
//Storyboard Layer 1 (Fail)
//Storyboard Layer 2 (Pass)
//Storyboard Layer 3 (Foreground)
//Storyboard Sound Samples

[TimingPoints]
637,352.941176470588,4,2,1,60,1,0
3460,-100,4,2,1,70,0,0
11931,-100,4,2,1,80,0,0
17578,-100,4,2,1,60,0,0
21813,-100,4,2,1,80,0,0
23225,-100,4,2,1,60,0,0
30284,-100,4,2,1,80,0,0
31695,-100,4,2,1,60,0,0
37342,-100,4,2,1,50,0,0
47225,-100,4,2,1,60,0,0
54284,-100,4,2,1,70,0,1
65569,352.941176470588,4,2,1,70,1,1
70510,315.789473684211,4,2,1,70,1,1
70667,394.736842105263,4,2,1,70,1,1
70864,352.941176470588,4,2,1,70,1,1
71216,352.941176470588,4,2,1,70,1,1
75451,-100,4,2,1,60,0,1
76863,-100,4,2,1,80,0,0
88157,-100,4,2,1,40,0,0
88863,-100,4,2,1,20,0,0

[Colours]
Combo1 : 185,117,247
Combo2 : 251,235,87
Combo3 : 90,143,224
Combo4 : 166,248,54
Combo5 : 255,172,34

[HitObjects]
284,176,637,6,0,P|368:144|384:28,2,200,8|8|8,0:0|0:0|0:0,0:0:0:0:
204,136,2401,2,0,P|152:144|116:180,2,100,8|8|12,0:0|0:0|0:0,0:0:0:0:
192,224,3460,6,0,B|200:256|200:256|252:304,2,100,12|8|8,0:0|0:0|0:0,0:0:0:0:
288,72,4872,1,10,0:0:0:0:
468,56,5578,2,0,B|476:108|476:108|452:148,1,100,8|8,0:0|0:0,0:0:0:0:
392,216,6284,6,0,L|412:316,2,100,10|8|8,0:0|0:0|0:0,0:0:0:0:
288,72,7695,1,10,0:0:0:0:
172,208,8401,2,0,P|104:220|68:196,1,100,8|8,0:0|0:0,0:0:0:0:
24,136,9107,5,12,0:0:0:0:
84,68,9460,2,0,B|124:32|176:48|176:48|124:88|120:164,1,200,8|8,0:0|0:0,0:0:0:0:
80,208,10519,2,0,B|104:228|144:228|172:208|172:208|216:236|180:300,1,200,2|8,0:0|0:0,0:0:0:0:
240,128,11931,6,0,P|308:112|360:136,1,100,4|8,0:0|0:0,0:0:0:0:
408,176,12636,2,0,L|400:296,1,100,2|8,0:0|0:0,0:0:0:0:
492,288,13342,2,0,L|498:188,2,100,2|8|2,0:0|0:0|0:0,0:0:0:0:
436,356,14401,1,8,0:0:0:0:
344,356,14754,6,0,B|292:356|276:324|276:324|284:288,1,100,2|8,0:0|0:0,0:0:0:0:
344,240,15460,2,0,P|276:212|220:240,1,100,2|8,0:0|0:0,0:0:0:0:
192,284,16166,2,0,B|164:356|164:356|132:372,2,100,2|8|2,0:0|0:0|0:0,0:0:0:0:
212,196,17225,2,0,P|208:140|240:92,1,100,8|4,0:3|0:0,0:0:0:0:
316,80,17931,6,0,B|368:72|368:72|432:124|384:216,1,200,8|8,0:0|0:0,0:0:0:0:
212,196,19342,2,0,P|156:168|44:232,1,200,8|8,0:0|0:0,0:0:0:0:
200,320,20754,6,0,P|312:328|408:312,1,200,8|8,0:0|0:0,0:0:0:0:
456,244,21813,2,0,L|508:196,2,50,8|0|8,0:0|0:0|0:0,0:0:0:0:
412,164,22519,2,0,L|448:100,2,50,8|0|8,0:0|0:0|0:0,0:0:0:0:
344,108,23225,6,0,B|328:40|328:40|304:8,2,100,4|8|2,0:0|0:0|0:0,0:0:0:0:
284,172,24284,1,8,0:0:0:0:
233,246,24636,2,0,P|273:262|333:246,2,100,2|8|8,0:0|0:0|0:0,0:0:0:0:
172,180,25695,1,0,0:0:0:0:
100,124,26048,5,4,0:0:0:0:
56,204,26401,2,0,B|-8:256|40:344|40:344|120:368,1,200,8|8,0:0|0:0,0:0:0:0:
256,312,27813,2,0,B|316:296|392:324|392:324|400:276|348:236,1,200,8|8,0:0|0:0,0:0:0:0:
280,112,29225,6,0,P|260:60|288:4,2,100,8|8|8,0:0|0:0|0:0,0:0:0:0:
364,144,30284,2,0,L|348:204,2,50,8|0|8,0:0|0:0|0:0,0:0:0:0:
420,72,30989,1,8,0:0:0:0:
500,112,31342,1,8,0:0:0:0:
444,180,31695,6,0,B|432:224|432:224|440:280,1,100,4|8,0:0|0:0,0:0:0:0:
476,360,32401,2,0,P|416:364|368:332,1,100,2|8,0:0|0:0,0:0:0:0:
312,288,33107,2,0,P|260:268|192:292,1,100,2|8,0:0|0:0,0:0:0:0:
131,303,33813,2,0,L|124:204,1,100,8|8,0:0|0:3,0:0:0:0:
64,136,34519,6,0,L|56:28,2,100,10|8|8,0:0|0:0|0:0,0:0:0:0:
124,204,35578,2,0,L|132:312,2,100,8|8|8,0:0|0:0|0:0,0:0:0:0:
188,140,36636,2,0,P|240:116|308:132,1,100,8|8,0:0|0:0,0:0:0:0:
252,204,37342,6,0,B|260:328|260:328|332:356|380:296,1,250,4|2,0:0|0:1,0:0:0:0:
420,224,38578,2,0,P|472:200|528:216,2,100,2|2|2,0:1|0:1|0:1,0:0:0:0:
256,296,39989,6,0,P|204:320|148:304,2,100,2|2|2,0:1|0:1|0:1,0:0:0:0:
256,72,41578,2,0,B|428:48,2,150,4|2|4,0:3|0:1|0:0,0:0:0:0:
168,68,42989,6,0,B|120:52|76:88|76:88|128:112|140:160|140:160|192:152,1,250,4|2,0:0|0:1,0:0:0:0:
280,156,44225,2,0,P|300:212|276:276,2,100,2|2|2,0:1|0:1|0:1,0:0:0:0:
400,24,45636,6,0,P|458:34|501:87,2,100,2|2|2,0:1|0:1|0:1,0:0:0:0:
180,88,47225,2,0,B|168:188|168:188|216:248,1,150,12|12,0:0|0:0,0:0:0:0:
272,276,48107,2,0,P|254:296|126:278,1,150,12|4,0:0|0:3,0:0:0:0:
72,240,48989,6,0,L|104:36,2,200,8|8|8,0:0|0:0|0:0,0:0:0:0:
232,320,51107,2,0,P|280:308|308:252,1,100,8|4,0:0|0:0,0:0:0:0:
256,192,51636,12,8,52872,0:0:0:0:
256,216,54284,6,0,P|212:180|220:116,1,100,4|8,0:0|0:0,0:0:0:0:
228,52,54989,2,0,B|292:64|292:64|316:84|316:84|396:104,1,150,2|8,0:0|0:0,0:0:0:0:
456,72,55872,1,8,0:0:0:0:
504,148,56225,2,0,P|500:244|448:276,1,150,8|8,0:0|0:0,0:0:0:0:
376,252,57107,6,0,P|320:236|268:252,1,100,2|8,0:0|0:0,0:0:0:0:
220,312,57813,2,0,P|148:340|68:308,1,150,2|8,0:0|0:0,0:0:0:0:
24,252,58695,2,0,B|8:220|8:220|4:128,2,100,8|8|8,0:0|0:0|0:0,0:0:0:0:
152,208,59931,6,0,P|200:188|268:208,1,100,2|8,0:0|0:0,0:0:0:0:
288,272,60636,2,0,P|329:218|315:138,1,150,2|8,0:0|0:0,0:0:0:0:
236,108,61519,2,0,L|220:8,2,100,8|8|8,0:0|0:0|0:0,0:0:0:0:
244,194,62578,6,0,B|178:199|165:163|155:126|93:113|40:146|20:204|67:259,1,300,10|8,0:0|0:0,0:0:0:0:
172,332,64166,2,0,L|160:392,2,50,2|8|2,0:0|0:0|0:0,0:0:0:0:
252,292,64872,2,0,L|264:356,2,50,2|8|10,0:0|0:0|0:0,0:0:0:0:
304,216,65569,6,0,B|336:192|380:192|380:192|400:236,1,100,4|8,0:0|0:0,0:0:0:0:
396,300,66275,1,2,0:0:0:0:
472,252,66627,2,0,B|480:156|424:116|424:116|384:104|352:112,1,200,8|8,0:0|0:0,0:0:0:0:
200,148,68039,1,8,0:0:0:0:
176,236,68392,6,0,L|172:352,1,100,2|8,0:0|0:0,0:0:0:0:
88,360,69098,2,0,L|91:260,1,100,2|8,0:0|0:0,0:0:0:0:
109,174,69804,2,0,P|161:146|229:162,1,100,2|8,0:0|0:0,0:0:0:0:
260,228,70510,1,8,0:0:0:0:
312,304,70864,2,0,B|360:292|360:292|412:240,1,100,12|4,0:0|0:0,0:0:0:0:
468,204,71568,6,0,P|484:252|460:316,2,100,8|2|8,0:0|0:0|0:0,0:0:0:0:
400,148,72627,2,0,B|412:20,2,100,2|8|2,0:0|0:0|0:0,0:0:0:0:
328,200,73686,1,8,0:0:0:0:
256,148,74039,6,0,P|200:136|140:168,1,100,2|8,0:0|0:0,0:0:0:0:
120,232,74745,2,0,L|104:360,2,100,2|8|2,0:0|0:0|0:0,0:0:0:0:
296,32,76510,1,8,0:3:0:0:
340,112,76863,6,0,P|352:160|328:216,1,100,4|8,0:0|0:0,0:0:0:0:
252,236,77569,2,0,B|176:232|176:232|140:204,1,100,2|8,0:0|0:0,0:0:0:0:
104,144,78275,2,0,L|0:132,2,100,2|8|2,0:0|0:0|0:0,0:0:0:0:
157,217,79333,1,8,0:0:0:0:
108,292,79686,6,0,P|152:308|220:280,1,100,2|8,0:0|0:0,0:0:0:0:
272,236,80392,2,0,B|292:348,1,100,2|8,0:0|0:0,0:0:0:0:
368,288,81098,2,0,B|350:189,2,100,2|8|2,0:0|0:0|0:0,0:0:0:0:
448,328,82157,1,8,0:0:0:0:
444,240,82510,6,0,B|426:141,1,100,2|8,0:0|0:0,0:0:0:0:
380,64,83216,2,0,P|334:47|286:60,1,100,2|8,0:0|0:0,0:0:0:0:
212,108,83922,2,0,L|100:100,2,100,2|8|2,0:0|0:0|0:0,0:0:0:0:
276,172,84980,1,8,0:0:0:0:
188,196,85333,6,0,L|76:188,1,100,2|8,0:0|0:0,0:0:0:0:
16,136,86039,2,0,P|0:182|11:231,1,100,2|10,0:0|0:0,0:0:0:0:
84,284,86745,1,2,0:0:0:0:
172,296,87098,2,0,B|224:296|224:296|284:264,1,100,8|2,0:0|0:0,0:0:0:0:
284,184,87804,1,8,0:0:0:0:
228,116,88157,6,0,P|164:104|196:196,1,200,2|0,0:0|0:0,0:0:0:0:
