osu file format v13

[General]
AudioFilename: 7 -seven-.mp3
AudioLeadIn: 0
PreviewTime: 53608
Countdown: 0
SampleSet: Normal
StackLeniency: 0.8
Mode: 0
LetterboxInBreaks: 0
WidescreenStoryboard: 0

[Editor]
Bookmarks: 37372,48666,54314,76902
DistanceSpacing: 1.1
BeatDivisor: 4
GridSize: 4
TimelineZoom: 1

[Metadata]
Title:7-seven- (TV Size)
TitleUnicode:7-seven- (TV Size)
Artist:FLOW X GRANRODEO
ArtistUnicode:FLOW X GRANRODEO
Creator:blackabyss
Version:Hard
Source:七つの大罪
Tags:nanatsu no taizai seven deadly sins ending ed
BeatmapID:539554
BeatmapSetID:232358

[Difficulty]
HPDrainRate:6
CircleSize:4
OverallDifficulty:6
ApproachRate:7.5
SliderMultiplier:1.6
SliderTickRate:2

[Events]
//Background and Video events
0,0,"bg.jpg",0,0
//Break Periods
//Storyboard Layer 0 (Background)
//Storyboard Layer 1 (Fail)
//Storyboard Layer 2 (Pass)
//Storyboard Layer 3 (Foreground)
//Storyboard Sound Samples
//Background Colour Transformations
3,100,163,162,255

[TimingPoints]
667,352.941176470588,4,1,1,40,1,0
667,-125,4,1,1,40,0,0
11961,-100,4,1,1,60,0,0
37372,-125,4,2,1,55,0,0
47255,-100,4,1,1,55,0,0
48666,-100,4,1,1,60,0,0
53255,-100,4,2,1,55,0,0
53608,-100,4,1,1,60,0,0
54314,-100,4,1,1,73,0,1
65608,-100,4,1,1,78,0,1
76902,-100,4,1,1,60,0,0
87137,-100,4,1,1,50,0,0
87490,-100,4,1,1,40,0,0
88196,-100,4,1,1,30,0,0
88549,-100,4,1,1,15,0,0
88902,-100,4,1,1,5,0,0

[Colours]
Combo1 : 172,172,172
Combo2 : 128,255,0
Combo3 : 117,180,255
Combo4 : 201,12,40
Combo5 : 255,255,0

[HitObjects]
328,112,667,5,0,0:0:0:0:
243,228,1019,1,0,0:0:0:0:
184,96,1372,1,0,0:0:0:0:
328,112,1725,2,0,P|368:120|396:136,1,64
460,180,2078,5,0,0:0:0:0:
428,320,2431,1,0,0:0:0:0:
284,340,2784,1,0,0:0:0:0:
212,340,2961,5,0,0:0:0:0:
180,328,3049,1,0,0:0:0:0:
152,308,3137,2,0,P|128:280|120:232,1,64
104,136,3490,6,0,B|144:84|144:84|212:68,1,128
344,48,4196,2,0,B|363:78|401:93|401:93|374:116|378:166,1,128
404,208,4725,1,0,0:0:0:0:
392,280,4902,5,0,0:0:0:0:
264,216,5255,1,0,0:0:0:0:
272,360,5608,2,0,B|228:368|204:336,1,64
188,320,5872,1,0,0:0:0:0:
164,296,5961,1,0,0:0:0:0:
104,216,6137,1,0,0:0:0:0:
104,216,6314,6,0,P|176:184|200:120,1,128
292,12,7019,1,0,0:0:0:0:
348,60,7196,2,0,L|388:40,2,32,0|0|0,0:0|0:0|0:0,0:0:0:0:
352,132,7549,1,0,0:0:0:0:
352,132,7725,6,0,P|346:171|321:201,1,64
260,304,8078,2,0,P|266:265|291:235,1,64
260,172,8431,2,0,P|237:139|201:123,1,64
180,128,8696,1,0,0:0:0:0:
148,140,8784,1,0,0:0:0:0:
64,192,8961,1,0,0:0:0:0:
40,216,9137,5,0,0:0:0:0:
164,284,9490,2,0,B|196:308|196:308|196:352,1,64
300,280,9843,2,0,B|271:308|271:308|272:348,1,64,0|0,0:0|0:0,0:0:0:0:
260,220,10196,2,0,B|231:237|231:237|200:220,1,64
228,152,10549,6,0,L|228:104,4,32,0|0|0|0|0,0:0|0:0|0:0|0:0|0:0,0:0:0:0:
260,220,11078,1,0,0:0:0:0:
300,280,11255,2,0,L|300:328,4,32,0|0|0|0|0,0:0|0:0|0:0|0:0|0:0,0:0:0:0:
424,156,11961,6,0,L|388:76,1,80
304,80,12314,2,0,L|336:152,1,80
380,228,12666,1,0,0:0:0:0:
468,232,12843,2,0,L|508:232,2,40,0|0|0,0:0|0:0|0:0,0:0:0:0:
420,308,13196,1,0,0:0:0:0:
324,344,13372,6,0,P|284:356|236:352,1,80
168,316,13725,2,0,L|136:232,1,80
104,160,14078,1,0,0:0:0:0:
180,112,14255,2,0,P|148:80|92:72,2,80,0|0|0,0:0|0:0|0:0,0:0:0:0:
268,168,14784,6,0,L|356:168,1,80
436,172,15137,2,0,P|452:208|440:256,1,80
392,316,15490,1,0,0:0:0:0:
304,332,15666,2,0,L|320:376,2,40,0|0|0,0:0|0:0|0:0,0:0:0:0:
272,248,16019,1,0,0:0:0:0:
244,148,16196,6,0,B|276:120|276:120|276:80,1,80
188,76,16549,2,0,B|156:104|156:104|156:144,1,80
194,220,16902,2,0,B|166:252|166:252|171:291,1,80
228,356,17255,2,0,B|260:328|260:328|260:288,1,80
304,212,17608,5,0,0:0:0:0:
332,128,17784,2,0,P|312:96|308:40,1,80
393,63,18137,1,0,0:0:0:0:
419,147,18314,2,0,P|439:179|443:235,1,80
436,264,18578,1,0,0:0:0:0:
412,300,18666,2,0,L|328:324,1,80
248,312,19019,5,0,0:0:0:0:
144,304,19196,2,0,L|36:319,1,80
92,232,19549,2,0,L|-8:191,1,80
80,140,19902,2,0,L|42:37,1,80
140,44,20255,2,0,L|184:44,1,40
224,44,20431,5,0,0:0:0:0:
320,84,20608,2,0,P|360:76|400:84,1,80
360,164,20961,1,0,0:0:0:0:
448,164,21137,1,0,0:0:0:0:
404,240,21314,2,0,L|448:312,2,80,0|0|0,0:0|0:0|0:0,0:0:0:0:
284,244,21843,6,0,P|244:256|208:296,1,80
92,249,22196,2,0,P|121:222|160:212,1,80
187,94,22549,2,0,P|149:105|120:132,1,80
236,168,22902,2,0,P|274:157|303:130,1,80
352,56,23255,5,0,0:0:0:0:
440,64,23431,1,0,0:0:0:0:
392,140,23608,2,0,L|428:220,1,80
472,288,23961,1,0,0:0:0:0:
384,292,24137,2,0,L|420:376,2,80,0|0|0,0:0|0:0|0:0,0:0:0:0:
332,200,24666,6,0,P|308:164|264:128,1,80
248,220,25019,2,0,P|206:207|149:208,1,80
196,292,25372,2,0,P|156:289|117:278,1,80
84,196,25725,2,0,L|36:196,2,40,0|0|0,0:0|0:0|0:0,0:0:0:0:
108,112,26078,5,0,0:0:0:0:
176,56,26255,1,0,0:0:0:0:
244,112,26431,2,0,L|324:112,1,80
392,56,26784,1,0,0:0:0:0:
408,144,26961,1,0,0:0:0:0:
408,144,27049,1,0,0:0:0:0:
408,144,27137,2,0,P|440:188|440:220,1,80
404,292,27490,5,0,0:0:0:0:
316,336,27666,2,0,B|276:336|276:336|240:316,1,80
176,256,28019,1,0,0:0:0:0:
176,256,28196,1,0,0:0:0:0:
120,188,28372,2,0,B|188:144|188:144|204:96|276:104,1,160,0|0,0:0|0:0,0:0:0:0:
336,96,28902,5,0,0:0:0:0:
420,160,29078,2,0,L|408:240,1,80
340,296,29431,2,0,P|304:288|264:300,1,80
180,332,29784,1,0,0:0:0:0:
92,348,29961,2,0,B|56:332|56:332|40:292,1,80
96,144,30314,6,0,L|48:208,1,80
180,136,30666,2,0,B|216:152|216:152|232:192,1,80
128,68,31019,2,0,B|112:32|112:32|72:16,2,80,0|0|0,0:0|0:0|0:0,0:0:0:0:
216,60,31549,1,0,0:0:0:0:
300,36,31725,6,0,L|380:36,1,80
460,76,32078,2,0,P|472:116|456:164,1,80
388,196,32431,1,0,0:0:0:0:
384,284,32608,1,0,0:0:0:0:
384,284,32696,1,0,0:0:0:0:
384,284,32784,2,0,L|300:324,1,80
208,280,33137,6,0,L|116:272,1,80
56,224,33490,1,0,0:0:0:0:
24,144,33666,1,0,0:0:0:0:
72,68,33843,2,0,P|116:56|152:68,1,80
188,144,34196,1,0,0:0:0:0:
236,72,34372,1,0,0:0:0:0:
480,52,34549,6,0,L|320:52,1,160
292,136,35078,1,0,0:0:0:0:
240,208,35255,2,0,P|288:256|240:320,1,160
44,60,35961,6,0,B|124:64|124:64|152:104|200:92,1,160
264,44,36490,1,0,0:0:0:0:
344,76,36666,2,0,L|416:120,1,80
476,200,37019,1,0,0:0:0:0:
316,308,37372,6,0,B|279:288|260:308|256:308|252:308|222:328|188:308,1,128,2|8,0:0|0:0,0:0:0:0:
96,208,38078,2,0,L|153:93,1,128,0|8,0:0|0:0,0:0:0:0:
276,24,38784,2,0,P|328:60|400:64,2,128,0|8|0,0:0|0:0|0:0,0:0:0:0:
332,152,39843,2,0,L|372:232,1,64
360,296,40196,6,0,P|296:292|216:312,1,128
164,316,40725,1,0,0:0:0:0:
104,276,40902,2,0,L|32:168,1,128
228,128,41608,6,0,B|191:108|172:128|168:128|164:128|134:148|104:130,1,128,2|8,0:0|0:0,0:0:0:0:
44,100,42137,1,0,0:0:0:0:
44,240,42490,2,0,L|72:200,2,32,0|0|0,0:0|0:0|0:0,0:0:0:0:
104,276,42843,1,0,0:0:0:0:
196,312,43019,6,0,B|256:332|256:332|320:312,1,128
432,232,43725,2,0,L|504:232,2,64,0|0|0,0:0|0:0|0:0,0:0:0:0:
408,164,44255,1,0,0:0:0:0:
340,96,44431,6,0,P|280:124|224:92,1,128
184,44,44961,2,0,L|112:44,1,64
60,80,45314,1,0,0:0:0:0:
44,148,45490,2,0,P|40:184|52:224,1,64
212,292,45843,6,0,B|239:292|239:292|267:268,1,64
143,292,46196,2,0,B|116:292|116:292|88:268,1,64
312,212,46549,2,0,P|316:176|304:136,1,64
280,84,46902,1,0,0:0:0:0:
448,216,47255,6,0,P|476:244|488:292,2,80,0|0|0,0:0|0:0|0:0,0:0:0:0:
368,180,47784,1,0,0:0:0:0:
328,100,47961,2,0,P|300:72|252:60,2,80,0|0|0,0:0|0:0|0:0,0:0:0:0:
280,176,48490,1,0,0:0:0:0:
224,268,48666,5,0,0:0:0:0:
144,308,48843,2,0,P|80:304|44:316,1,80
0,256,49196,1,0,0:0:0:0:
8,168,49372,1,0,0:0:0:0:
8,168,49549,2,0,P|47:174|86:168,1,80
148,104,49902,1,0,0:0:0:0:
248,68,50078,5,0,0:0:0:0:
324,112,50255,2,0,L|412:112,1,80
472,168,50608,2,0,P|452:216|448:264,1,80
384,304,50961,1,0,0:0:0:0:
384,304,51137,2,0,B|344:316|344:316|296:308,1,80
228,240,51490,6,0,B|152:216|152:216|76:240,1,160
20,172,52019,1,0,0:0:0:0:
44,88,52196,1,0,0:0:0:0:
116,40,52372,1,0,0:0:0:0:
204,56,52549,2,0,L|240:32,4,40,0|0|0|0|0,0:0|0:0|0:0|0:0|0:0,0:0:0:0:
356,200,53255,5,0,0:0:0:0:
184,316,53608,6,0,L|136:352,6,40,0|0|0|0|0|0|0,0:0|0:0|0:0|0:0|0:0|0:0|0:0,0:0:0:0:
140,204,54314,6,0,L|76:152,1,80
108,72,54666,2,0,L|172:124,1,80
228,192,55019,2,0,P|268:180|308:192,1,80
392,204,55372,2,0,L|392:120,1,80,0|0,0:0|0:0,0:0:0:0:
468,236,55725,6,0,B|460:280|460:280|432:316,1,80
360,348,56078,2,0,P|320:360|272:348,1,80
204,316,56431,2,0,L|136:364,2,80,0|0|0,0:0|0:0|0:0,0:0:0:0:
216,228,56961,1,0,0:0:0:0:
112,168,57137,6,0,L|52:104,1,80
144,88,57490,2,0,L|110:6,1,80
200,20,57843,2,0,L|233:101,1,80
320,100,58196,1,0,0:0:0:0:
271,172,58372,1,0,0:0:0:0:
364,248,58549,6,0,P|332:276|312:320,1,80
240,336,58902,2,0,L|152:312,1,80
76,320,59255,2,0,P|48:348|-4:368,2,80,0|0|0,0:0|0:0|0:0,0:0:0:0:
112,240,59784,1,0,0:0:0:0:
152,148,59961,6,0,P|184:128|232:140,1,80
260,52,60314,2,0,P|293:68|309:115,1,80
344,220,60666,1,0,0:0:0:0:
388,144,60843,1,0,0:0:0:0:
428,224,61019,1,0,0:0:0:0:
384,300,61196,1,0,0:0:0:0:
384,300,61284,1,0,0:0:0:0:
384,300,61372,6,0,L|296:344,1,80
240,284,61725,2,0,L|156:304,1,80
88,256,62078,1,0,0:0:0:0:
36,184,62255,2,0,P|76:152|104:108,1,80
124,44,62608,1,0,0:0:0:0:
334,112,62784,6,0,B|296:132|260:112|256:112|252:112|220:88|180:112,1,160
220,192,63314,1,0,0:0:0:0:
164,260,63490,2,0,P|164:308|196:356,1,80
264,356,63843,1,0,0:0:0:0:
344,320,64019,1,0,0:0:0:0:
344,320,64108,1,0,0:0:0:0:
344,320,64196,6,0,L|424:320,1,80
436,232,64549,2,0,P|400:200|384:152,1,80
368,84,64902,2,0,L|424:12,2,80,0|0|0,0:0|0:0|0:0,0:0:0:0:
304,144,65431,1,0,0:0:0:0:
192,96,65608,6,0,P|156:80|104:76,1,80
56,140,65961,2,0,L|24:228,1,80
36,304,66314,2,0,P|72:320|124:324,1,80
184,276,66666,1,0,0:0:0:0:
256,224,66843,1,0,0:0:0:0:
364,168,67019,6,0,L|420:240,1,80
380,312,67372,2,0,L|324:240,1,80
364,168,67725,2,0,P|336:116|336:76,1,80
384,24,68078,1,0,0:0:0:0:
384,24,68255,1,0,0:0:0:0:
264,28,68431,6,0,L|184:28,1,80
104,68,68784,2,0,B|56:112|56:112|72:160,1,80
124,188,69137,2,0,P|136:220|132:272,1,80
80,336,69490,1,0,0:0:0:0:
168,348,69666,1,0,0:0:0:0:
264,268,69843,6,0,L|328:320,1,80
416,316,70196,1,0,0:0:0:0:
413,155,70372,2,0,L|436:232,2,80,0|0|0,0:0|0:0|0:0,0:0:0:0:
392,68,70902,1,0,0:0:0:0:
152,72,71255,6,0,B|116:96|116:96|96:136,1,80,0|0,0:0|0:0,0:0:0:0:
144,204,71608,2,0,B|130:245|130:245|139:288,1,80,0|0,0:0|0:0,0:0:0:0:
224,264,71961,2,0,B|251:297|251:297|293:313,1,80,0|0,0:0|0:0,0:0:0:0:
372,328,72314,1,0,0:0:0:0:
436,268,72490,1,0,0:0:0:0:
424,148,72666,5,0,0:0:0:0:
344,112,72843,2,0,P|312:76|260:60,1,80
204,104,73196,2,0,B|156:168|156:168|72:180,1,160
20,244,73725,1,0,0:0:0:0:
52,328,73902,1,0,0:0:0:0:
156,268,74078,6,0,B|292:244|308:184|252:152|200:188|224:248|364:256,1,320
452,244,74961,1,0,0:0:0:0:
400,176,75137,1,0,0:0:0:0:
376,92,75314,2,0,L|336:56,1,40
316,36,75490,5,0,0:0:0:0:
140,40,75843,1,0,0:0:0:0:
88,208,76196,1,0,0:0:0:0:
232,104,76549,1,0,0:0:0:0:
136,288,76902,6,0,L|84:364,1,80
180,364,77255,2,0,L|225:297,1,80
308,268,77608,2,0,L|356:268,2,40,0|0|0,0:0|0:0|0:0,0:0:0:0:
236,216,77961,1,0,0:0:0:0:
316,180,78137,1,0,0:0:0:0:
372,72,78314,6,0,L|276:32,1,80
212,52,78666,2,0,P|172:80|132:80,1,80
56,56,79019,1,0,0:0:0:0:
76,140,79196,2,0,L|28:220,1,80
36,296,79549,1,0,0:0:0:0:
144,348,79725,6,0,B|184:364|184:364|228:348,1,80
308,348,80078,2,0,P|288:296|308:256,1,80
348,208,80431,2,0,L|392:208,2,40,0|0|0,0:0|0:0|0:0,0:0:0:0:
260,192,80784,2,0,L|300:96,1,80
208,28,81137,6,0,P|168:20|128:28,1,80
48,100,81490,2,0,P|88:108|128:100,1,80
208,176,81843,2,0,P|168:184|128:176,1,80,0|0,0:0|0:0,0:0:0:0:
56,228,82196,2,0,L|112:292,1,80
188,356,82549,6,0,B|248:304|248:304|328:312|328:312|380:280|360:248|360:248|416:172|376:100|376:100|344:64|300:80,1,480
220,108,83784,1,0,0:0:0:0:
84,112,83961,6,0,B|32:160|32:160|36:200,1,80
68,248,84314,2,0,P|112:300|144:308,1,80
208,288,84666,2,0,P|241:309|261:343,2,80,0|0|0,0:0|0:0|0:0,0:0:0:0:
292,96,85372,6,0,L|360:148,1,80
400,220,85725,2,0,P|380:264|348:288,1,80
284,332,86078,2,0,L|280:388,2,40,0|0|0,0:0|0:0|0:0,0:0:0:0:
284,244,86431,1,0,0:0:0:0:
240,168,86608,1,0,0:0:0:0:
256,192,86784,12,0,88902,0:0:0:0:
