osu file format v13

[General]
AudioFilename: 7 -seven-.mp3
AudioLeadIn: 0
PreviewTime: 53608
Countdown: 0
SampleSet: None
StackLeniency: 0.8
Mode: 0
LetterboxInBreaks: 0
WidescreenStoryboard: 1

[Editor]
Bookmarks: 37372,48666,54314,76902
DistanceSpacing: 0.9
BeatDivisor: 2
GridSize: 4
TimelineZoom: 1

[Metadata]
Title:7-seven- (TV Size)
TitleUnicode:7-seven- (TV Size)
Artist:FLOW X GRANRODEO
ArtistUnicode:FLOW X GRANRODEO
Creator:blackabyss
Version:Easy
Source:七つの大罪
Tags:nanatsu no taizai seven deadly sins ending ed
BeatmapID:539553
BeatmapSetID:232358

[Difficulty]
HPDrainRate:2
CircleSize:3
OverallDifficulty:2
ApproachRate:3
SliderMultiplier:0.9
SliderTickRate:2

[Events]
//Background and Video events
0,0,"bg.jpg",0,0
//Break Periods
//Storyboard Layer 0 (Background)
//Storyboard Layer 1 (Fail)
//Storyboard Layer 2 (Pass)
//Storyboard Layer 3 (Foreground)
//Storyboard Sound Samples
//Background Colour Transformations
3,100,163,162,255

[TimingPoints]
667,352.941176470588,4,1,1,40,1,0
11961,-100,4,1,1,60,0,0
37372,-100,4,2,1,55,0,0
47255,-100,4,1,1,55,0,0
48666,-100,4,1,1,60,0,0
54314,-100,4,1,1,73,0,0
76902,-100,4,1,1,60,0,0
88196,-100,4,1,1,30,0,0
88549,-100,4,1,1,15,0,0
88902,-100,4,1,1,5,0,0

[Colours]
Combo1 : 172,172,172
Combo2 : 128,255,0
Combo3 : 117,180,255
Combo4 : 201,12,40
Combo5 : 255,255,0

[HitObjects]
44,104,667,6,0,B|132:80|132:80|220:100,1,180
344,204,2078,2,0,B|256:228|256:228|168:208,1,180
256,72,3490,6,0,L|344:16,2,90,0|0|0,0:0|0:0|0:0,0:0:0:0:
260,236,4902,2,0,L|188:296,2,90,0|0|0,0:0|0:0|0:0,0:0:0:0:
372,120,6314,6,0,P|416:108|464:120,1,90
508,184,7019,1,0,0:0:0:0:
416,316,7725,2,0,P|372:328|324:316,1,90
268,268,8431,1,0,0:0:0:0:
128,188,9137,5,0,0:0:0:0:
188,72,9843,1,0,0:0:0:0:
256,192,10549,12,0,11961,0:0:0:0:
424,192,12666,5,0,0:0:0:0:
296,292,13372,2,0,P|268:332|232:348,2,90,0|0|0,0:0|0:0|0:0,0:0:0:0:
312,132,14784,1,0,0:0:0:0:
160,192,15490,1,0,0:0:0:0:
64,60,16196,2,0,L|160:60,1,90
236,60,16902,1,0,0:0:0:0:
336,188,17608,5,0,0:0:0:0:
244,320,18314,1,0,0:0:0:0:
96,256,19019,2,0,P|84:312|8:336,2,135,0|0|0,0:0|0:0|0:0,0:0:0:0:
76,176,20431,1,0,0:0:0:0:
164,40,21137,1,0,0:0:0:0:
324,68,21843,6,0,P|408:88|432:176,2,180,0|0|0,0:0|0:0|0:0,0:0:0:0:
260,216,23961,1,0,0:0:0:0:
152,96,24666,2,0,L|76:28,2,90,0|0|0,0:0|0:0|0:0,0:0:0:0:
112,252,26078,5,0,0:0:0:0:
252,332,26784,1,0,0:0:0:0:
404,272,27490,2,0,B|380:224|420:192|420:188|420:184|452:140|408:104,1,180
256,52,28902,1,0,0:0:0:0:
168,188,29608,1,0,0:0:0:0:
256,324,30314,6,0,P|176:360|92:332,2,180,0|0|0,0:0|0:0|0:0,0:0:0:0:
372,208,32431,1,0,0:0:0:0:
420,52,33137,2,0,L|328:52,1,90
248,56,33843,1,0,0:0:0:0:
156,188,34549,6,0,P|112:240|40:260,2,135,0|0|0,0:0|0:0|0:0,0:0:0:0:
236,172,35961,2,0,P|284:128|352:112,2,135,0|0|0,0:0|0:0|0:0,0:0:0:0:
256,252,37372,6,0,B|328:304|328:304|428:308,1,180
452,148,38784,2,0,B|426:103|374:119|374:119|362:71|306:75,1,180
144,60,40196,2,0,L|56:24,2,90,0|0|0,0:0|0:0|0:0,0:0:0:0:
140,224,41608,2,0,P|176:252|204:308,1,90
256,348,42314,1,0,0:0:0:0:
380,244,43019,6,0,P|432:176|368:108,1,180
220,88,44431,2,0,L|124:80,2,90,0|0|0,0:0|0:0|0:0,0:0:0:0:
256,248,45843,2,0,L|352:256,2,90,0|0|0,0:0|0:0|0:0,0:0:0:0:
104,308,47255,1,0,0:0:0:0:
48,248,47608,2,0,P|16:212|8:156,1,90
168,144,48666,6,0,P|200:180|208:236,2,90,0|0|0,0:0|0:0|0:0,0:0:0:0:
296,48,50078,2,0,L|392:48,1,90
448,100,50784,1,0,0:0:0:0:
368,240,51490,1,0,0:0:0:0:
256,360,52196,1,0,0:0:0:0:
148,240,52902,1,0,0:0:0:0:
216,92,53608,6,0,L|180:52,2,45,0|0|0,0:0|0:0|0:0,0:0:0:0:
296,84,54314,6,0,L|392:84,1,90
452,132,55019,2,0,P|463:171|443:253,1,90
424,292,55725,2,0,B|344:332|344:332|288:332,2,135,0|0|0,0:0|0:0|0:0,0:0:0:0:
376,224,57137,6,0,L|284:224,1,90
232,284,57843,2,0,P|188:300|144:284,1,90
92,228,58549,2,0,B|72:188|72:188|92:144,1,90
148,88,59255,2,0,L|120:48,2,45,0|0|0,0:0|0:0|0:0,0:0:0:0:
228,76,59961,6,0,L|320:76,1,90,0|0,0:0|0:0,0:0:0:0:
356,148,60666,2,0,P|348:192|320:236,1,90
276,296,61372,2,0,B|304:332|304:332|412:336,2,135,0|0|0,0:0|0:0|0:0,0:0:0:0:
246,214,62784,2,0,B|200:200|176:256|176:256|128:216|96:256,1,180
72,92,64196,2,0,L|-8:28,2,90,0|0|0,0:0|0:0|0:0,0:0:0:0:
136,140,65255,1,0,0:0:0:0:
208,100,65608,6,0,P|252:88|304:104,1,90
324,172,66314,2,0,P|367:182|410:170,1,90
468,228,67019,2,0,L|412:328,1,90
356,352,67725,2,0,B|308:352|308:352|256:324,1,90
232,260,68431,6,0,P|212:224|164:204,1,90,0|0,0:0|0:0,0:0:0:0:
92,236,69137,1,0,0:0:0:0:
104,156,69490,1,0,0:0:0:0:
156,92,69843,2,0,L|128:0,2,90,0|0|0,0:0|0:0|0:0,0:0:0:0:
284,192,71255,6,0,L|328:108,1,90
408,108,71961,2,0,L|440:68,2,45,0|0|0,0:0|0:0|0:0,0:0:0:0:
452,176,72666,2,0,P|492:232|496:316,2,135,0|0|0,0:0|0:0|0:0,0:0:0:0:
372,176,74078,2,0,B|304:260|260:228|260:228|212:264|156:176,1,270
108,108,75490,5,0,0:0:0:0:
188,100,75843,2,0,L|272:48,2,90,0|0|0,0:0|0:0|0:0,0:0:0:0:
156,176,76902,6,0,L|164:280,1,90
224,320,77608,1,0,0:0:0:0:
384,332,78314,2,0,P|360:292|368:224,1,90
380,172,79019,1,0,0:0:0:0:
256,68,79725,6,0,L|340:24,2,90,0|0|0,0:0|0:0|0:0,0:0:0:0:
96,100,81137,2,0,L|12:144,2,90,0|0|0,0:0|0:0|0:0,0:0:0:0:
152,156,82196,1,0,0:0:0:0:
212,212,82549,6,0,P|228:256|264:292,1,90
332,320,83255,1,0,0:0:0:0:
380,164,83961,1,0,0:0:0:0:
336,96,84314,2,0,P|320:52|284:16,1,90
140,76,85372,2,0,P|48:76|96:132,1,180
256,192,86784,12,0,89255,0:0:0:0:
