osu file format v6

[General]
AudioFilename: Sign by flow.mp3
AudioLeadIn: 2007
PreviewTime: 12563
Countdown: 1
SampleSet: Normal
StackLeniency: 0.7
Mode: 0
LetterboxInBreaks: 1

[Editor]
DistanceSpacing: 0.800000011920929
BeatDivisor: 2
GridSize: 8

[Metadata]
Title:Sign
Artist:FLOW
Creator:Yoshney
Version:Jounin
Source:Naruto Shippuuden
Tags:anime OP

[Difficulty]
HPDrainRate:6
CircleSize:4
OverallDifficulty:7
SliderMultiplier:1.4
SliderTickRate:1

[Events]
//Background and Video events
0,0,"naruto-shippuuden.jpg"
Video,-320,"Naruto shippuuden opening 6.wmv"
//Break Periods
2,20818,24436
//Storyboard Layer 0 (Background)
//Storyboard Layer 1 (Fail)
//Storyboard Layer 2 (Pass)
//Storyboard Layer 3 (Foreground)
//Storyboard Sound Samples
//Background Colour Transformations
3,100,163,162,255

[TimingPoints]
1885,402.955003357958,4,1,0,50,1,0
12531,336.978651685394,4,1,0,50,1,0

[HitObjects]
256,320,1482,1,0
256,208,1885,1,0
152,256,2287,1,8
152,144,2690,2,0,B|184:56|264:56,1,140
368,56,3496,1,0
432,144,3899,5,8
368,240,4302,1,0
304,144,4705,1,0
240,240,5108,1,0
128,232,5511,1,8
64,312,5914,2,0,B|0:256|40:176,1,140
64,72,6720,1,0
64,72,7123,1,8
168,72,7526,6,0,B|248:40|336:72|328:88|336:88,1,140
232,168,8332,1,0
304,72,8735,1,8
368,176,9138,1,0
304,264,9541,1,0
256,32,10347,1,8
256,152,10750,1,0
256,264,11153,1,12
320,192,12581,5,0
320,192,12693,1,0
320,192,12805,1,0
320,120,13086,1,0
320,120,13198,1,0
320,120,13311,1,0
424,72,13591,1,0
424,72,13704,1,0
496,72,13928,2,0,B|496:96|512:224|488:352|440:368|328:352|232:352,1,420
136,352,15226,5,0
80,352,15395,1,0
80,296,15563,1,0
136,296,15732,1,8
248,296,16069,1,0
304,296,16237,1,0
416,296,16574,5,0
472,296,16743,1,0
472,240,16911,1,0
416,240,17080,1,8
304,232,17417,1,0
248,232,17585,1,0
136,232,17922,5,0
80,232,18091,1,0
80,176,18259,1,0
136,176,18428,1,8
248,168,18765,1,0
304,168,18933,1,0
416,168,19270,5,0
472,168,19439,1,0
472,112,19607,1,0
416,112,19776,1,8
304,112,20113,1,0
248,112,20281,1,0
192,112,20449,1,0
136,112,20618,1,4
72,88,25336,5,0
72,88,25504,1,0
184,88,25841,2,0,B|264:56|336:96,1,140
368,112,26347,1,8
280,184,26684,1,0
384,224,27021,1,8
384,224,27189,2,8,B|320:288|224:208,1,140,0|0
320,184,27695,5,8
240,112,28032,1,0
152,184,28368,1,8
152,184,28537,1,0
240,248,28874,1,0
240,248,29042,1,8
72,48,29379,5,0
184,48,29716,1,8
128,48,29885,1,0
240,48,30222,5,2
240,48,30390,1,2
160,120,30727,5,0
160,176,30896,1,0
232,264,31233,2,0,B|232:64,1,140
232,64,31738,1,8
120,64,32075,1,0
160,176,32412,1,8
104,200,32581,2,0,B|112:112|200:112,1,140
248,112,33086,1,8
248,224,33423,1,0
64,344,33929,1,0
64,344,34434,2,0,B|448:344|496:344,1,420
448,128,36119,5,0
416,80,36287,1,0
368,48,36456,1,0
312,40,36624,1,0
200,40,36961,1,0
256,136,37298,1,0
256,136,37467,1,0
256,248,37804,1,8
256,304,37972,2,0,B|64:304,1,140,0|0
56,304,38478,1,8
56,192,38815,5,0
64,72,39152,1,8
64,72,39320,2,0,B|136:72|152:72,1,70
168,72,39657,1,0
208,120,39826,1,8
240,72,39994,1,0
352,72,40331,1,0
384,120,40500,1,8
416,72,40668,1,0
456,176,41005,5,2
456,176,41174,1,2
296,112,41511,5,0
296,168,41679,1,0
296,280,42016,2,0,B|296:140,1,140
296,80,42522,1,8
184,80,42859,1,0
184,192,43196,1,8
248,216,43364,2,0,B|241:130|159:130,1,140,0|0
160,72,43870,1,8
48,72,44206,1,0
168,168,44543,5,0
112,168,44712,2,0,B|104:296|272:280,1,210
304,280,45386,1,0
304,224,45554,1,0
136,216,46060,2,0,B|224:168|304:152|376:168|448:200|488:224,1,350
152,152,47239,5,8
200,48,47576,1,0
256,48,47745,1,0
376,48,48082,1,8
488,48,48419,1,0
488,104,48587,1,0
392,160,48924,1,0
392,160,49093,1,0
392,272,49430,1,8
296,312,49767,5,0
296,312,49935,1,0
296,200,50272,1,0
296,200,50441,1,0
184,200,50778,1,8
176,312,51115,5,0
128,288,51283,1,0
96,240,51452,1,0
88,184,51620,1,0
88,128,51789,1,0
176,56,52125,1,8
344,72,52631,5,0
456,72,52968,1,0
376,152,53305,1,0
432,152,53473,1,8
400,264,53810,1,0
344,288,53979,1,0
288,288,54147,1,0
232,272,54316,1,0
136,216,54653,5,0
312,216,54990,1,8
312,48,55327,1,0
360,176,55664,5,0
360,176,55776,1,0
360,176,55888,1,0
288,176,56169,1,0
288,176,56282,1,0
288,176,56394,1,0
176,176,56675,1,0
176,176,56787,1,0
176,176,56899,1,0
176,176,57012,1,4
88,104,57349,5,0
192,56,57686,1,0
304,56,58023,1,0
416,80,58360,2,0,B|472:96|488:176|480:184,1,70
488,176,58697,1,8
488,288,59034,1,0
384,320,59371,2,0,B|320:304|224:320,1,140,8|0
136,320,60044,5,8
136,208,60381,2,0,B|256:208,1,70
264,208,60718,1,8
208,128,61055,1,0
264,208,61392,1,8
208,128,61729,1,0
208,128,62066,2,0,B|-8:184|-16:264|72:344|248:328|288:328|288:328,1,420
280,328,63246,1,0
280,216,63583,6,0,B|432:224|400:128,1,140,0|0
408,120,64088,5,8
296,120,64425,1,0
184,120,64762,1,8
128,120,64931,1,0
48,64,65268,2,0,B|-8:96|8:160,1,70,0|8
8,120,65605,2,0,B|35:179|83:203|75:203,1,70
48,176,65942,1,0
48,176,66110,2,0,B|80:256|104:320|176:352|256:344|360:344|424:320|472:200|480:136,1,560,8|8
468,183,67627,1,0
468,183,67795,1,8
384,112,68132,5,0
384,112,68469,1,0
272,112,68806,1,0
160,104,69143,2,0,B|160:200|160:208,1,70
160,240,69480,1,8
272,240,69817,2,0,B|352:240|328:368,1,140,0|8
216,344,70491,2,0,B|128:344,1,70
88,344,70828,1,8
88,224,71165,6,0,B|88:64,1,140
208,248,71839,1,0
272,152,72176,1,8
200,64,72513,1,0
96,96,72850,2,0,B|64:352|144:368|312:352,1,420,8|0
304,352,74029,1,0
416,352,74366,5,0
480,256,74703,1,0
480,200,74872,1,8
448,96,75209,1,0
400,64,75377,1,0
344,48,75546,1,8
288,48,75714,1,0
176,48,76051,1,0
176,104,76219,1,8
176,160,76388,5,0
176,160,76556,1,0
64,160,76893,1,8
64,160,77062,1,0
48,328,77567,6,0,B|264:232|512:352,1,420
256,192,79252,5,8
256,192,79421,1,8
184,272,79758,1,0
304,272,80095,1,0
360,264,80263,1,8
400,224,80432,1,0
400,168,80600,1,8
400,112,80769,1,0
360,80,80937,1,8
304,80,81106,1,0
256,184,81443,1,0
128,232,81780,5,8
128,232,81948,1,8
192,328,82285,1,0
248,328,82454,1,0
304,232,82791,1,0
256,208,83296,12,4,86497
