osu file format v7

[General]
AudioFilename: Naruto_Shippuuden_-_Sign_TV_Size.mp3
AudioLeadIn: 0
PreviewTime: 57795
Countdown: 0
SampleSet: Soft
StackLeniency: 0.3
Mode: 0
LetterboxInBreaks: 1

[Editor]
DistanceSpacing: 1
BeatDivisor: 4
GridSize: 8

[Metadata]
Title:Sign (TV Size)
Artist:FLOW
Creator:Kecco
Version:Normal
Source:Naruto Shippuuden
Tags:Anime ignorethis

[Difficulty]
HPDrainRate:3
CircleSize:3
OverallDifficulty:3
SliderMultiplier:1
SliderTickRate:2

[Events]
//Background and Video events
0,0,"Minitokyo.Naruto.Wallpapers_293731.jpg"
Video,0,"Naruto_shippuden_Opening_6__HD_.mp4.AVI"
//Break Periods
//Storyboard Layer 0 (Background)
//Storyboard Layer 1 (Fail)
//Storyboard Layer 2 (Pass)
//Storyboard Layer 3 (Foreground)
//Storyboard Sound Samples
//Background Colour Transformations
3,100,163,162,255

[TimingPoints]
1865,800,4,2,1,10,1,0
3506,800,4,2,1,10,1,0
5120,800,4,2,1,10,1,0
12958,337.078651685393,4,1,1,80,1,0
13927,337.078651685393,4,1,1,80,1,0
15661,337.078651685393,4,1,1,80,1,0
30071,-100,4,1,2,80,0,0
30239,-100,4,1,1,80,0,0
34116,-100,4,1,2,80,0,0
34284,-100,4,1,1,80,0,0
40857,-100,4,1,2,80,0,0
41026,-100,4,1,1,80,0,0
44902,-100,4,1,2,80,0,0
45071,-100,4,1,1,80,0,0
48020,-200,4,1,1,80,0,0
57458,-100,4,2,1,0,0,0
58764,-100,4,1,1,80,0,1
69509,-100,4,1,1,80,0,0
69593,-100,4,1,1,80,0,1
85773,-100,4,2,0,0,0,0

[Colours]
Combo1 : 255,128,0
Combo2 : 0,255,255
Combo3 : 5,5,240
Combo4 : 230,0,115

[HitObjects]
224,104,1865,6,0,B|288:104,3,50,0|0|8|0
272,184,3506,6,0,B|222:184,3,50,0|0|8|0
176,248,5120,5,0
104,264,5520,1,0
88,192,5920,1,8
160,176,6320,1,0
144,104,6720,6,0,B|216:104,1,50
272,72,7520,2,0,B|336:72,1,50,8|0
384,120,8320,5,0
408,184,8720,1,0
384,248,9120,1,0
336,296,9520,1,0
272,320,9920,1,0
256,192,10720,12,0,12320
256,192,12958,6,0,B|256:120,1,50
328,72,13463,2,0,B|328:136,1,50
256,72,13927,2,0,B|200:72,1,50
256,192,14264,12,0,15275
256,192,15661,5,0
352,192,15998,1,0
448,192,16335,1,0
400,104,16672,1,4
304,104,17009,5,0
208,104,17346,1,0
112,104,17683,1,0
160,192,18020,1,4
256,192,18357,6,0,B|360:192,1,100
304,280,19031,2,0,B|192:280,1,100,0|4
256,192,19705,2,0,B|136:192,1,100
208,104,20380,2,0,B|320:104,1,100,0|4
256,192,21054,5,0
160,192,21391,1,0
64,192,21728,1,0
112,104,22065,1,4
208,104,22402,5,0
304,104,22739,1,0
400,104,23076,1,0
352,192,23413,1,4
256,192,23750,6,0,B|152:192,1,100
208,280,24424,2,0,B|320:280,1,100,0|4
256,192,25098,2,0,B|376:192,1,100
304,104,25773,2,0,B|192:104,1,100,0|4
104,104,26447,6,0,B|48:200,1,100,0|8
80,288,27121,2,0,B|200:288,1,100,0|8
208,192,27795,2,0,B|328:192,1,100,0|8
408,192,28469,2,0,B|464:96,1,100,0|8
376,48,29144,5,0
280,48,29480,1,8
176,48,29818,2,0,B|64:64|56:200,1,200
104,280,30829,1,8
192,336,31166,6,0,B|312:336,1,100,0|8
360,264,31840,2,0,B|256:264,1,100,0|8
192,192,32514,2,0,B|296:192,1,100,0|8
360,120,33189,2,0,B|248:120,1,100,0|8
200,40,33863,2,0,B|88:56|48:176,1,200
256,192,34874,12,0,36222
256,192,36559,5,8
408,104,37234,6,0,B|464:200,1,100,0|8
432,288,37908,2,0,B|312:288,1,100,0|8
304,192,38582,2,0,B|184:192,1,100,0|8
104,192,39256,2,0,B|48:96,1,100,0|8
136,48,39931,5,0
232,48,40267,1,8
336,48,40605,2,0,B|448:64|456:200,1,200
320,336,41953,6,0,B|200:336,1,100,0|8
152,264,42627,2,0,B|256:264,1,100,0|8
320,192,43301,2,0,B|216:192,1,100,0|8
152,120,43976,2,0,B|264:120,1,100,0|8
312,40,44650,2,0,B|424:56|464:176,1,200
256,192,45661,12,4,47346
256,192,48020,6,0,B|368:192,1,100,0|8
320,96,49368,2,0,B|208:96,1,100,0|8
184,192,50717,2,0,B|72:192,1,100,0|8
96,288,52065,2,0,B|208:288,1,100,0|8
248,288,53076,5,0
296,288,53413,2,0,B|408:288,1,100,8|8
384,192,54762,2,0,B|272:192,1,100,8|8
256,192,56110,12,0,58132
256,192,58807,6,0,B|376:192,1,100,4|8
440,136,59481,2,0,B|408:88|344:96,1,100,0|8
256,96,60155,2,0,B|144:96,1,100,0|8
64,136,60829,2,0,B|88:192|160:192,1,100,0|8
240,192,61503,5,0
336,192,61840,1,8
432,192,62177,1,0
432,288,62514,1,8
336,288,62852,5,0
256,344,63189,1,8
168,288,63526,1,0
168,192,63863,1,8
72,200,64200,6,0,B|72:96,1,100,0|8
160,48,64874,2,0,B|264:48,1,100,0|8
360,48,65548,2,0,B|472:48,1,100,0|8
488,144,66222,2,0,B|488:256,1,100,0|8
256,192,66896,12,0,69256
256,192,69593,6,0,B|152:192,1,100,0|8
56,192,70267,2,0,B|96:288,1,100,0|8
192,280,70941,2,0,B|304:280,1,100,0|8
360,208,71616,2,0,B|432:128,1,100,0|8
336,88,72290,5,0
256,32,72627,1,8
176,88,72964,2,0,B|64:88,1,100,0|8
32,176,73638,5,0
72,264,73975,1,8
120,176,74312,2,0,B|224:176,1,100,0|8
176,264,74986,6,0,B|288:264,1,100,0|8
328,176,75660,1,0
368,80,75998,2,0,B|248:80,2,100,8|0|8
456,128,77009,2,0,B|456:240,1,100,0|8
400,312,77683,5,0
304,312,78020,1,8
352,224,78357,2,0,B|240:224,1,100,0|8
216,128,79031,1,0
120,128,79368,1,8
168,40,79705,2,0,B|288:40,1,100,0|8
368,40,80380,6,0,B|432:40|464:96,1,100,0|8
456,184,81054,1,0
456,280,81391,2,0,B|433:321|369:321,2,100,8|0|8
456,184,82402,2,0,B|240:184,1,200
160,184,83413,5,8
72,136,83750,1,0
144,72,84087,1,8
248,72,84425,5,0
280,168,84762,1,8
352,96,85099,1,0
392,192,85436,1,8
256,192,85773,12,0,87795
