osu file format v5

[General]
AudioFilename: OUENDAN 2 Okuru Kotoba.mp3
AudioLeadIn: 0
PreviewTime: -1
Countdown: 3
SampleSet: Normal

[Metadata]
Title:Okuru Kotoba
Artist:FLOW
Creator:Kai
Version:Easy

[Difficulty]
HPDrainRate:2
CircleSize:5
OverallDifficulty:3
SliderMultiplier:1.6
SliderTickRate:4

[Events]
//Background and Video events
0,0,"hitthetarget.jpg"
//Break Periods
2,32311,43236
2,54270,63198
2,78812,89971
2,103510,111225
//Storyboard Layer 0 (Background)
//Storyboard Layer 1 (Failing)
//Storyboard Layer 2 (Passing)
//Storyboard Layer 3 (Foreground)
//Storyboard Sound Samples
//Background Colour Transformations
3,100,163,162,255

[TimingPoints]
20644,666.814847743943,4,1,0,100

[HitObjects]
368,80,20644,1,0
120,80,21977,1,0
376,80,23310,5,0
120,80,24644,1,0
376,80,25977,5,0
120,80,27310,1,0
256,320,28645,5,0
256,216,29312,1,0
104,120,29977,6,0,B|440:120,1,320
256,216,31977,1,0
496,80,44676,6,0,B|8:80,1,480
8,224,47310,2,0,B|512:224,1,480
376,80,49977,5,0
112,80,51310,1,0
256,328,53310,5,0
256,200,53977,1,0
376,64,64653,5,0
72,64,65987,1,0
80,320,67321,5,0
408,320,68654,1,0
400,64,69988,5,0
80,64,71321,1,0
96,336,72655,5,0
256,336,73322,1,0
424,336,73989,5,0
424,192,74656,1,0
424,64,75324,5,0
256,64,75977,1,0
104,64,76643,5,0
104,192,77310,1,0
104,328,77977,5,0
240,328,78656,1,0
496,88,91326,6,0,B|8:88,1,480
8,200,93994,2,0,B|496:200,1,480
376,80,96660,5,0
112,80,97994,1,0
256,328,99328,5,0
256,200,99995,1,0
256,192,100661,12,0,103013
376,72,112664,1,0
376,304,113998,1,0
96,304,115331,5,0
96,56,116665,1,0
384,56,117998,5,0
384,192,118665,1,0
384,320,119332,1,0
112,320,120666,5,0
112,184,121333,1,0
8,72,121999,2,0,B|496:72,1,480
488,176,124643,2,0,B|0:176,1,480
128,344,127343,5,0
248,344,127977,1,0
368,344,128643,1,0
120,56,129977,5,0
256,56,130643,1,0
408,56,131335,1,0
256,320,132627,5,0
256,192,133332,1,0
256,64,133977,1,0
256,192,134669,12,0,138003
