osu file format v12

[General]
AudioFilename: FightingYolo.mp3
AudioLeadIn: 0
PreviewTime: 8125
Countdown: 1
SampleSet: Normal
StackLeniency: 0.8
Mode: 0
LetterboxInBreaks: 1
WidescreenStoryboard: 1

[Editor]
DistanceSpacing: 1.5
BeatDivisor: 4
GridSize: 4

[Metadata]
Title:GO!!! (TV Size)
TitleUnicode:GO!!! (TV Size)
Artist:FLOW
ArtistUnicode:FLOW
Creator:Swayzo
Version:Jounin [Insane]
Source:Naruto
Tags:Naruto 4 Opening Intro Fighting Dreamers
BeatmapID:353157
BeatmapSetID:141654

[Difficulty]
HPDrainRate:7
CircleSize:4
OverallDifficulty:5
ApproachRate:9
SliderMultiplier:2.5
SliderTickRate:1

[Events]
//Background and Video events
Video,404,"narutoFighting4Swag.avi"
0,0,"1379145.jpg",0,0
//Break Periods
//Storyboard Layer 0 (Background)
//Storyboard Layer 1 (Fail)
//Storyboard Layer 2 (Pass)
//Storyboard Layer 3 (Foreground)
//Storyboard Sound Samples
//Background Colour Transformations
3,100,163,162,255

[TimingPoints]
1152,447.761194029851,4,2,1,54,1,0
7888,447.761194029851,4,2,1,54,1,0
8783,-74.0740740740741,4,1,1,54,0,1
23112,-74.0740740740741,4,1,1,54,0,0
44604,-66.6666666666667,4,1,1,54,0,0
58932,-74.0740740740741,4,1,1,54,0,1
73280,449.438202247191,4,1,1,54,1,0
73280,-74.0740740740741,4,1,1,54,0,0
89520,449.438202247191,4,1,1,54,1,0

[Colours]
Combo1 : 255,128,0
Combo2 : 0,255,255
Combo3 : 0,0,255
Combo4 : 255,0,255

[HitObjects]
80,80,1152,22,0,L|384:48,1,250,4|0,0:0|0:0,0:0:0:0:
448,96,1823,1,0,0:0:0:0:
368,192,2047,1,8,0:0:0:0:
448,288,2271,1,0,0:0:0:0:
264,240,2495,1,0,0:0:0:0:
232,248,2607,1,8,0:0:0:0:
200,256,2719,1,0,0:0:0:0:
80,288,2943,1,8,0:0:0:0:
296,232,3166,1,0,0:0:0:0:
232,56,3390,38,0,L|256:192,1,125
280,304,3838,1,8,0:0:0:0:
392,248,4062,1,0,0:0:0:0:
208,208,4286,1,0,0:0:0:0:
176,200,4398,1,8,0:0:0:0:
144,192,4510,1,0,0:0:0:0:
24,160,4734,1,8,0:0:0:0:
240,216,4957,1,0,0:0:0:0:
264,32,5181,38,0,L|224:168,1,125
192,272,5629,1,8,0:0:0:0:
304,216,5853,1,0,0:0:0:0:
264,32,6077,1,0,0:0:0:0:
296,40,6189,1,8,0:0:0:0:
328,48,6301,1,0,0:0:0:0:
448,88,6525,38,0,B|400:72|400:72|408:112|384:128|384:128|336:160|456:184|392:264,1,250,8|8,0:0|0:0,0:0:0:0:
396,260,7196,1,8,0:0:0:0:
388,268,7420,1,8,0:0:0:0:
380,276,7644,1,8,0:0:0:0:
372,284,7888,2,0,B|312:344|312:344|240:256|136:316,1,250,2|0,0:0|0:0,0:0:0:0:
64,384,8559,5,0,0:0:0:0:
88,208,8783,2,0,L|64:384,1,168.75000064373,4|0,0:0|0:0,0:0:0:0:
216,172,9231,2,0,B|88:208|88:208|112:40,1,253.125000965595
108,72,9679,1,0,0:0:0:0:
336,176,9902,2,0,L|156:88,1,168.75000064373
256,256,10350,6,0,P|185:317|30:174,1,337.50000128746
176,96,11022,1,0,0:0:0:0:
256,256,11246,1,0,0:0:0:0:
228,224,11358,2,0,P|177:268|65:165,1,253.125000965595,0|0,0:0|0:0,0:0:0:0:
192,56,11917,1,0,0:0:0:0:
256,256,12141,1,0,0:0:0:0:
360,16,12365,6,0,L|264:240,1,168.75000064373,0|0,0:0|0:0,0:0:0:0:
388,312,12813,2,0,B|332:280|332:280|348:168|228:144|188:224,1,253.125000965595
200,232,13261,1,0,0:0:0:0:
28,296,13485,2,0,P|176:268|192:228,1,168.75000064373
376,264,13932,22,0,P|297:139|152:224,1,337.50000128746
256,336,14604,1,0,0:0:0:0:
392,240,14828,1,0,0:0:0:0:
344,264,14940,2,0,P|277:170|177:228,1,253.125000965595
128,384,15499,1,0,0:0:0:0:
177,227,15723,1,0,0:0:0:0:
36,80,15947,38,0,L|147:207,1,168.75000064373,0|0,0:0|0:0,0:0:0:0:
272,96,16395,2,0,P|264:256|360:296,1,253.125000965595
416,304,16843,2,0,B|472:312|504:288|504:288|480:184,1,168.75000064373
424,376,17290,1,0,0:0:0:0:
432,120,17514,22,0,P|384:240|304:120,1,337.50000128746
240,280,18186,1,0,0:0:0:0:
368,160,18410,1,0,0:0:0:0:
368,160,18522,2,0,P|352:304|272:288,1,253.125000965595
144,200,19082,1,0,0:0:0:0:
220,352,19305,1,0,0:0:0:0:
288,120,19529,38,0,L|224:336,1,168.75000064373
120,152,19977,1,0,0:0:0:0:
288,120,20201,2,0,P|384:80|448:192,1,253.125000965595
408,312,20649,2,0,P|360:232|368:152,1,168.75000064373
448,16,21096,1,0,0:0:0:0:
365,159,21320,38,0,P|200:112|296:32,1,337.50000128746,0|0,0:0|0:0,0:0:0:0:
365,159,21992,1,0,0:0:0:0:
256,288,22216,2,0,L|288:112,1,168.75000064373,0|0,0:0|0:0,0:0:0:0:
286,121,22664,1,4,0:0:0:0:
286,121,23111,38,0,L|256:296,1,168.75000064373,4|0,0:0|0:0,0:0:0:0:
257,287,23559,1,0,0:0:0:0:
99,343,23783,2,0,L|259:287,1,168.75000064373
416,232,24231,1,0,0:0:0:0:
288,120,24455,2,0,B|256:96|256:96|160:232|56:96,1,253.125000965595,0|0,0:0|0:0,0:0:0:0:
48,96,24902,22,0,L|32:288,1,168.75000064373
28,348,25350,1,0,0:0:0:0:
28,348,25462,1,0,0:0:0:0:
28,348,25686,1,0,0:0:0:0:
28,348,25798,2,0,B|72:312|72:312|136:376|244:292,1,168.75000064373
296,216,26246,1,0,0:0:0:0:
136,264,26470,1,0,0:0:0:0:
376,184,26693,6,0,P|344:288|264:288,1,168.75000064373
296,298,27141,1,0,0:0:0:0:
210,190,27365,2,0,P|221:269|296:299,1,168.75000064373
464,280,27813,1,0,0:0:0:0:
296,224,28037,1,4,0:0:0:0:
296,296,28485,5,2,0:0:0:0:
296,296,29828,5,8,0:0:0:0:
296,296,30052,1,8,0:0:0:0:
296,296,30164,1,8,0:0:0:0:
296,296,30276,6,0,P|240:352|144:344,1,168.75000064373,4|0,0:0|0:0,0:0:0:0:
56,216,30723,1,0,0:0:0:0:
155,349,30947,1,0,0:0:0:0:
128,320,31059,1,0,0:0:0:0:
104,288,31171,1,0,0:0:0:0:
185,145,31395,1,0,0:0:0:0:
288,280,31619,2,0,L|184:144,1,168.75000064373
432,232,32067,6,0,P|376:288|280:280,1,168.75000064373
185,145,32514,1,0,0:0:0:0:
96,288,32738,1,0,0:0:0:0:
120,256,32850,1,0,0:0:0:0:
144,216,32962,1,0,0:0:0:0:
256,344,33186,1,0,0:0:0:0:
368,216,33410,2,0,L|184:144,1,168.75000064373
456,232,33858,6,0,P|400:304|304:264,1,168.75000064373
408,144,34305,1,0,0:0:0:0:
315,285,34529,1,0,0:0:0:0:
344,248,34641,1,0,0:0:0:0:
368,216,34753,1,0,0:0:0:0:
256,88,34977,1,0,0:0:0:0:
144,216,35201,1,0,0:0:0:0:
312,24,35425,1,0,0:0:0:0:
480,24,35649,6,0,L|256:24,1,168.75000064373
256,184,36096,1,0,0:0:0:0:
200,24,36320,1,0,0:0:0:0:
160,24,36432,2,0,P|38:88|32:224,1,253.125000965595
75,299,36992,1,0,0:0:0:0:
109,323,37104,1,0,0:0:0:0:
149,335,37216,1,0,0:0:0:0:
191,333,37328,1,0,0:0:0:0:
230,318,37440,5,0,0:0:0:0:
231,320,37888,1,0,0:0:0:0:
390,268,38335,2,0,L|230:319,1,168.75000064373
231,320,38783,1,0,0:0:0:0:
220,68,39007,2,0,L|228:276,1,168.75000064373
390,268,39455,5,0,0:0:0:0:
422,81,39679,2,0,P|363:184|309:176,1,168.75000064373
240,176,40014,2,0,P|163:199|146:278,1,168.75000064373
156,320,40350,1,0,0:0:0:0:
296,224,40574,1,0,0:0:0:0:
408,352,40798,1,0,0:0:0:0:
296,128,41022,1,0,0:0:0:0:
249,290,41246,6,0,L|296:128,1,168.75000064373
328,296,41693,1,0,0:0:0:0:
208,176,41917,1,0,0:0:0:0:
376,136,42141,1,0,0:0:0:0:
256,360,42365,2,0,L|200:151,1,168.75000064373
191,115,42701,1,0,0:0:0:0:
184,32,42813,2,0,P|112:80|176:200,1,168.75000064373
256,64,43261,1,0,0:0:0:0:
114,155,43485,2,0,P|191:193|263:77,1,168.75000064373
270,137,43820,5,0,0:0:0:0:
287,121,43932,1,0,0:0:0:0:
309,112,44044,1,0,0:0:0:0:
333,110,44156,1,0,0:0:0:0:
356,114,44268,1,0,0:0:0:0:
378,126,44380,1,0,0:0:0:0:
394,143,44492,1,0,0:0:0:0:
406,158,44604,6,0,P|426:206|362:318,1,187.500007152558,0|8,0:0|0:0,0:0:0:0:
256,154,45052,2,0,P|184:208|96:152,1,187.500007152558,0|8,0:0|0:0,0:0:0:0:
72,80,45499,2,0,L|80:296,1,187.500007152558,0|8,0:0|0:0,0:0:0:0:
80,360,45835,2,0,P|185:282|313:363,1,281.250010728836,0|8,0:0|0:0,0:0:0:0:
176,208,46395,5,0,0:0:0:0:
304,344,46619,1,8,0:0:0:0:
320,160,46843,1,0,0:0:0:0:
448,296,47067,2,0,P|328:296|304:352,2,187.500007152558,8|0|8,0:0|0:0|0:0,0:0:0:0:
488,384,47626,2,0,L|464:88,1,281.250010728836,0|8,0:0|0:0,0:0:0:0:
464,104,48186,6,0,L|286:42,1,187.500007152558,0|8,0:0|0:0,0:0:0:0:
296,184,48634,1,0,0:0:0:0:
224,40,48858,2,0,L|16:112,1,187.500007152558,8|0,0:0|0:0,0:0:0:0:
56,288,49305,1,8,0:0:0:0:
192,160,49529,1,0,0:0:0:0:
248,336,49753,1,8,0:0:0:0:
56,288,49977,2,0,P|136:360|240:336,1,187.500007152558,0|8,0:0|0:0,0:0:0:0:
192,160,50425,1,0,0:0:0:0:
400,160,50649,6,0,B|464:134|400:95|400:95|464:69|400:29|400:29,1,187.500007152558,4|0,0:0|0:0,0:0:0:0:
112,29,51096,2,0,B|48:69|112:95|112:95|48:134|112:160,1,187.500007152558,12|0,0:0|0:0,0:0:0:0:
360,28,51544,1,12,0:0:0:0:
424,232,51768,6,0,P|344:270|178:222,1,187.500007152558,0|8,0:0|0:0,0:0:0:0:
208,232,52104,1,0,0:0:0:0:
224,184,52216,2,0,P|195:77|110:5,1,187.500007152558,0|8,0:0|0:0,0:0:0:0:
424,48,52664,2,0,L|156:24,1,187.500007152558,0|8,0:0|0:0,0:0:0:0:
88,96,53111,1,0,0:0:0:0:
208,232,53335,1,8,0:0:0:0:
304,80,53559,6,0,L|144:176,2,187.500007152558,0|8|0,0:0|0:0|0:0,0:0:0:0:
304,264,54231,1,8,0:0:0:0:
468,172,54455,1,0,0:0:0:0:
420,180,54567,1,0,0:0:0:0:
372,188,54679,1,8,0:0:0:0:
392,0,54902,1,0,0:0:0:0:
468,172,55126,1,8,0:0:0:0:
392,344,55350,6,0,P|400:224|464:176,1,187.500007152558,0|8,0:0|0:0,0:0:0:0:
200,320,55798,2,0,P|315:286|382:330,1,187.500007152558,0|8,0:0|0:0,0:0:0:0:
88,368,56246,2,0,L|54:115,1,187.500007152558,0|8,0:0|0:0,0:0:0:0:
192,88,56693,2,0,P|76:121|9:77,2,187.500007152558,0|8|8,0:0|0:0|0:0,0:0:0:0:
208,80,57365,5,8,0:0:0:0:
224,72,57589,1,8,0:0:0:0:
240,64,57813,1,8,0:0:0:0:
256,56,58037,1,2,0:0:0:0:
272,48,58932,6,0,B|305:23|305:23|385:56|372:178,1,168.75000064373,4|0,0:0|0:0,0:0:0:0:
376,280,59380,1,0,0:0:0:0:
256,160,59604,1,0,0:0:0:0:
296,176,59716,1,0,0:0:0:0:
336,192,59828,1,0,0:0:0:0:
256,344,60052,1,0,0:0:0:0:
408,264,60276,1,0,0:0:0:0:
152,240,60499,6,0,L|328:256,1,168.75000064373
200,136,60947,1,0,0:0:0:0:
128,288,61171,1,0,0:0:0:0:
296,320,61395,1,0,0:0:0:0:
332,300,61507,1,0,0:0:0:0:
372,284,61619,1,0,0:0:0:0:
240,176,61843,1,0,0:0:0:0:
376,80,62067,1,0,0:0:0:0:
296,320,62290,1,0,0:0:0:0:
128,288,62514,6,0,P|56:232|72:160,1,168.75000064373,0|0,0:0|0:0,0:0:0:0:
192,48,62962,1,0,0:0:0:0:
136,208,63186,1,0,0:0:0:0:
176,196,63298,1,0,0:0:0:0:
216,184,63410,1,0,0:0:0:0:
376,128,63634,1,0,0:0:0:0:
344,296,63858,1,0,0:0:0:0:
216,184,64082,6,0,P|128:152|72:200,1,168.75000064373
64,360,64529,1,0,0:0:0:0:
216,288,64753,1,0,0:0:0:0:
76,196,64977,1,0,0:0:0:0:
112,220,65089,1,0,0:0:0:0:
148,244,65201,1,0,0:0:0:0:
288,344,65425,1,0,0:0:0:0:
384,208,65649,1,0,0:0:0:0:
148,244,65873,1,0,0:0:0:0:
224,0,66096,6,0,L|160:208,1,168.75000064373,0|0,0:0|0:0,0:0:0:0:
288,288,66544,1,0,0:0:0:0:
288,120,66768,1,0,0:0:0:0:
248,136,66880,1,0,0:0:0:0:
208,152,66992,1,0,0:0:0:0:
288,288,67216,1,0,0:0:0:0:
40,356,67440,1,0,0:0:0:0:
80,192,67664,6,0,L|40:360,1,168.75000064373
200,304,68111,2,0,P|264:288|320:368,1,168.75000064373
344,192,68559,1,0,0:0:0:0:
344,192,68671,2,0,P|416:248|432:96,1,253.125000965595
320,168,69231,2,0,B|304:144|304:144|224:144|216:240,1,168.75000064373
32,80,69679,6,0,L|256:136,1,168.75000064373
360,96,70126,1,0,0:0:0:0:
192,288,70350,2,0,P|80:296|96:176,1,253.125000965595
156,152,70798,2,0,P|230:146|219:226,1,168.75000064373
136,240,71246,1,0,0:0:0:0:
96,80,71470,6,0,P|72:184|152:232,1,168.75000064373,0|0,0:0|0:0,0:0:0:0:
319,79,71917,2,0,P|240:6|159:51,1,168.75000064373,0|0,0:0|0:0,0:0:0:0:
208,272,72365,2,0,P|310:240|311:147,1,168.75000064373,0|0,0:0|0:0,0:0:0:0:
324,20,72813,1,4,0:0:0:0:
324,20,73280,6,0,L|324:188,1,168.75000064373,4|0,0:0|0:0,0:0:0:0:
192,288,73729,1,0,0:0:0:0:
360,256,73954,2,0,P|288:320|224:304,1,168.75000064373
80,224,74403,1,0,0:0:0:0:
352,216,74628,2,0,P|280:280|216:264,1,168.75000064373
257,93,75077,5,0,0:0:0:0:
56,240,75302,2,0,L|224:120,1,168.75000064373
257,93,75639,1,0,0:0:0:0:
328,44,75864,1,0,0:0:0:0:
364,20,75976,2,0,P|464:64|424:156,1,168.75000064373
388,256,76426,2,0,P|376:147|475:136,1,168.75000064373
408,300,76875,6,0,P|319:364|260:283,1,168.75000064373
88,380,77324,1,0,0:0:0:0:
8,232,77549,2,0,P|97:168|156:249,1,168.75000064373
300,176,77999,2,0,P|211:240|152:159,1,168.75000064373
313,126,78448,1,0,0:0:0:0:
456,216,78673,6,0,L|294:114,1,168.75000064373
280,104,79010,1,0,0:0:0:0:
432,32,79235,2,0,P|322:22|313:122,1,168.75000064373
280,104,79572,1,0,0:0:0:0:
48,240,79796,1,0,0:0:0:0:
256,376,80021,1,0,0:0:0:0:
216,216,80246,1,0,0:0:0:0:
352,128,80471,6,0,P|274:108|223:170,1,168.75000064373
192,336,80920,1,0,0:0:0:0:
48,240,81145,2,0,P|126:220|177:282,1,168.75000064373
256,136,81594,1,0,0:0:0:0:
432,312,81819,2,0,P|354:332|303:270,1,168.75000064373
256,104,82268,1,0,0:0:0:0:
112,176,82493,6,0,P|187:204|244:147,1,168.75000064373
243,147,82830,1,0,0:0:0:0:
264,64,83055,1,0,0:0:0:0:
272,24,83167,2,0,P|346:-4|408:56,1,168.75000064373
432,216,83617,2,0,P|370:165|389:87,1,168.75000064373
464,240,84066,6,0,P|449:318|373:342,1,168.75000064373
256,216,84515,1,0,0:0:0:0:
137,341,84740,2,0,P|57:315|43:234,1,168.75000064373
96,80,85190,1,0,0:0:0:0:
256,24,85414,2,0,P|218:95|138:97,1,168.75000064373
40,328,85864,6,0,L|88:104,1,168.75000064373
96,80,86201,1,0,0:0:0:0:
128,248,86426,1,0,0:0:0:0:
144,168,86538,2,0,P|210:123|279:164,1,168.75000064373
256,328,86987,5,0,0:0:0:0:
280,164,87212,5,0,0:0:0:0:
249,372,87437,5,0,0:0:0:0:
286,119,87662,5,4,0:0:0:0:
256,192,87774,12,4,89520,0:0:0:0:
