osu file format v12

[General]
AudioFilename: FightingYolo.mp3
AudioLeadIn: 0
PreviewTime: 8125
Countdown: 1
SampleSet: Normal
StackLeniency: 0.4
Mode: 0
LetterboxInBreaks: 1
WidescreenStoryboard: 1

[Editor]
DistanceSpacing: 0.5
BeatDivisor: 4
GridSize: 4

[Metadata]
Title:GO!!! (TV Size)
TitleUnicode:GO!!! (TV Size)
Artist:FLOW
ArtistUnicode:FLOW
Creator:Swayzo
Version:Chuunin [Hard]
Source:Naruto
Tags:Naruto 4 Opening Intro Fighting Dreamers
BeatmapID:353156
BeatmapSetID:141654

[Difficulty]
HPDrainRate:5
CircleSize:4
OverallDifficulty:4
ApproachRate:7
SliderMultiplier:2
SliderTickRate:2

[Events]
//Background and Video events
Video,404,"narutoFighting4Swag.avi"
0,0,"1379145.jpg",0,0
//Break Periods
//Storyboard Layer 0 (Background)
//Storyboard Layer 1 (Fail)
//Storyboard Layer 2 (Pass)
//Storyboard Layer 3 (Foreground)
//Storyboard Sound Samples
//Background Colour Transformations
3,100,163,162,255

[TimingPoints]
1152,447.761194029851,4,2,1,54,1,0
7888,447.761194029851,4,2,1,54,1,0
8783,-74.0740740740741,4,1,1,54,0,1
23112,-74.0740740740741,4,1,1,54,0,0
44604,-66.6666666666667,4,1,2,54,0,0
58932,-74.0740740740741,4,1,1,54,0,1
73280,449.438202247191,4,1,1,54,1,0
73280,-74.0740740740741,4,1,1,54,0,0
89520,449.438202247191,4,1,1,54,1,0

[Colours]
Combo1 : 255,128,0
Combo2 : 0,255,255
Combo3 : 0,0,255
Combo4 : 255,0,255

[HitObjects]
36,104,1152,22,0,L|268:68,1,200,4|0,0:0|0:0,0:0:0:0:
284,64,1823,1,0,0:0:0:0:
332,56,2047,2,0,P|420:88|448:212,1,200,8|0,0:0|0:0,0:0:0:0:
440,232,2719,1,8,0:0:0:0:
456,280,2943,38,0,B|456:344|456:344|384:300|308:360,1,200,8|0,0:0|0:0,0:0:0:0:
284,372,3614,1,0,0:0:0:0:
268,324,3838,2,0,P|184:244|80:296,1,200,8|0,0:0|0:0,0:0:0:0:
64,278,4510,1,8,0:0:0:0:
16,296,4734,38,0,L|0:84,1,200,8|0,0:0|0:0,0:0:0:0:
0,56,5405,1,0,0:0:0:0:
48,44,5629,2,0,P|160:64|192:144,1,200,8|0,0:0|0:0,0:0:0:0:
200,184,6301,1,8,0:0:0:0:
352,316,6525,38,0,P|240:296|208:216,1,200,8|8,0:0|0:0,0:0:0:0:
207,225,7196,1,8,0:0:0:0:
207,225,7420,1,8,0:0:0:0:
207,225,7644,1,8,0:0:0:0:
207,225,7888,1,2,0:0:0:0:
208,224,8783,6,0,P|141:111|257:67,1,270.000001029968
352,140,9455,1,0,0:0:0:0:
260,240,9679,2,0,P|193:127|309:83,1,270.000001029968
401,155,10350,2,0,P|464:196|368:352,1,270.000001029968
352,308,11022,2,0,B|260:240|260:240|204:340|120:308,1,270.000001029968
68,308,11693,1,0,0:0:0:0:
84,172,11917,1,0,0:0:0:0:
64,332,12141,1,0,0:0:0:0:
84,172,12365,22,0,P|164:76|284:152,1,270.000001029968
224,256,13037,1,0,0:0:0:0:
92,220,13261,2,0,P|172:124|292:200,1,270.000001029968
232,304,13932,2,0,B|248:360|248:360|360:224|456:356,1,270.000001029968
472,288,14604,2,0,P|504:216|420:48,1,270.000001029968
364,40,15276,1,0,0:0:0:0:
348,172,15499,1,0,0:0:0:0:
368,12,15723,1,0,0:0:0:0:
348,172,15947,6,0,P|256:252|128:172,1,270.000001029968
208,80,16619,1,0,0:0:0:0:
336,120,16843,2,0,P|244:200|116:120,1,270.000001029968
196,28,17514,2,0,B|184:0|184:0|32:16|32:160,1,270.000001029968
32,220,18186,2,0,P|68:280|152:296,1,135.000000514984
156,280,18522,2,0,P|224:212|344:280,1,202.500000772476
452,352,19082,1,0,0:0:0:0:
347,268,19305,1,0,0:0:0:0:
452,184,19529,6,0,P|396:64|256:52,1,270.000001029968
420,196,20201,2,0,P|364:76|232:100,1,270.000001029968
108,124,20873,2,0,P|188:140|224:88,1,135.000000514984
80,252,21320,2,0,P|232:282|301:183,1,270.000001029968,0|8,0:0|0:0,0:0:0:0:
300,192,21992,1,8,0:0:0:0:
304,180,22216,1,8,0:0:0:0:
308,168,22440,1,8,0:0:0:0:
312,156,22664,1,12,0:0:0:0:
316,144,23111,6,0,B|344:68|344:68|424:76,1,135.000000514984,4|0,0:0|0:0,0:0:0:0:
264,64,23559,1,0,0:0:0:0:
126,69,23783,2,0,B|180:63|180:63|208:140,1,135.000000514984,0|0,0:0|0:0,0:0:0:0:
248,268,24231,1,0,0:0:0:0:
380,236,24455,2,0,P|284:280|212:236,1,135.000000514984
212,152,24902,6,0,B|228:208|228:208|196:332,2,135.000000514984
180,140,25462,2,0,P|113:138|60:178,1,135.000000514984
52,212,25798,1,0,0:0:0:0:
80,344,26022,1,0,0:0:0:0:
44,188,26246,1,0,0:0:0:0:
80,344,26470,1,0,0:0:0:0:
208,296,26693,6,0,P|141:294|88:334,1,135.000000514984
140,208,27141,1,0,0:0:0:0:
236,304,27365,2,0,P|302:305|355:265,1,135.000000514984
256,176,27813,1,0,0:0:0:0:
150,86,28037,6,0,P|256:16|361:86,1,270.000001029968,8|2,0:0|0:0,0:0:0:0:
361,87,29828,6,0,B|372:144|372:144|320:164|328:236,1,135.000000514984,8|8,0:0|0:0,0:0:0:0:
328,236,30164,1,8,0:0:0:0:
332,268,30276,6,0,B|344:332|344:332|232:236|172:328|152:376,1,270.000001029968
96,340,30947,2,0,P|192:232|328:236,1,270.000001029968
416,312,31619,1,0,0:0:0:0:
309,228,31843,1,0,0:0:0:0:
368,108,32067,6,0,B|308:228|308:228|128:156,1,270.000001029968
55,130,32738,1,0,0:0:0:0:
86,140,32850,2,0,P|185:47|284:97,1,202.500000772476
368,107,33410,1,0,0:0:0:0:
368,107,33634,1,0,0:0:0:0:
444,217,33858,6,0,L|368:107,1,135.000000514984
232,128,34305,1,0,0:0:0:0:
209,261,34529,2,0,L|232:128,1,135.000000514984
332,224,34977,1,0,0:0:0:0:
364,354,35201,2,0,L|332:224,1,135.000000514984
232,128,35649,6,0,L|32:144,1,135.000000514984
184,260,36096,2,0,P|104:208|104:152,1,135.000000514984
96,140,36432,2,0,B|48:348|48:348|120:300|208:352,1,337.50000128746
228,364,37216,1,0,0:0:0:0:
288,336,37440,5,0,0:0:0:0:
288,336,37888,1,0,0:0:0:0:
256,68,38335,1,0,0:0:0:0:
256,68,38559,1,0,0:0:0:0:
256,68,38783,1,0,0:0:0:0:
340,172,39007,2,0,P|260:120|260:64,1,135.000000514984
380,32,39455,5,0,0:0:0:0:
500,92,39679,2,0,P|476:153|415:176,1,135.000000514984
396,204,40014,2,0,P|419:265|480:288,1,135.000000514984
500,316,40350,1,0,0:0:0:0:
376,372,40574,1,0,0:0:0:0:
242,355,40798,2,0,L|376:372,1,135.000000514984
300,260,41246,6,0,B|248:208|248:208|160:208,1,135.000000514984
84,120,41693,2,0,P|107:181|168:204,1,135.000000514984
256,104,42141,1,0,0:0:0:0:
343,204,42365,2,0,P|404:181|428:120,1,135.000000514984
316,44,42813,2,0,P|256:70|196:43,1,135.000000514984
84,120,43261,2,0,L|204:40,1,135.000000514984,0|0,0:0|0:0,0:0:0:0:
208,44,43708,5,8,0:0:0:0:
220,44,43932,1,8,0:0:0:0:
232,44,44156,1,8,0:0:0:0:
244,44,44380,1,8,0:0:0:0:
260,44,44492,1,8,0:0:0:0:
276,44,44604,6,0,B|392:44|392:44|420:72,1,150.000005722046,0|8,0:0|0:0,0:0:0:0:
408,220,45052,2,0,P|368:156|408:80,1,150.000005722046,0|8,0:0|0:0,0:0:0:0:
420,240,45499,2,0,P|384:306|298:310,1,150.000005722046,0|8,0:0|0:0,0:0:0:0:
280,300,45835,1,0,0:0:0:0:
280,300,46171,1,8,0:0:0:0:
135,338,46395,6,0,L|280:300,2,150.000005722046,0|8|0,0:0|0:0|0:0,0:0:0:0:
4,260,47067,1,8,0:0:0:0:
136,188,47290,2,0,P|100:254|14:258,1,150.000005722046,0|8,0:0|0:0,0:0:0:0:
4,260,47626,2,0,L|32:80,1,150.000005722046
32,76,47962,1,8,0:0:0:0:
136,188,48186,6,0,P|172:254|258:258,2,150.000005722046,0|8|0,0:0|0:0|0:0,0:0:0:0:
284,212,48858,2,0,P|330:156|403:159,2,150.000005722046,8|0|8,0:0|0:0|0:0,0:0:0:0:
404,304,49529,2,0,P|442:242|418:174,2,150.000005722046,0|8|0,0:0|0:0|0:0,0:0:0:0:
284,212,50201,1,8,0:0:0:0:
284,212,50425,1,0,0:0:0:0:
140,256,50649,6,0,P|108:191|140:126,1,150.000005722046,4|0,0:0|0:0,0:0:0:0:
371,126,51096,2,0,P|403:191|372:256,1,150.000005722046,12|0,0:0|0:0,0:0:0:0:
140,256,51544,1,12,0:0:0:0:
144,108,51768,6,0,P|220:28|368:136,1,300.000011444092
308,160,52440,1,8,0:0:0:0:
244,196,52664,2,0,B|176:236|176:236|176:320,1,150.000005722046,0|8,0:0|0:0,0:0:0:0:
176,344,52999,1,0,0:0:0:0:
176,344,53335,1,8,0:0:0:0:
325,361,53559,6,0,L|176:344,2,150.000005722046,0|8|0,0:0|0:0|0:0,0:0:0:0:
428,252,54231,1,8,0:0:0:0:
336,132,54455,2,0,L|388:200,2,75.0000028610231,0|0|8,0:0|0:0|0:0,0:0:0:0:
176,132,54902,1,0,0:0:0:0:
336,132,55126,1,8,0:0:0:0:
200,196,55350,6,0,P|271:206|325:158,1,150.000005722046,0|8,0:0|0:0,0:0:0:0:
424,272,55798,2,0,P|353:253|323:188,1,150.000005722046,0|8,0:0|0:0,0:0:0:0:
224,300,56246,2,0,L|32:336,1,150.000005722046,0|8,0:0|0:0,0:0:0:0:
56,180,56693,2,0,P|102:236|87:306,2,150.000005722046,0|8|8,0:0|0:0|0:0,0:0:0:0:
64,168,57365,5,8,0:0:0:0:
72,156,57589,1,8,0:0:0:0:
80,144,57813,1,8,0:0:0:0:
88,132,58037,1,2,0:0:0:0:
96,120,58932,6,0,P|184:76|276:224,1,270.000001029968,4|0,0:0|0:0,0:0:0:0:
168,256,59604,1,0,0:0:0:0:
92,144,59828,2,0,P|180:100|272:248,1,270.000001029968
164,280,60499,2,0,P|208:352|376:312,1,270.000001029968
328,272,61171,2,0,B|280:212|280:212|436:248|428:84,1,270.000001029968
396,72,61843,1,0,0:0:0:0:
456,192,62067,1,0,0:0:0:0:
384,48,62290,1,0,0:0:0:0:
228,84,62514,6,0,P|140:40|48:188,1,270.000001029968
152,228,63186,1,0,0:0:0:0:
236,124,63410,2,0,P|148:80|56:228,1,270.000001029968
160,268,64082,2,0,B|180:356|180:356|272:280|356:364,1,270.000001029968
404,380,64753,2,0,L|428:200,1,135.000000514984
448,228,65089,2,0,P|384:168|424:40,1,202.500000772476
312,168,65649,1,0,0:0:0:0:
399,62,65873,1,0,0:0:0:0:
272,16,66096,6,0,P|174:27|177:201,1,270.000001029968
286,178,66768,1,0,0:0:0:0:
300,45,66992,2,0,P|202:56|205:230,1,270.000001029968
312,192,67664,2,0,B|448:256|448:256|448:352|340:372,1,270.000001029968
340,312,68335,2,0,P|256:284|184:352,1,135.000000514984
188,320,68671,2,0,P|56:312|44:232,1,202.500000772476
32,128,69231,1,0,0:0:0:0:
39,263,69455,1,0,0:0:0:0:
228,192,69679,6,0,P|184:76|40:112,1,270.000001029968
248,160,70350,2,0,P|204:44|60:80,1,270.000001029968
120,256,71022,2,0,L|88:104,1,135.000000514984
144,320,71470,2,0,P|252:380|360:288,1,270.000001029968,0|8,0:0|0:0,0:0:0:0:
360,288,72141,1,8,0:0:0:0:
364,276,72365,1,8,0:0:0:0:
368,264,72589,1,8,0:0:0:0:
372,252,72813,1,12,0:0:0:0:
376,240,73280,6,0,B|396:176|396:176|340:92,1,135.000000514984,4|0,0:0|0:0,0:0:0:0:
256,32,73729,1,0,0:0:0:0:
153,119,73954,2,0,B|116:176|116:176|136:240,1,135.000000514984
256,176,74403,1,0,0:0:0:0:
376,240,74628,2,0,P|276:236|260:184,1,135.000000514984
237,84,75077,6,0,L|264:216,2,135.000000514984
216,56,75639,2,0,P|116:40|72:116,1,135.000000514984
80,84,75976,2,0,L|40:252,1,135.000000514984
152,304,76426,2,0,P|87:292|50:238,1,135.000000514984
180,272,76875,6,0,P|234:308|245:373,1,135.000000514984
284,244,77324,1,0,0:0:0:0:
420,256,77549,2,0,P|361:285|299:262,1,135.000000514984
256,136,77999,1,0,0:0:0:0:
120,124,78223,2,0,P|178:94|240:117,1,135.000000514984
184,240,78673,6,0,P|129:203|118:138,1,135.000000514984
120,124,79010,2,0,B|136:48|136:48|232:24,1,135.000000514984
212,32,79347,2,0,P|277:36|319:86,1,135.000000514984
340,152,79796,1,0,0:0:0:0:
308,284,80021,1,0,0:0:0:0:
348,128,80246,1,0,0:0:0:0:
308,284,80471,6,0,P|264:332|199:335,1,135.000000514984
140,212,80920,1,0,0:0:0:0:
12,172,81145,2,0,P|55:220|120:223,1,135.000000514984
240,156,81594,1,0,0:0:0:0:
209,287,81819,2,0,L|240:156,1,135.000000514984
368,108,82268,6,0,P|325:156|260:159,2,135.000000514984
384,140,82830,2,0,L|416:316,1,135.000000514984
384,296,83167,2,0,L|256:360,1,135.000000514984
128,380,83617,2,0,P|171:332|236:329,1,135.000000514984
108,292,84066,6,0,P|60:249|57:184,1,135.000000514984
116,60,84515,1,0,0:0:0:0:
244,16,84740,2,0,P|201:64|136:67,1,135.000000514984
224,168,85190,1,0,0:0:0:0:
256,36,85414,2,0,P|213:84|148:87,1,135.000000514984
252,168,85864,6,0,P|315:181|350:236,1,135.000000514984
356,272,86201,1,0,0:0:0:0:
256,360,86426,1,0,0:0:0:0:
224,352,86538,2,0,L|56:308,1,135.000000514984
220,268,86987,5,0,0:0:0:0:
96,212,87212,5,0,0:0:0:0:
252,168,87437,5,0,0:0:0:0:
60,96,87662,5,4,0:0:0:0:
256,192,87774,12,4,89520,0:0:0:0:
