osu file format v12

[General]
AudioFilename: FightingYolo.mp3
AudioLeadIn: 0
PreviewTime: 8125
Countdown: 1
SampleSet: Normal
StackLeniency: 0.4
Mode: 0
LetterboxInBreaks: 1
WidescreenStoryboard: 1

[Editor]
DistanceSpacing: 0.5
BeatDivisor: 4
GridSize: 4

[Metadata]
Title:GO!!! (TV Size)
TitleUnicode:GO!!! (TV Size)
Artist:FLOW
ArtistUnicode:FLOW
Creator:Swayzo
Version:Academy Student [Easy]
Source:Naruto
Tags:Naruto 4 Opening Intro Fighting Dreamers
BeatmapID:355512
BeatmapSetID:141654

[Difficulty]
HPDrainRate:0
CircleSize:2
OverallDifficulty:0
ApproachRate:3
SliderMultiplier:1
SliderTickRate:2

[Events]
//Background and Video events
Video,404,"narutoFighting4Swag.avi"
0,0,"1379145.jpg",0,0
//Break Periods
//Storyboard Layer 0 (Background)
//Storyboard Layer 1 (Fail)
//Storyboard Layer 2 (Pass)
//Storyboard Layer 3 (Foreground)
//Storyboard Sound Samples
//Background Colour Transformations
3,100,163,162,255

[TimingPoints]
1152,447.761194029851,4,2,1,54,1,0
7888,447.761194029851,4,2,1,54,1,0
8783,-74.0740740740741,4,1,1,54,0,1
23112,-74.0740740740741,4,1,1,54,0,0
44604,-66.6666666666667,4,1,2,54,0,0
45947,-66.6666666666667,4,1,1,54,0,0
46171,-66.6666666666667,4,1,2,54,0,0
48634,-66.6666666666667,4,1,1,54,0,0
48858,-66.6666666666667,4,1,2,54,0,0
49082,-66.6666666666667,4,1,1,54,0,0
49305,-66.6666666666667,4,1,2,54,0,0
50873,-66.6666666666667,4,1,1,54,0,0
51768,-66.6666666666667,4,1,2,54,0,0
52216,-66.6666666666667,4,1,1,54,0,0
52440,-66.6666666666667,4,1,2,54,0,0
54007,-66.6666666666667,4,1,1,54,0,0
54231,-66.6666666666667,4,1,2,54,0,0
54455,-66.6666666666667,4,1,1,54,0,0
55574,-66.6666666666667,4,1,2,54,0,0
58932,-74.0740740740741,4,1,1,54,0,1
73280,449.438202247191,4,1,1,54,1,0
73280,-74.0740740740741,4,1,1,54,0,0
89520,449.438202247191,4,1,1,54,1,0

[Colours]
Combo1 : 255,128,0
Combo2 : 0,255,255
Combo3 : 0,0,255
Combo4 : 255,0,255

[HitObjects]
16,108,1152,22,0,L|136:92,1,100,2|0,0:0|0:0,0:0:0:0:
168,88,2047,1,8,0:0:0:0:
216,80,2495,2,0,P|272:96|288:140,1,100,0|8,0:0|0:0,0:0:0:0:
300,232,3838,37,8,0:0:0:0:
312,280,4286,2,0,P|336:322|383:330,1,100,0|8,0:0|0:0,0:0:0:0:
484,316,5629,37,8,0:0:0:0:
476,268,6077,2,0,L|456:152,1,100,0|8,0:0|0:0,0:0:0:0:
459,169,6972,1,2,0:0:0:0:
459,169,7888,37,2,0:0:0:0:
459,169,8783,6,0,P|376:64|256:104,1,270.000001029968,4|0,0:0|0:0,0:0:0:0:
216,148,10126,1,0,0:0:0:0:
168,100,10574,2,0,P|47:140|40:267,1,270.000001029968
64,328,11917,1,0,0:0:0:0:
200,320,12365,22,0,L|488:304,1,270.000001029968
469,305,13708,1,0,0:0:0:0:
412,272,14156,2,0,P|348:160|424:72,1,202.500000772476
408,44,15276,1,0,0:0:0:0:
408,44,15723,1,0,0:0:0:0:
408,44,15947,6,0,L|88:4,1,270.000001029968
80,36,17290,1,0,0:0:0:0:
96,104,17738,2,0,P|104:236|4:320,1,270.000001029968
6,319,19082,1,0,0:0:0:0:
6,319,19529,2,0,L|224:344,1,202.500000772476
256,296,20649,1,0,0:0:0:0:
304,341,21096,2,0,L|505:319,1,202.500000772476
508,252,22216,2,0,L|508:104,1,135.000000514984,0|4,0:0|0:0,0:0:0:0:
488,52,23111,6,0,P|400:136|256:24,1,270.000001029968,4|0,0:0|0:0,0:0:0:0:
232,32,24455,1,0,0:0:0:0:
168,56,24902,2,0,P|65:131|91:256,1,270.000001029968
132,312,26246,1,0,0:0:0:0:
176,264,26693,6,0,L|452:280,1,270.000001029968
445,279,28037,1,0,0:0:0:0:
445,279,28485,1,2,0:0:0:0:
445,279,29828,5,2,0:0:0:0:
445,279,30276,6,0,L|424:8,1,270.000001029968
376,56,31619,1,0,0:0:0:0:
312,32,32067,2,0,P|192:28|84:140,1,270.000001029968
76,192,33410,1,0,0:0:0:0:
88,257,33858,6,0,P|180:351|312:352,1,270.000001029968
376,328,35201,1,0,0:0:0:0:
356,264,35649,2,0,P|264:170|132:169,1,270.000001029968
105,106,36992,2,0,L|204:14,1,135.000000514984
204,14,37888,5,0,0:0:0:0:
260,56,38335,1,0,0:0:0:0:
260,56,38559,1,0,0:0:0:0:
260,56,38783,1,0,0:0:0:0:
316,16,39231,6,0,P|432:44|464:180,1,270.000001029968
428,240,40574,1,0,0:0:0:0:
440,308,41022,6,0,B|448:368|448:368|328:320|204:356,1,270.000001029968
176,356,42365,1,0,0:0:0:0:
112,340,42813,6,0,P|56:280|164:144,1,270.000001029968,0|0,0:0|0:0,0:0:0:0:
208,136,44156,1,0,0:0:0:0:
284,132,44604,6,0,L|496:120,1,150.000005722046,0|0,0:0|0:0,0:0:0:0:
433,123,45276,1,8,0:0:0:0:
416,196,45723,1,8,0:0:0:0:
436,268,46171,1,8,0:0:0:0:
464,292,46395,6,0,B|424:360|424:360|336:368,3,150.000005722046
316,372,47962,1,8,0:0:0:0:
204,368,48410,6,0,B|84:364|120:240|120:240|8:212,1,300.000011444092,8|8,0:0|0:0,0:0:0:0:
12,212,49753,1,8,0:0:0:0:
4,136,50201,1,8,0:0:0:0:
8,60,50649,6,0,L|184:52,2,150.000005722046,4|12|12,0:0|0:0|0:0,0:0:0:0:
8,96,51768,6,0,P|108:208|224:168,1,225.000008583069,0|8,0:0|0:0,0:0:0:0:
240,176,52888,1,8,0:0:0:0:
312,188,53335,1,8,0:0:0:0:
380,164,53783,6,0,B|460:132|460:132|520:260|392:332,1,300.000011444092,8|8,0:0|0:0,0:0:0:0:
348,280,55126,1,8,0:0:0:0:
324,308,55350,6,0,L|116:288,3,150.000005722046
100,324,57141,1,2,0:0:0:0:
100,324,58037,5,2,0:0:0:0:
100,324,58932,6,0,P|52:188|128:68,1,270.000001029968,4|0,0:0|0:0,0:0:0:0:
164,48,60276,1,0,0:0:0:0:
228,64,60723,2,0,B|416:96|416:96|456:96|484:32,1,270.000001029968
475,49,62067,1,0,0:0:0:0:
504,108,62514,2,0,B|504:180|504:180|396:140|424:320,1,270.000001029968
424,376,63858,1,0,0:0:0:0:
364,348,64305,2,0,P|216:296|128:348,1,202.500000772476
112,320,65425,1,0,0:0:0:0:
56,284,65873,1,0,0:0:0:0:
56,284,66096,6,0,B|56:96|56:96|60:40|128:40,1,270.000001029968
176,40,67440,1,0,0:0:0:0:
220,92,67888,2,0,P|292:148|452:88,1,270.000001029968
484,36,69231,1,0,0:0:0:0:
480,172,69679,6,0,B|480:272|480:272|480:320|420:320|392:280,1,202.500000772476
348,248,70798,1,0,0:0:0:0:
308,304,71246,2,0,P|204:368|96:300,1,202.500000772476
80,308,72365,2,0,L|96:132,1,135.000000514984,0|4,0:0|0:0,0:0:0:0:
40,44,73280,6,0,P|200:48|260:160,1,270.000001029968,4|0,0:0|0:0,0:0:0:0:
256,196,74628,1,0,0:0:0:0:
256,128,75077,2,0,P|342:31|472:44,1,270.000001029968
480,112,76426,1,0,0:0:0:0:
480,180,76875,6,0,P|436:308|264:320,1,270.000001029968
328,276,78223,1,0,0:0:0:0:
264,300,78673,2,0,B|120:348|120:348|48:392|24:312,1,270.000001029968
0,256,80021,1,0,0:0:0:0:
24,188,80471,6,0,P|104:64|224:72,1,270.000001029968
256,120,81819,1,0,0:0:0:0:
297,66,82268,2,0,P|427:74|488:188,1,270.000001029968
496,256,83617,1,0,0:0:0:0:
500,324,84066,6,0,B|504:364|504:364|376:304|272:336,1,270.000001029968
216,356,85414,1,0,0:0:0:0:
152,340,85864,2,0,P|80:348|108:180,1,270.000001029968
120,156,87212,1,0,0:0:0:0:
148,136,87437,1,0,0:0:0:0:
176,116,87662,1,4,0:0:0:0:
256,192,87886,12,4,89520,0:0:0:0:
