osu file format v5

[General]
AudioFilename: Code Geass - Colors.mp3
AudioLeadIn: 3000
PreviewTime: -1
Countdown: 1
SampleSet: Normal
StackLeniency: 0.7
Mode: 0

[Metadata]
Title:COLORS- Code Geass Opening
Artist:FLOW
Creator:gamerrox
Version:Normal
Source:Code Geass
Tags:

[Difficulty]
HPDrainRate:5
CircleSize:5
OverallDifficulty:6
SliderMultiplier:1.8
SliderTickRate:2

[Events]
//Background and Video events
0,0,"code-geass2.jpg"
//Break Periods
2,100429,127418
//Storyboard Layer 0 (Background)
//Storyboard Layer 1 (Failing)
//Storyboard Layer 2 (Passing)
//Storyboard Layer 3 (Foreground)
//Storyboard Sound Samples
//Background Colour Transformations
3,100,163,162,255

[TimingPoints]
1375,441.273810399353,4,2,0,100
8415,441.273810399353,4,1,0,100
127558,441.273810399353,4,2,0,100
148739,441.273810399353,4,1,0,100
199045,441.273810399353,4,2,0,100

[HitObjects]
216,120,1375,1,0
336,200,1816,1,2
408,200,2036,1,2
408,128,2257,1,2
264,128,2698,1,4
208,256,3140,5,0
296,256,3581,1,2
296,256,3802,1,2
296,256,4022,1,2
440,256,4463,1,4
216,320,4905,5,0
360,320,5346,1,2
360,248,5567,1,2
288,248,5787,1,2
216,320,6229,1,4
168,272,6670,5,0
168,208,6890,1,0
168,144,7111,1,0
168,80,7332,2,2,B|336:152,1,180
440,152,8415,1,4
152,144,9297,5,0
152,216,9518,1,0
368,144,9959,1,2
256,232,10400,1,2
256,88,10842,1,2
112,80,11283,1,2
256,312,11945,1,0
168,312,12827,6,0,B|168:40,2,180
312,312,14151,1,2
312,240,14372,1,2
456,312,15254,5,0
408,264,15475,1,0
184,264,16137,1,0
184,120,16578,1,0
184,24,17019,1,0
64,24,17461,1,0
64,240,17902,1,2
64,240,18123,1,2
152,128,18564,1,2
296,128,19005,1,2
256,192,19446,12,4,20770
248,152,22977,1,0
456,152,23418,1,0
320,304,23859,1,0
320,304,24080,1,0
320,304,24300,1,0
208,216,24742,2,2,B|208:32|208:16,2,180
208,216,26065,2,2,B|440:8|408:360,2,360
184,88,30037,5,0
280,184,30478,1,0
432,184,30919,1,2
432,256,31140,1,2
360,256,31361,2,2,B|168:256,2,180
360,192,32685,1,0
296,192,33126,2,2,B|24:192,4,180
456,128,35332,5,0
312,128,35773,1,0
168,128,36215,1,0
168,200,36435,5,0
168,200,36656,1,0
168,200,36877,2,2,B|328:200,5,90
256,272,38200,1,0
208,216,38421,1,0
144,200,38642,2,2,B|144:312,5,90
208,304,39966,5,0
280,304,40186,1,0
280,232,40407,2,2,B|280:-48,1,270
320,112,41289,1,4
176,112,41731,1,2
176,184,41951,1,2
248,184,42172,1,2
320,184,42393,1,2
320,112,42613,2,4,B|8:112,1,270
50,112,43496,5,2
50,112,43716,1,2
50,112,43937,1,2
160,112,44378,1,2
160,112,44599,1,2
160,112,44820,1,2
48,200,45261,1,2
48,200,45482,1,2
48,200,45702,1,2
160,200,46143,1,2
160,200,46364,1,2
160,200,46585,1,2
48,288,47026,5,0
48,288,47247,2,0,B|504:288|448:0,1,540
400,48,48791,1,0
288,120,49232,1,0
288,120,49453,1,0
288,120,49674,1,4
208,48,50777,5,0
56,48,51218,1,0
56,192,51659,1,0
208,192,52101,1,0
344,192,52542,1,0
472,192,52983,1,0
472,312,53424,1,0
352,312,53866,1,0
232,320,54307,1,2
232,320,54528,1,2
232,232,54969,1,2
232,232,55851,2,4,B|232:0,1,180
224,40,57175,5,0
224,112,57396,1,0
224,184,57617,1,0
224,256,57837,1,4
224,40,58720,1,0
224,40,58940,1,0
112,40,59382,1,0
112,176,59823,1,0
224,176,60264,1,0
328,176,60705,1,0
328,56,61147,5,2
328,56,61367,2,2,B|64:352,1,360
89,325,62691,1,0
89,325,62912,1,0
88,224,63353,1,0
88,128,63794,1,0
88,128,64677,5,2
160,128,64898,1,2
304,128,65339,1,2
376,128,65559,1,2
384,272,66001,1,2
240,272,66442,1,2
168,272,66663,1,2
168,128,67104,1,2
240,128,67325,1,2
376,200,67766,1,2
168,208,68207,5,2
168,208,68428,2,2,B|168:0,2,180
168,280,69531,1,2
240,280,69752,1,2
312,280,69972,1,4
64,136,71296,5,0
64,136,71517,1,0
192,136,71958,2,0,B|192:384,1,180
288,320,72840,1,0
288,320,73061,1,0
288,216,73502,1,0
288,112,73944,1,0
128,112,74385,1,0
128,112,74826,2,0,B|128:360,1,180
128,288,75488,1,0
208,288,76371,5,0
304,288,76812,1,0
304,288,77033,1,0
304,176,77474,1,2
232,176,77694,1,2
232,104,77915,1,2
208,176,78798,5,0
208,176,79018,1,0
208,64,79460,1,0
208,64,79680,1,0
296,176,80121,1,0
304,64,80563,5,2
448,64,81004,1,2
448,136,81225,1,2
448,208,81445,1,2
256,192,81666,12,4,84314
312,104,86520,5,0
168,104,86961,1,0
168,248,87403,1,2
168,248,87623,1,2
168,248,87844,1,2
312,248,88285,1,0
360,120,88726,1,0
216,120,89168,1,0
216,120,89609,2,2,B|80:320,7,180
216,128,93580,5,0
328,216,94022,1,0
192,216,94463,1,2
192,216,94684,1,2
192,216,94904,1,2
192,64,95345,1,0
288,216,95787,1,0
376,216,96228,1,0
376,216,96669,1,4
376,120,98876,5,0
232,120,99317,1,0
232,264,99758,1,0
376,264,100199,1,4
360,120,128440,5,0
360,192,128661,1,0
360,264,128881,1,0
288,264,129102,1,0
144,264,129543,1,0
144,192,129764,1,0
144,120,129985,1,0
288,120,130426,1,0
360,120,130646,1,0
432,120,130867,1,0
232,240,131308,5,2
232,168,131529,1,2
232,96,131750,1,2
232,24,131970,1,2
288,64,132191,1,2
288,136,132412,1,2
328,240,132632,2,2,B|328:40,1,180
328,60,133294,1,2
328,60,133515,1,4
440,56,134839,5,0
368,56,135059,1,0
296,56,135280,1,0
224,56,135500,2,2,B|232:368|488:352,1,450
408,264,137045,1,0
312,160,137486,1,0
312,40,137927,1,0
168,40,138369,1,0
168,160,138810,1,0
168,160,139031,2,0,B|472:160,1,270
438,160,139913,5,0
440,264,140354,1,0
440,264,140575,1,0
304,264,141016,1,2
304,264,141237,1,2
304,264,141458,1,2
296,136,142340,5,0
296,136,142561,1,0
168,136,143002,1,0
168,136,143223,1,0
168,248,143664,1,2
272,248,144105,1,0
272,248,144326,1,0
272,120,144767,1,0
272,120,144988,1,0
128,120,145429,1,2
248,48,145870,5,2
320,48,146091,2,2,B|320:256,3,180
232,264,147856,1,4
336,264,148959,5,0
336,264,149180,1,0
448,264,149621,1,2
448,128,150504,1,2
448,128,150724,1,2
328,128,151166,1,0
184,128,151607,1,0
184,272,152048,1,0
328,272,152489,1,0
328,128,152931,5,0
256,128,153151,1,0
96,128,154034,1,0
96,240,154475,1,0
96,240,154696,1,0
200,240,155137,1,0
200,168,155358,1,0
256,208,155578,1,0
304,240,156461,5,2
304,240,156681,1,2
304,104,157123,1,2
304,104,157343,1,2
184,104,157785,1,2
256,192,158226,12,4,162197
304,144,163080,5,2
232,144,163301,1,2
160,144,163521,1,2
88,144,163742,1,4
88,232,164624,5,0
88,232,164845,1,0
232,232,165286,1,2
376,232,165728,1,2
296,144,166169,1,2
368,72,166610,1,2
448,72,167051,1,2
448,72,167272,1,2
448,152,168155,5,2
448,232,168596,1,0
448,232,168816,1,0
304,232,169258,1,0
304,160,169478,1,0
232,160,169699,2,4,B|32:160,1,180
208,232,170582,5,0
208,232,170802,1,0
208,120,171243,1,0
208,120,171464,1,0
208,24,171905,1,0
104,24,172347,1,2
104,24,172567,1,2
104,152,173009,1,2
104,152,173229,1,2
104,296,173670,1,2
248,296,174112,5,0
320,296,174332,2,2,B|528:296,2,180
320,224,175436,1,0
320,152,175656,1,0
320,80,175877,1,4
104,176,177201,5,0
104,104,177421,1,0
176,104,177642,1,0
176,176,177863,1,4
464,176,178745,1,0
464,248,178966,1,0
320,248,179407,1,0
176,248,179848,1,2
176,104,180290,1,2
320,104,180731,1,2
408,152,181172,5,0
408,152,181393,1,0
304,152,182275,1,0
200,152,182717,1,0
200,152,182937,1,0
96,152,183378,1,0
96,224,183599,1,0
96,296,183820,1,4
96,152,184702,5,0
96,152,184923,1,2
240,152,185364,1,2
240,152,185585,1,2
384,152,186026,1,2
384,296,186467,1,2
288,192,186909,1,2
216,192,187129,1,2
144,192,187350,1,2
184,128,187571,1,2
256,128,187791,1,2
288,192,188012,1,2
216,192,188233,1,4
176,192,189556,5,2
32,192,189998,1,2
32,192,190218,1,2
208,216,191763,5,0
208,216,191983,1,0
208,112,192425,1,0
208,112,192645,1,0
136,48,193087,1,0
136,152,193528,1,0
136,264,193969,1,2
208,264,194190,1,2
280,264,194410,1,2
352,264,194631,1,2
424,264,194852,1,2
424,192,195072,1,2
424,120,195293,1,4
256,192,195514,12,0,197720
168,232,198382,5,0
232,232,198602,1,0
296,232,198823,1,0
360,232,199045,1,4
360,120,199927,1,0
360,120,200148,1,0
248,120,200589,1,0
144,120,201030,1,0
40,120,201472,1,0
40,264,201913,1,0
184,264,202354,5,2
256,264,202575,1,2
256,48,203237,1,2
184,48,203457,1,2
280,216,203899,1,2
280,216,204119,1,2
280,112,204560,1,2
280,112,204781,1,2
280,112,205002,1,4
