osu file format v5

[General]
AudioFilename: Code Geass - Colors.mp3
AudioLeadIn: 0
PreviewTime: -1
Countdown: 1
SampleSet: Normal
StackLeniency: 0.7
Mode: 0

[Metadata]
Title:COLORS- Code Geass Opening
Artist:FLOW
Creator:gamerrox
Version:Easy
Source:Code Geass
Tags:

[Difficulty]
HPDrainRate:3
CircleSize:3
OverallDifficulty:3
SliderMultiplier:1.8
SliderTickRate:2

[Events]
//Background and Video events
0,0,"code-geass2.jpg"
//Break Periods
2,98665,127031
//Storyboard Layer 0 (Background)
//Storyboard Layer 1 (Failing)
//Storyboard Layer 2 (Passing)
//Storyboard Layer 3 (Foreground)
//Storyboard Sound Samples
//Background Colour Transformations
3,100,163,162,255

[TimingPoints]
1375,441.273810399353,4,2,0,100
8415,441.273810399353,4,1,0,100
127558,441.273810399353,4,2,0,100
148739,441.273810399353,4,1,0,100
199045,441.273810399353,4,2,0,100

[HitObjects]
128,88,7773,1,0
272,88,8214,1,2
272,88,8415,1,2
416,88,8856,1,4
416,232,9297,5,0
272,232,9738,1,0
128,232,10180,1,0
120,88,10621,1,0
272,232,11062,1,2
272,88,11503,1,2
272,88,11945,2,2,B|80:336|80:336,1,270
104,304,13269,1,0
104,304,13710,1,0
104,304,14151,1,0
248,304,14592,1,4
248,88,15254,5,2
248,88,15475,1,2
392,88,15916,1,2
320,288,16578,1,2
256,192,17240,12,0,20770
96,80,22977,5,0
240,80,23418,1,0
336,184,23859,1,2
192,184,24300,1,2
192,328,24742,1,2
336,328,25183,1,2
336,184,25624,1,2
336,40,26065,2,2,B|144:40,4,180
456,304,30037,5,0
456,160,30478,1,0
312,160,30919,1,0
312,32,31361,1,0
168,32,31802,1,0
56,128,32243,1,0
56,272,32685,1,0
200,272,33126,2,0,B|448:272,4,180
200,128,35332,5,0
344,128,35773,1,0
272,256,36215,1,0
128,256,36656,2,2,B|128:8,7,180
416,256,40186,2,2,B|416:56,7,180
272,72,43716,2,2,B|120:288,7,180
48,128,47247,2,0,B|360:328,1,360
352,176,48570,1,0
208,176,49012,1,0
104,272,49453,1,0
104,128,49894,1,4
208,32,50777,5,0
496,40,51659,1,0
496,328,52542,1,2
352,328,52983,1,2
208,328,53424,1,2
208,184,53866,1,2
352,184,54307,1,2
352,40,54748,1,2
208,40,55190,1,2
48,184,55851,2,4,B|440:184,1,360
280,112,57175,5,0
280,112,57396,1,0
280,112,57617,1,0
280,112,57837,2,0,B|120:312,7,180
288,336,61367,5,4
288,48,62250,1,0
104,272,63132,1,2
248,272,63574,1,2
392,272,64015,1,2
240,120,64898,5,0
96,120,65339,1,0
96,264,65780,1,0
240,264,66221,1,0
384,264,66663,1,2
384,120,67104,1,2
240,120,67545,1,2
96,120,67986,1,2
96,264,68428,2,2,B|424:264,6,180
224,328,71517,5,0
368,328,71958,1,0
368,184,72399,1,4
248,104,72840,1,0
104,104,73282,1,0
104,248,73723,1,2
248,248,74164,1,2
392,248,74606,1,2
392,104,75047,1,2
248,104,75488,2,2,B|8:104,6,180
448,312,79018,5,0
264,88,79901,1,0
264,376,80783,1,0
144,288,81225,1,0
184,152,81666,1,0
128,16,82107,1,4
256,192,82549,12,0,84314
416,88,86520,1,0
272,88,86961,1,0
184,200,87403,1,0
184,344,87844,1,0
40,344,88285,1,0
32,200,88726,2,0,B|320:200,5,180
216,56,91374,1,2
432,56,92036,1,2
24,352,93580,5,0
24,208,94022,1,0
24,64,94463,1,0
168,64,94904,1,0
312,64,95345,1,0
456,64,95787,1,0
456,208,96228,1,0
312,208,96669,2,0,B|64:208,4,180
344,104,128440,5,0
112,280,129323,1,0
400,280,130205,1,0
192,72,131088,1,0
200,360,131970,1,0
280,240,132412,1,0
368,128,132853,1,0
456,16,133294,1,0
312,16,133735,2,0,B|16:16|32:392|184:392,1,540
224,264,135500,1,4
464,112,136383,5,0
320,112,136824,1,0
320,256,137266,1,2
176,256,137707,1,2
32,256,138148,1,2
24,112,138589,1,2
168,112,139031,2,0,B|168:296,6,180
384,296,142561,5,0
384,152,143002,1,0
384,8,143443,1,0
96,8,144326,1,0
96,152,144767,1,0
96,296,145208,1,0
96,296,146091,2,2,B|512:296|504:8,1,540
360,40,147856,1,2
56,344,149180,5,0
56,344,149621,1,4
320,224,150504,1,0
104,224,151166,1,0
104,80,151607,1,0
248,80,152048,1,0
392,80,152489,2,0,B|392:376,1,270
168,152,154034,2,0,B|312:392|504:40|160:48,2,360
80,48,156681,5,2
80,336,157564,1,2
368,328,158447,1,2
240,256,158888,1,2
240,112,159329,1,2
96,112,159770,1,2
256,192,160212,12,0,161977
352,96,162418,5,0
280,112,162639,1,0
208,96,162859,1,0
64,96,163301,2,4,B|440:360,1,360
360,160,164624,1,0
144,160,165286,1,2
144,304,165728,1,2
288,304,166169,1,2
32,48,167272,6,0,B|176:168,7,180
288,80,170802,5,2
96,296,171685,1,2
384,296,172567,1,2
384,8,173450,1,2
96,8,174332,2,0,B|96:248,6,180
176,128,177421,5,0
320,128,177863,1,4
120,336,178745,1,2
264,336,179186,1,2
264,192,179628,1,2
408,192,180069,1,2
408,48,180510,1,2
264,48,180951,1,2
120,48,181393,2,2,B|8:376|480:368|480:16|64:48,1,720
256,192,184702,12,0,191101
400,80,191763,5,2
400,80,191983,1,2
296,176,192425,1,2
296,320,192866,1,2
152,320,193307,1,2
152,176,193748,1,2
296,176,194190,1,2
296,320,194631,1,2
152,320,195072,1,2
256,192,195514,12,0,198161
344,80,198602,5,0
256,192,199045,1,4
8,336,199927,1,0
0,48,200810,1,0
288,48,201692,1,2
288,336,202575,1,2
8,344,203457,1,2
224,152,204340,1,2
488,40,205222,1,2
