osu file format v5

[General]
AudioFilename: VANITY ANGEL (FIXX).mp3
AudioLeadIn: 0
PreviewTime: -1
Countdown: 1
SampleSet: Soft
StackLeniency: 0.7
Mode: 0
LetterboxInBreaks: 1

[Editor]
DistanceSpacing: 0.800000011920929
BeatDivisor: 2
GridSize: 16

[Metadata]
Title:Vanity Angel
Artist:FIXX
Creator:John12346
Version:Angelic
Source:
Tags:vanity angel ddr max

[Difficulty]
HPDrainRate:2
CircleSize:4
OverallDifficulty:2
SliderMultiplier:0.7
SliderTickRate:1

[Events]
//Background and Video events
//Break Periods
2,19048,20837
2,26763,27694
//Storyboard Layer 0 (Background)
//Storyboard Layer 1 (Fail)
//Storyboard Layer 2 (Pass)
//Storyboard Layer 3 (Foreground)
//Storyboard Sound Samples
//Background Colour Transformations
3,100,13,13,13

[TimingPoints]
1706,428.571428571429,4,2,0,90,1,0
35917,-100,4,2,0,90,0,1
49677,-100,4,2,0,90,0,0

[Colours]
Combo1 : 0,64,0
Combo2 : 41,41,41
Combo3 : 66,0,0
Combo4 : 0,0,66

[HitObjects]
256,192,15420,1,0
256,192,16277,1,0
192,288,17563,5,0
240,288,17991,1,8
288,288,18420,1,0
336,288,18848,1,8
256,192,22277,5,0
256,192,23134,1,0
192,96,24420,5,0
240,96,24848,1,0
288,96,25277,1,0
336,96,25706,1,0
272,192,26563,1,8
256,192,29134,5,0
32,192,30848,1,0
96,96,31706,1,0
208,96,32563,1,0
320,96,33420,1,0
432,96,34277,1,2
480,192,35134,1,2
224,96,35991,5,0
272,96,36420,1,8
272,208,37277,1,8
160,208,38134,1,8
160,96,38991,1,8
272,96,39848,5,8
384,96,40706,1,8
384,208,41563,1,8
384,320,42420,1,8
272,320,43277,1,8
160,320,44134,5,8
160,208,44991,1,8
272,208,45848,1,8
384,208,46705,1,8
384,96,47563,1,8
272,96,48420,1,8
272,208,49277,1,8
192,128,50134,5,2
304,128,50991,1,2
304,240,51848,1,8
192,240,52705,1,2
256,144,53563,1,2
144,144,54420,1,8
240,192,55277,5,2
320,272,56134,1,2
384,192,56991,1,8
256,192,57848,1,2
160,128,58705,1,2
224,32,59563,1,8
112,48,60420,2,0,B|208:176|208:176|272:176|336:176|336:176|432:304,1,420,8|8
256,192,63420,12,0,65134
256,192,66848,5,2
256,192,68563,1,2
112,192,70277,1,2
208,192,71134,1,0
304,192,71991,1,2
400,192,72848,1,0
352,96,73705,5,2
416,128,74134,1,0
352,160,74563,1,8
288,192,74991,1,0
352,224,75420,1,2
416,256,75848,1,0
352,288,76277,1,8
288,256,76706,1,0
256,192,77134,5,8
224,128,77563,1,0
160,96,77991,1,2
96,128,78420,1,0
160,160,78848,1,8
224,192,79277,1,0
160,224,79705,1,2
96,256,80134,1,0
160,288,80563,1,8
224,256,80991,1,0
256,192,81420,5,2
256,128,81848,1,0
320,96,82277,1,8
384,128,82706,1,0
320,160,83134,1,2
256,192,83563,1,0
320,224,83991,1,8
384,256,84420,1,0
320,288,84848,1,2
256,256,85277,1,0
256,192,85705,5,8
256,128,86134,1,0
192,96,86563,1,2
128,128,86991,1,0
192,160,87420,1,8
256,192,87848,1,0
192,224,88277,1,2
128,256,88706,1,0
192,288,89134,1,8
256,256,89563,1,0
256,192,89991,5,2
256,192,90420,12,0,92991
