osu file format v7

[General]
AudioFilename: DJMax - D2.mp3
AudioLeadIn: 1699
PreviewTime: -1
Countdown: 1
SampleSet: Soft
StackLeniency: 0.7
Mode: 0
LetterboxInBreaks: 1

[Editor]
DistanceSpacing: 0.600000023841858
BeatDivisor: 4
GridSize: 8

[Metadata]
Title:D2
Artist:FIRST AID
Creator:vvvf1000
Version:Password
Source:DJMAX TECHNIKA 2
Tags:

[Difficulty]
HPDrainRate:6
CircleSize:4
OverallDifficulty:8
SliderMultiplier:1.4
SliderTickRate:1

[Events]
//Background and Video events
0,0,"d2.jpg"
//Break Periods
2,30071,31481
2,32768,34515
2,78611,80357
//Storyboard Layer 0 (Background)
//Storyboard Layer 1 (Fail)
//Storyboard Layer 2 (Pass)
//Storyboard Layer 3 (Foreground)
//Storyboard Sound Samples
//Background Colour Transformations
3,100,163,162,255

[TimingPoints]
209,337.078651685393,4,2,1,0,1,0
8298,-50,4,2,1,50,0,0
35265,-200,4,2,1,50,0,0
46051,-50,4,2,1,50,0,1
51613,-50,4,2,1,50,0,0
98593,-50,4,2,1,50,0,1
107400,-200,4,2,1,0,0,0

[HitObjects]
160,192,209,5,0
256,56,883,5,0
352,192,1557,5,0
256,336,2231,5,0
256,192,2905,12,0,7287
232,192,7624,5,0
240,176,7708,1,0
248,160,7793,1,0
256,144,7877,1,0
272,152,7961,1,0
288,160,8046,1,0
296,176,8130,1,0
296,200,8214,1,0
296,216,8298,5,0
336,288,8467,1,0
400,232,8635,1,8
368,64,8973,2,0,B|296:32|224:72,3,140,0|0|8|0
152,40,9647,5,0
96,104,9815,1,0
152,168,9984,1,8
272,280,10321,1,0
328,216,10489,1,0
272,152,10658,1,8
392,40,10995,5,0
328,96,11164,1,0
392,144,11332,1,8
232,88,11669,1,0
184,160,11838,1,0
232,232,12006,1,8
400,232,12343,6,0,B|320:232,7,70,0|0|0|0|8|0|0|0
336,272,13017,1,0
264,312,13186,1,0
184,280,13355,1,8
144,208,13523,1,0
160,128,13692,5,0
232,80,13860,1,0
312,104,14029,1,8
448,208,14366,1,0
376,248,14534,1,0
296,216,14703,1,8
160,128,15040,1,0
88,88,15208,1,0
16,128,15377,1,8
160,208,15714,1,0
232,248,15883,1,0
232,168,16051,1,8
304,208,16220,1,0
304,128,16388,5,0
160,208,16725,1,8
160,120,16894,1,0
232,168,17062,1,0
232,80,17231,1,0
304,128,17400,1,8
456,64,17737,2,0,B|456:144,7,70,0|0|0|0|8|0|0|0
424,104,18411,1,0
352,56,18579,1,0
280,104,18748,1,8
352,144,18916,1,0
424,184,19085,6,0,B|360:328|280:184,2,210
424,104,19759,1,8
352,144,19928,1,0
280,104,20096,1,0
352,56,20265,1,0
280,104,20433,6,0,B|208:112|176:200,1,140
264,192,20770,2,0,B|296:272|240:344,1,140,8|0
184,272,21107,2,0,B|128:312|40:272,1,140
112,216,21444,2,0,B|64:144|112:64,1,140,8|0
176,40,21782,5,0
176,120,21950,2,0,B|120:176,2,70,0|0|8
248,80,22287,1,0
240,168,22456,2,0,B|184:224,2,70
312,128,22793,1,8
312,208,22961,2,0,B|256:264,2,70
320,200,23214,1,0
328,192,23298,1,0
320,184,23383,1,0
312,176,23467,1,8
296,168,23551,1,0
280,160,23635,1,0
264,168,23720,1,0
248,176,23804,1,0
216,96,23973,2,0,B|248:24|352:32,2,140,0|8|0
168,24,24478,6,0,B|120:16|88:32,2,70
112,88,24815,2,0,B|24:88,2,70,8|0|0
168,152,25152,2,0,B|248:152,2,70
112,216,25489,2,0,B|200:216,2,70,8|0|0
168,280,25826,6,0,B|224:344|304:296,1,140
240,240,26164,2,0,B|304:192|376:200,1,140,8|0
344,280,26501,2,0,B|456:256|448:176,1,140
368,184,26838,2,0,B|336:112|376:48,1,140,8|0
440,104,27175,6,0,B|368:136|256:128,1,140
352,56,27512,2,0,B|280:32|184:64,1,140,8|0
264,120,27849,2,0,B|224:184|136:144,1,140
192,80,28186,2,0,B|128:40|56:88,1,140,8|0
48,168,28523,6,0,B|32:248,3,70
64,208,28860,2,0,B|80:248,7,35,8|0|0|0|0|0|0|0
56,240,29197,2,0,B|32:320,3,70
64,280,29534,2,0,B|80:352,3,70,8|0|0|0
104,312,29871,5,4
56,192,32231,6,0,B|176:104|328:104,1,280,8|4
56,312,35265,5,0
56,296,35377,1,0
56,280,35489,1,0
80,296,35714,1,2
104,312,35939,1,0
104,296,36051,1,0
104,280,36164,1,0
128,296,36388,1,2
152,312,36613,1,0
152,296,36725,1,0
152,280,36838,1,0
176,296,37062,1,2
200,312,37287,2,0,B|232:296|232:280|200:264,1,70,0|2
456,72,37961,5,0
456,88,38046,1,2
456,104,38185,1,0
432,88,38410,1,2
408,72,38635,1,0
408,88,38747,1,2
408,104,38860,1,0
384,88,39084,1,2
360,72,39309,1,0
360,88,39421,1,2
360,104,39534,1,0
336,88,39758,1,2
312,72,39983,2,0,B|280:88|280:104|312:120,1,70,0|2
472,336,40658,5,2
472,320,40770,1,0
472,304,40883,1,2
472,288,40995,1,0
472,272,41107,1,2
448,288,41332,1,0
448,272,41444,1,2
448,256,41557,1,0
448,240,41669,1,2
448,224,41782,1,0
40,40,42006,5,2
40,56,42119,1,0
40,72,42231,1,2
40,88,42343,1,0
40,104,42456,1,2
64,88,42680,2,0,B|96:112|96:112|64:128,1,70,8|2
264,192,43355,6,0,B|240:184|240:152|264:128,1,70,8|0
272,120,43804,1,0
280,112,43916,1,0
288,104,44029,6,0,B|264:96|264:64|288:40,1,70,8|0
248,192,44703,6,0,B|272:200|272:232|248:256,1,70,8|0
240,264,45152,1,0
232,272,45264,1,0
224,280,45377,6,0,B|248:288|248:320|224:344,1,70,8|0
64,312,46051,6,0,B|16:216|16:96|96:48,1,280,0|8
120,216,46725,2,0,B|168:144|144:64,1,140,0|8
320,88,47231,2,0,B|376:160|288:232,1,140,0|8
272,232,47484,2,0,B|304:304,2,70
232,232,47737,6,0,B|216:304|104:336,2,140,0|0|8
232,232,48242,2,0,B|144:192|160:80,2,140,0|0|8
248,152,48748,2,0,B|216:128|232:88,3,70,8|0|0|0
248,152,49085,2,0,B|296:136|320:176,3,70
248,152,49422,6,0,B|288:72|192:32|144:128|144:128|112:208|16:160|16:160,1,280,0|8
48,336,50096,2,0,B|120:288|56:208,1,140,0|8
208,304,50602,2,0,B|288:272|352:336,1,140,0|2
376,304,50855,2,2,B|432:352,2,70
416,304,51107,2,2,B|488:312,3,70
456,280,51444,5,14
280,192,56164,5,0
272,208,56248,1,0
264,224,56333,1,0
256,240,56417,1,0
240,232,56501,1,0
224,224,56586,1,0
216,208,56670,1,0
216,184,56754,1,0
216,168,56838,5,0
176,96,57007,1,0
112,152,57175,1,8
144,320,57513,2,0,B|216:352|288:312,3,140,0|0|8|0
360,344,58187,5,0
416,280,58355,1,0
360,216,58524,1,8
240,104,58861,1,0
184,168,59029,1,0
240,232,59198,1,8
120,344,59535,5,0
184,288,59704,1,0
120,240,59872,1,8
280,296,60209,1,0
328,224,60378,1,0
280,152,60546,1,8
112,152,60883,6,0,B|192:152,7,70,0|0|0|0|8|0|0|0
176,112,61557,1,0
248,72,61726,1,0
328,104,61895,1,8
368,176,62063,1,0
352,256,62232,5,0
280,304,62400,1,0
200,280,62569,1,8
64,176,62906,1,0
136,136,63074,1,0
216,168,63243,1,8
352,256,63580,1,0
424,296,63748,1,0
496,256,63917,1,8
352,176,64254,1,0
280,136,64423,1,0
280,216,64591,1,8
208,176,64760,1,0
208,256,64928,5,0
352,176,65265,1,8
352,264,65434,1,0
280,216,65602,1,0
280,304,65771,1,0
208,256,65940,1,8
56,320,66277,2,0,B|56:240,7,70,0|0|0|0|8|0|0|0
88,280,66951,1,0
160,328,67119,1,0
232,280,67288,1,8
160,240,67456,1,0
88,200,67625,6,0,B|152:56|232:200,2,210
88,280,68299,1,8
160,240,68468,1,0
232,280,68636,1,0
160,328,68805,1,0
232,280,68973,6,0,B|304:272|336:184,1,140
248,192,69310,2,0,B|216:112|272:40,1,140,8|0
328,112,69647,2,0,B|384:72|472:112,1,140
400,168,69984,2,0,B|448:240|400:320,1,140,8|0
336,344,70322,5,0
336,264,70490,2,0,B|392:208,2,70,0|0|8
264,304,70827,1,0
272,216,70996,2,0,B|328:160,2,70
200,256,71333,1,8
200,176,71501,2,0,B|256:120,2,70
192,184,71754,1,0
184,192,71838,1,0
192,200,71923,1,0
200,208,72007,1,8
216,216,72091,1,0
232,224,72175,1,0
248,216,72260,1,0
264,208,72344,1,0
296,288,72513,2,0,B|264:360|160:352,2,140,0|8|0
344,360,73018,6,0,B|392:368|424:352,2,70
400,296,73355,2,0,B|488:296,2,70,8|0|0
344,232,73692,2,0,B|264:232,2,70
400,168,74029,2,0,B|312:168,2,70,8|0|0
344,104,74366,6,0,B|288:40|208:88,1,140
272,144,74704,2,0,B|208:192|136:184,1,140,8|0
168,104,75041,2,0,B|56:128|64:208,1,140
144,200,75378,2,0,B|176:272|136:336,1,140,8|0
72,280,75715,6,0,B|144:248|256:256,1,140
160,328,76052,2,0,B|232:352|328:320,1,140,8|0
248,264,76389,2,0,B|288:200|376:240,1,140
320,304,76726,2,0,B|384:344|456:296,1,140,8|0
464,216,77063,6,0,B|480:136,3,70
448,176,77400,2,0,B|432:136,7,35,8|0|0|0|0|0|0|0
456,144,77737,2,0,B|480:64,3,70
448,104,78074,2,0,B|432:32,3,70,8|0|0|0
408,72,78411,5,4
88,320,81107,6,0,B|40:240|40:168|96:112,2,210,0|0|8
416,328,81782,6,0,B|464:240|448:192|392:128,2,210,0|0|8
336,304,82456,5,0
360,224,82624,1,0
280,240,82793,1,8
304,160,82961,1,0
224,168,83130,1,0
192,248,83298,1,0
240,312,83467,1,8
280,240,83635,1,0
344,184,83804,6,0,B|432:160|416:80|296:48,2,210,0|0|8
168,184,84478,6,0,B|80:160|96:80|216:48,2,210,0|0|8
232,128,85152,6,0,B|296:56|384:48,1,140
328,136,85489,2,0,B|416:112|480:160,1,140,8|0
400,208,85826,2,0,B|488:272|464:352,1,140
344,296,86164,2,0,B|272:352|144:296,1,140,8|0
144,272,86501,5,0
144,272,86613,1,8
144,272,86725,1,0
144,272,86838,1,0
144,272,86950,1,8
176,80,87175,5,0
176,80,87287,1,8
176,80,87399,1,0
176,80,87512,1,0
176,80,87624,1,8
368,112,87849,5,0
368,112,87961,1,8
368,112,88073,1,0
368,112,88186,1,0
368,112,88298,1,8
336,304,88523,5,0
336,304,88635,1,8
336,304,88747,1,0
336,304,88860,1,0
336,304,88972,1,8
256,224,89197,6,0,B|296:144|272:80|184:88,2,186.666666666667,0|0|8
152,176,89871,6,0,B|96:280|208:344,2,186.666666666667,0|0|8
88,80,90546,6,0,L|72:88|88:96|72:104|88:112|72:120|88:128,3,70
120,80,90883,6,8,L|136:88|120:96|136:104|120:112|136:120|120:128,3,70
88,80,91220,6,0,L|72:72|88:64|72:56|88:48|72:40|88:32,3,70
120,80,91557,6,8,L|136:72|120:64|136:56|120:48|136:40|120:32,3,70
160,64,91894,6,0,L|248:24|312:56,2,140,0|0|8
224,120,92400,2,0,L|280:168|360:136,2,140,0|0|8
144,144,92905,2,0,L|64:144,3,70,8|0|0|0
104,168,93242,5,0
72,248,93411,1,0
136,304,93579,1,0
168,224,93748,1,0
232,280,93916,1,8
264,200,94085,1,0
200,144,94253,2,0,L|160:80,3,70
200,104,94591,2,0,L|216:32,3,70,8|0|0|0
232,72,94928,6,0,L|312:88,4,70
232,240,95602,2,0,L|152:288,4,70
376,152,96276,2,0,L|264:144,3,70
336,176,96613,2,0,L|320:248,3,70
360,224,96950,6,0,L|448:192|456:104,2,140,0|0|8
432,272,97456,2,0,L|384:328|304:288,2,140,0|0|8
472,200,97961,2,0,L|480:128|408:88,1,140
336,80,98298,1,2
336,80,98383,1,2
336,80,98467,1,2
336,80,98551,1,0
336,80,98635,6,2,L|264:48,1,70
296,88,98804,2,2,L|232:120,1,70
272,128,98973,5,8
248,208,99141,2,2,L|176:168,1,70
232,168,99310,2,2,L|200:104,1,70
240,120,99478,1,8
216,40,99647,6,2,L|144:24,1,70
176,56,99815,2,2,L|104:80,1,70
144,96,99984,2,2,L|88:144,3,70
136,152,100321,5,2
136,192,100405,1,2
136,232,100489,1,2
128,272,100574,1,2
104,304,100658,1,8
216,152,100826,1,2
216,192,100911,1,2
216,232,100995,1,2
232,272,101079,1,2
264,304,101164,1,2
352,304,101332,1,2
384,288,101416,1,2
408,256,101501,1,2
408,224,101585,1,2
408,192,101669,2,2,L|336:208,3,70
368,176,102006,6,2,L|328:104,1,70
376,120,102175,2,2,L|432:64,1,70
384,64,102343,5,8
216,40,102512,2,2,L|288:72,1,70
248,96,102681,2,2,L|176:64,1,70
200,104,102849,5,8
120,112,103017,6,2,L|48:88,1,70
80,120,103186,2,2,L|152:144,1,70
104,144,103355,2,2,L|32:112,1,70
64,152,103523,2,2,L|136:184,1,70
88,176,103692,2,2,L|16:136,1,70
48,176,103860,2,0,L|128:216,1,70
72,208,104029,5,8
48,240,104113,5,8
56,280,104197,5,8
88,312,104282,5,8
128,320,104366,5,8
168,304,104450,5,8
192,272,104534,5,8
176,232,104619,5,8
184,192,104703,5,8
208,160,104787,5,8
248,144,104871,5,8
288,160,104956,5,8
320,192,105040,5,8
312,232,105124,5,8
288,264,105208,5,8
304,304,105293,5,8
344,320,105377,5,8
384,312,105461,5,8
392,272,105546,5,8
368,240,105630,5,8
376,200,105714,5,8
408,176,105798,5,8
440,144,105883,5,8
424,104,105967,5,8
384,96,106051,5,8
344,88,106135,5,8
304,64,106220,5,8
272,40,106304,5,8
232,32,106388,5,8
192,56,106473,5,8
168,88,106557,5,8
32,352,108074,5,0
480,32,108748,5,0
