osu file format v9

[General]
AudioFilename: 04 - BEE-U-TIFUL.mp3
AudioLeadIn: 2000
PreviewTime: 60829
Countdown: 0
SampleSet: Soft
StackLeniency: 0.7
Mode: 0
LetterboxInBreaks: 1

[Editor]
DistanceSpacing: 0.8
BeatDivisor: 4
GridSize: 4

[Metadata]
Title:BEE-U-TIFUL
Artist:FIRST AID
Creator:yeahyeahyeahhh
Version:HD
Source:DJMAX
Tags:technika technika2 Drum and bass DnB DaB Relaxing

[Difficulty]
HPDrainRate:5
CircleSize:4
OverallDifficulty:7
ApproachRate:7
SliderMultiplier:1.3
SliderTickRate:1

[Events]
//Background and Video events
0,0,"BEE-U-TIFUL_Technika2Eyecatch.jpg"
Video,0,"video.flv"
//Break Periods
2,35638,40185
//Storyboard Layer 0 (Background)
//Storyboard Layer 1 (Fail)
//Storyboard Layer 2 (Pass)
//Storyboard Layer 3 (Foreground)
//Storyboard Sound Samples
//Background Colour Transformations
3,100,163,162,255

[TimingPoints]
144,352.941176470588,4,2,0,60,1,0
1555,-100,4,2,2,40,0,0
11349,-100,4,1,1,60,0,0
12849,-100,4,2,1,60,0,1
12938,-100,4,2,1,60,0,0
13820,-100,4,2,1,45,0,0
13996,-100,4,2,1,60,0,0
15232,-100,4,2,1,45,0,0
15408,-100,4,2,1,60,0,0
16643,-100,4,2,1,45,0,0
17085,-100,4,2,1,60,0,0
19467,-100,4,2,1,45,0,0
19643,-100,4,2,1,60,0,0
20879,-100,4,2,1,45,0,0
21055,-100,4,2,1,60,0,0
22291,-100,4,2,1,45,0,0
22643,-100,4,2,1,60,0,0
22820,-100,4,2,1,45,0,0
22996,-100,4,2,1,60,0,0
23349,-100,4,2,1,45,0,0
23614,-100,4,2,1,60,0,0
23702,-100,4,2,1,45,0,0
23967,-100,4,2,1,60,0,0
25114,-100,4,2,1,45,0,0
25291,-100,4,2,1,60,0,0
26526,-100,4,2,1,45,0,0
26702,-100,4,2,1,60,0,0
27938,-100,4,2,1,45,0,0
28379,-100,4,2,1,60,0,0
30761,-100,4,2,1,45,0,0
30938,-100,4,2,1,60,0,0
32173,-100,4,2,1,45,0,0
32349,-100,4,2,1,60,0,0
35349,-100,4,2,0,60,0,0
35614,-100,4,2,0,30,0,0
44614,-100,4,2,1,40,0,0
46996,-100,4,1,1,40,0,0
47173,-100,4,2,1,40,0,0
47614,-100,4,1,1,40,0,0
47702,-100,4,2,1,40,0,0
47967,-100,4,1,1,40,0,0
48055,-100,4,2,1,40,0,0
48408,-100,4,1,1,40,0,0
48585,-100,4,2,1,40,0,0
49820,-100,4,1,1,40,0,0
49996,-100,4,2,1,40,0,0
50438,-100,4,1,1,40,0,0
50526,-100,4,2,1,40,0,0
52643,-100,4,1,1,40,0,0
52820,-100,4,2,1,40,0,0
53173,-100,4,1,1,40,0,0
53349,-100,4,2,1,40,0,0
53614,-100,4,1,1,40,0,0
53702,-100,4,2,1,40,0,0
54055,-100,4,1,1,40,0,0
54232,-100,4,2,1,40,0,0
55555,-100,4,1,1,40,0,0
55643,-100,4,2,1,40,0,0
56085,-100,4,1,1,40,0,0
56173,-100,4,2,1,40,0,0
58732,-100,4,2,0,50,0,0
59526,-100,4,1,0,75,0,0
60849,-100,4,2,1,60,0,1
60849,-100,4,2,1,50,0,1
82114,-100,4,1,0,60,0,1
83349,-100,4,1,0,30,0,1
83438,-100,4,1,1,30,0,0
94643,-100,4,2,0,60,0,0

[Colours]
Combo1 : 255,0,255
Combo2 : 252,209,12
Combo3 : 70,70,255
Combo4 : 3,252,165

[HitObjects]
440,296,1555,6,0,B|362:306|318:262,1,130,6|8
300,192,2085,2,0,B|318:263|254:303,1,130,2|8
96,272,2791,5,8
96,272,2967,2,0,B|144:220|216:228,1,130,2|8
244,160,3496,2,0,B|276:120|260:32,1,130,8|2
80,48,4202,5,2
80,48,4379,2,0,B|52:108|80:184,1,130,2|8
136,232,4908,2,0,B|164:172|136:96,1,130,2|8
292,184,5614,5,0
292,184,5791,2,0,B|356:232|428:184,1,130,2|2
468,144,6320,2,0,B|504:200|496:276,2,130,2|2|2
256,192,7202,12,2,10026
40,260,10379,5,8
40,260,10555,1,2
64,128,10908,2,0,B|96:96|96:48,2,65,8|0|0
20,188,11438,1,0
92,200,11614,6,0,B|108:216|112:240,4,32.5,0|0|0|0|0
144,148,12143,1,0
144,148,12232,1,0
216,136,12408,1,0
216,136,12496,1,0
288,152,12673,1,0
380,116,12849,6,0,B|396:210|324:254,1,130,6|8
300,304,13379,2,0,B|344:257|423:277,1,130,2|8
500,256,13908,1,0
460,184,14085,1,8
476,104,14261,6,0,B|412:88|384:16,1,130,2|8
340,88,14791,2,0,B|272:104|248:172,1,130,8|2
328,196,15320,2,0,B|316:232|276:248,1,65,0|2
324,316,15673,6,0,B|248:340|208:272,1,130,2|8
192,196,16202,2,0,B|155:133|79:157,1,130,2|8
8,196,16732,1,0
8,196,16820,1,0
16,116,16996,5,0
16,116,17085,1,2
140,76,17438,1,2
140,76,17614,2,2,B|205:103|265:67,2,130,2|0|2
92,144,18496,6,0,B|120:200|116:276,1,130,2|8
40,240,19026,2,8,B|36:302|76:368,1,130,2|8
152,340,19555,2,0,B|224:356,1,65,0|8
272,300,19908,6,0,B|324:344|396:344,1,130,2|8
464,304,20438,2,0,B|412:260|344:260,1,130,8|2
272,220,20967,1,0
272,220,21143,1,2
200,260,21320,6,0,B|144:204|172:128,1,130,2|8
204,68,21849,2,0,B|152:128|68:104,1,130,2|0
40,184,22379,1,0
64,196,22467,1,0
88,208,22555,1,0
148,264,22732,6,0,B|212:228,1,65,2|0
224,152,23085,1,2
300,184,23261,1,2
320,104,23438,2,0,B|348:80,2,32.5,0|0|2
380,160,23791,1,0
380,160,23879,1,0
380,160,23967,1,2
472,128,24143,6,0,B|500:196|476:256,1,130,6|8
504,332,24673,2,0,B|428:344|396:276,1,130,2|8
324,244,25202,2,0,B|244:272,1,65,0|8
188,232,25555,6,0,B|168:308|240:344,1,130,2|8
316,324,26085,1,8
256,172,26438,1,2
224,96,26614,1,0
252,20,26791,1,2
172,28,26967,6,0,B|48:64,1,130,2|8
20,156,27496,2,0,B|144:120,1,130,2|8
224,96,28026,1,0
224,96,28114,1,0
306,103,28291,5,0
306,103,28379,1,2
408,184,28732,1,2
408,184,28908,2,0,B|460:136|440:64,2,130,2|2|2
324,180,29791,6,0,B|316:248|336:308,1,130,2|8
400,360,30320,2,0,B|420:299|412:231,1,130,2|8
392,152,30849,1,0
332,96,31026,1,8
252,112,31202,6,0,B|188:140|120:108,1,130,2|8
193,49,31732,2,0,B|131:22|68:52,1,130,8|2
40,128,32261,2,0,B|52:160|88:180,1,65,0|2
156,212,32614,6,0,B|216:180|292:196,1,130,0|8
360,220,33143,2,0,B|379:282|347:346,2,130,2|8|0
344,140,34026,5,2
372,64,34202,2,0,B|340:20,4,32.5
448,96,34732,1,0
464,116,34820,1,0
432,188,34996,1,0
448,208,35084,1,0
468,288,35261,1,0
404,340,35438,5,4
256,192,41085,12,0,43908
64,104,45320,6,0,B|92:172|168:168,1,130,2|2
236,144,45849,2,0,B|252:228|172:244,2,130,2|2|2
224,64,46732,6,0,B|302:79,1,65,6|0
372,12,47085,2,0,B|357:90,1,65,8|2
444,160,47438,2,0,B|366:145,1,65,0|8
308,156,47791,1,0
308,156,47879,1,0
308,156,47967,1,8
236,172,48144,1,2
236,172,48320,1,0
224,244,48496,6,0,B|155:261|104:204,1,130,8|0
40,164,49026,2,0,B|88:108|164:144,1,130,2|0
216,96,49555,6,0,B|252:112|284:80,1,65,6|0
408,40,49908,2,0,B|372:24|340:56,1,65,8|2
344,124,50261,2,0,B|369:148|353:184,1,65,0|8
324,256,50614,1,0
324,256,50702,1,0
324,256,50791,1,0
256,204,50967,6,0,B|212:280|288:332,1,130,2|2
356,336,51496,2,0,B|287:315|239:372,2,130,2|2|2
432,344,52379,6,0,B|443:311|436:279,1,65,6|0
500,244,52732,2,0,B|482:216|450:205,1,65,8|2
380,232,53085,2,0,B|350:238|320:213,1,65,0|8
280,152,53438,1,0
280,152,53526,1,0
280,152,53614,1,8
296,80,53791,1,2
296,80,53967,1,0
220,96,54143,6,0,B|84:120,1,130,8|0
40,64,54673,2,0,B|8:100|12:152|56:184,1,130,2|2
124,188,55202,5,6
196,216,55379,2,0,B|200:256,2,32.5,0|0|8
256,172,55732,1,2
320,236,55908,1,0
320,236,55996,1,0
320,236,56085,1,8
300,308,56261,6,0,B|288:360,4,32.5
136,328,58908,5,0
124,256,59085,1,0
56,284,59261,1,0
40,212,59438,1,0
100,156,59614,6,0,B|48:128,3,32.5
104,116,59967,2,0,B|84:76,3,32.5
132,88,60320,2,0,B|128:40,3,32.5
164,80,60673,2,0,B|184:28,2,32.5,0|0|6
280,140,61202,5,8
356,172,61379,1,2
448,80,61732,1,8
464,160,61908,1,0
464,160,61996,1,0
464,160,62085,1,8
480,240,62261,6,0,B|434:289|362:285,1,130,2|8
280,280,62791,1,8
184,192,63143,1,2
256,152,63320,1,0
256,152,63408,1,0
256,152,63496,1,2
332,120,63673,6,0,B|356:52|288:8,1,130,2|8
228,64,64202,2,0,B|196:128|120:124,1,130,2|0
52,80,64732,1,0
52,80,64820,1,0
12,151,64996,5,0
12,151,65085,1,2
120,224,65438,1,0
120,224,65614,2,0,B|93:289|129:349,2,130,2|2|2
176,164,66496,6,0,B|244:156|302:188,1,130,2|8
248,252,67026,2,0,B|305:283|373:275,1,130,2|8
452,252,67555,1,0
452,252,67643,1,0
452,252,67732,1,8
496,320,67908,6,0,B|440:356|368:352,1,130,2|8
290,343,68438,2,0,B|222:335|158:359,1,130,8|2
80,352,68967,1,0
80,352,69055,1,0
80,352,69143,1,0
120,280,69320,6,0,B|135:212|83:152,1,130,2|8
44,96,69849,2,0,B|96:156|180:132,1,130,0|8
236,100,70379,1,0
236,100,70467,1,0
236,100,70555,1,0
308,52,70732,6,0,B|340:76|344:116,1,65,2|0
340,184,71085,1,2
392,248,71261,1,2
472,264,71438,2,0,B|488:292,2,32.5,0|0|2
444,184,71791,1,0
444,184,71879,1,0
444,184,71967,1,2
496,96,72143,6,0,B|436:68|368:96,1,130,4|8
292,68,72673,2,0,B|280:143|346:174,1,130,2|8
388,244,73202,2,0,B|308:272,1,65,0|8
348,344,73555,6,0,B|220:324,1,130,2|8
139,306,74085,1,8
52,192,74438,1,2
128,224,74614,1,0
208,208,74791,1,2
262,148,74967,6,8,B|274:76|226:24,1,130,2|0
160,76,75496,2,0,B|116:120|36:112,1,130,2|8
8,36,76026,1,0
8,36,76114,1,0
88,16,76291,5,0
88,16,76379,1,2
260,76,76732,1,2
260,76,76908,2,0,B|240:146|292:194,2,130,2|2|2
332,36,77791,5,2
464,167,78143,1,8
480,248,78320,2,0,B|420:216|351:236,1,130,2|8
284,280,78849,1,0
284,280,79026,1,8
220,332,79202,6,0,B|156:359|94:330,1,130,2|8
36,272,79732,2,0,B|98:242|161:270,1,130,8|0
224,216,80261,1,0
224,216,80438,1,2
256,140,80614,5,2
384,120,80967,1,8
344,48,81143,2,0,B|400:12|470:34,2,130,2|8|0
262,59,82026,1,2
184,84,82202,6,0,B|160:56,4,32.5
164,164,82732,1,0
164,164,82820,1,0
104,220,82996,1,0
104,220,83084,1,0
24,200,83261,1,0
44,276,83438,5,4
116,296,83614,1,0
186,269,83791,1,0
186,269,83967,1,0
228,208,84143,1,0
296,175,84320,1,0
370,186,84496,1,0
370,186,84673,1,0
426,238,84849,6,0,B|456:240|488:208,1,65
492,120,85202,2,0,B|460:119|436:151,1,65
376,108,85555,2,0,B|340:108|312:56,1,65
256,40,85908,2,0,B|224:60|220:96,1,65
204,164,86261,6,0,B|168:176|124:148,3,65
144,84,86967,2,0,B|108:72|64:100,3,65
36,152,87673,1,0
108,260,88026,5,0
108,260,88202,2,0,B|184:276|208:352,2,130
256,192,89085,12,0,91908
440,276,92261,5,0
440,276,92438,2,0,B|384:320|316:284,1,130
160,272,93143,5,0
164,200,93320,1,0
164,200,93496,1,0
96,224,93673,6,0,B|40:188|48:108,1,130
24,32,94202,2,0,B|101:24|137:80,1,130
208,104,94732,1,4
