osu file format v14

[General]
AudioFilename: FIESTAR() _ One More( ).mp3
AudioLeadIn: 0
PreviewTime: 67630
Countdown: 0
SampleSet: Soft
StackLeniency: 0.7
Mode: 0
LetterboxInBreaks: 0
WidescreenStoryboard: 0

[Editor]
DistanceSpacing: 1.2
BeatDivisor: 4
GridSize: 4
TimelineZoom: 1.900003

[Metadata]
Title:One More
TitleUnicode:하나 더
Artist:FIESTAR
ArtistUnicode:피에스타
Creator:Pink Agate
Version:Normal
Source:
Tags:kpop k-pop LOEN Entertainment 콜라보따리 재이 린지 예지 혜미 차오루
BeatmapID:464438
BeatmapSetID:195781

[Difficulty]
HPDrainRate:3
CircleSize:3.7
OverallDifficulty:3
ApproachRate:4
SliderMultiplier:1.5
SliderTickRate:2

[Events]
//Background and Video events
Video,-186,"videoplayback.av.flv"
0,0,"BG.jpg",0,0
//Break Periods
2,84613,85398
2,137245,150398
//Storyboard Layer 0 (Background)
//Storyboard Layer 1 (Fail)
//Storyboard Layer 2 (Pass)
//Storyboard Layer 3 (Foreground)
//Storyboard Sound Samples

[TimingPoints]
8824,526.315789473684,4,2,0,50,1,0
31981,-100,4,2,0,20,0,0
33560,-100,4,2,0,50,0,0
63560,-100,4,2,0,50,0,1
67508,-100,4,2,0,50,0,0
133034,-100,4,2,0,50,0,1
136192,-100,4,2,0,50,0,0
183560,-100,4,2,0,50,0,1
185666,-100,4,2,0,65,0,1
187771,-100,4,2,0,50,0,0

[Colours]
Combo1 : 249,138,155
Combo2 : 248,184,14
Combo3 : 202,134,191

[HitObjects]
112,240,8823,6,0,P|184:232|216:156,1,150,0|8,0:0|0:0,0:0:0:0:
188,84,9613,1,0,0:0:0:0:
256,24,9876,1,0,0:0:0:0:
324,84,10139,1,0,0:0:0:0:
412,100,10402,2,0,P|396:144|364:168,1,75,8|0,0:0|0:0,0:0:0:0:
288,188,10929,6,0,P|304:224|340:240,1,75
424,228,11455,2,0,P|464:228|500:260,1,75,8|0,0:0|0:0,0:0:0:0:
436,320,11981,1,0,0:0:0:0:
256,344,12508,1,8,0:0:0:0:
96,260,13034,5,0,0:0:0:0:
132,84,13560,1,8,0:0:0:0:
300,20,14087,2,0,P|304:64|328:96,1,75
404,124,14613,2,0,P|412:168|404:200,1,75,8|0,0:0|0:0,0:0:0:0:
328,240,15139,6,0,L|296:268,2,37.5
260,180,15666,2,0,P|232:160|188:152,2,75,8|0|0,0:0|0:0|0:0,0:0:0:0:
184,268,17245,6,0,P|256:284|332:268,1,150,4|8,0:0|0:0,0:0:0:0:
372,192,18034,1,0,0:0:0:0:
384,104,18297,2,0,P|340:108|312:132,1,75
228,132,18823,2,0,P|198:111|161:110,1,75,8|0,0:0|0:0,0:0:0:0:
88,160,19350,6,0,P|68:200|80:236,1,75
108,308,19876,2,0,L|184:296,1,75,8|0,0:0|0:0,0:0:0:0:
272,284,20402,1,0,0:0:0:0:
448,252,20929,1,10,0:0:0:0:
296,156,21455,6,0,P|280:96|340:32,1,150,0|8,0:0|0:0,0:0:0:0:
372,116,22245,1,0,0:0:0:0:
436,180,22508,2,0,P|400:200|360:196,1,75
288,240,23034,2,0,L|268:312,1,75,8|0,0:0|0:0,0:0:0:0:
176,312,23560,6,0,P|180:272|156:236,1,75
104,172,24087,2,0,L|84:88,1,75,8|0,0:0|0:0,0:0:0:0:
148,32,24613,1,0,0:0:0:0:
308,116,25139,1,10,0:0:0:0:
464,204,25666,6,0,P|424:236|328:224,1,150,0|8,0:0|0:0,0:0:0:0:
388,156,26455,1,0,0:0:0:0:
308,116,26718,2,0,P|268:128|252:160,1,75
232,244,27245,1,8,0:0:0:0:
388,156,27771,6,0,P|416:128|416:88,1,75
376,16,28297,2,0,P|340:4|300:12,1,75,8|0,0:0|0:0,0:0:0:0:
224,52,28823,1,0,0:0:0:0:
60,132,29350,1,10,0:0:0:0:
60,132,29876,6,0,P|80:216|144:256,2,150,0|8|0,0:0|0:0|0:0,0:0:0:0:
236,104,31455,1,8,0:0:0:0:
236,104,31981,6,0,P|228:152|244:188,1,75
296,244,32508,2,0,L|312:332,1,75
396,344,33034,2,0,P|436:344|460:320,1,75
468,232,33560,2,0,L|452:152,1,75,10|0,0:0|0:0,0:0:0:0:
380,108,34087,5,4,0:0:0:0:
204,80,34613,1,8,0:0:0:0:
104,232,35139,2,0,P|148:216|164:188,1,75
248,164,35666,2,0,P|233:130|201:114,1,75,8|0,0:0|0:0,0:0:0:0:
124,64,36192,6,0,P|112:108|128:144,1,75
104,232,36718,2,0,L|192:221,1,75,8|0,0:0|0:0,0:0:0:0:
252,276,37245,1,0,0:0:0:0:
432,256,37771,1,10,0:0:0:0:
432,256,38297,6,0,P|468:180|448:112,1,150,0|8,0:0|0:0,0:0:0:0:
288,40,39350,2,0,L|280:120,1,75
252,200,39876,2,0,P|216:236|180:240,1,75,8|0,0:0|0:0,0:0:0:0:
124,184,40402,5,0,0:0:0:0:
112,96,40666,1,0,0:0:0:0:
188,48,40929,2,0,P|200:92|188:132,1,75,8|0,0:0|0:0,0:0:0:0:
124,184,41455,2,0,P|108:228|120:264,1,75
200,276,41981,1,10,0:0:0:0:
200,276,42508,6,0,B|252:280|280:256|280:256|316:240|352:252,1,150,0|8,0:0|0:0,0:0:0:0:
432,232,43297,1,0,0:0:0:0:
404,144,43560,2,0,L|400:52,1,75
312,52,44087,2,0,L|315:126,1,75,8|0,0:0|0:0,0:0:0:0:
248,188,44613,6,0,P|184:220|108:200,1,150,0|8,0:0|0:0,0:0:0:0:
172,136,45402,1,0,0:0:0:0:
224,60,45666,2,0,L|244:104,2,37.5
136,64,46192,2,0,L|116:16,2,37.5,10|0|0,0:0|0:0|0:0,0:0:0:0:
76,132,46718,5,0,0:0:0:0:
80,312,47245,2,0,B|141:362|209:346|209:346|253:302|305:346|305:346|369:358|425:314,1,375,8|0,0:0|0:0,0:0:0:0:
396,228,48823,5,4,0:0:0:0:
336,60,49350,1,4,0:0:0:0:
160,96,49876,1,4,0:0:0:0:
160,276,50402,1,2,0:0:0:0:
160,276,50929,6,0,P|188:312|220:324,1,75,4|0,0:0|0:0,0:0:0:0:
240,236,51455,2,0,L|256:160,1,75,8|0,0:0|0:0,0:0:0:0:
344,176,51981,2,0,L|328:252,2,75,0|0|8,0:0|0:0|0:0,0:0:0:0:
412,344,53034,6,0,P|444:372|480:380,1,75
484,292,53560,1,8,0:0:0:0:
476,112,54087,1,0,0:0:0:0:
376,264,54613,1,10,0:0:0:0:
296,100,55139,6,0,P|304:148|292:184,1,75
216,132,55666,2,0,P|209:95|217:59,1,75,8|0,0:0|0:0,0:0:0:0:
296,100,56192,1,0,0:0:0:0:
244,272,56718,2,0,P|220:304|184:316,1,75,8|0,0:0|0:0,0:0:0:0:
120,256,57245,5,0,0:0:0:0:
96,76,57771,1,8,0:0:0:0:
276,52,58297,2,0,L|272:144,1,75
224,204,58823,2,0,P|256:220|300:212,2,75,10|0|0,0:0|0:0|0:0,0:0:0:0:
96,76,59876,6,0,P|128:60|172:64,1,75,8|0,0:0|0:0,0:0:0:0:
240,112,60402,1,0,0:0:0:0:
176,284,60929,1,8,0:0:0:0:
240,112,61455,5,0,0:0:0:0:
408,48,61981,2,0,L|412:128,1,75,8|0,0:0|0:0,0:0:0:0:
344,184,62508,2,0,P|380:212|420:216,1,75
476,156,63034,2,0,P|440:128|400:124,1,75,10|0,0:0|0:0,0:0:0:0:
324,100,63560,5,0,0:0:0:0:
220,248,64087,1,8,0:0:0:0:
136,88,64613,1,0,0:0:0:0:
288,180,65139,1,8,0:0:0:0:
248,356,65666,6,0,L|248:272,1,75,4|0,0:0|0:0,0:0:0:0:
328,244,66192,2,0,L|328:328,2,75,4|0|4,0:0|0:0|0:0,0:0:0:0:
236,88,67245,2,0,P|204:124|164:128,1,75,10|0,0:0|0:0,0:0:0:0:
152,44,67771,6,0,P|84:104|136:212,1,225,4|0,0:0|0:0,0:0:0:0:
224,224,68823,2,0,L|304:212,1,75
336,296,69350,2,0,L|256:308,1,75,8|0,0:0|0:0,0:0:0:0:
172,316,69876,6,0,P|136:296|124:256,1,75
152,180,70402,2,0,P|156:132|140:104,1,75,8|0,0:0|0:0,0:0:0:0:
80,48,70929,1,0,0:0:0:0:
260,56,71455,1,10,0:0:0:0:
260,56,71981,6,0,P|264:116|404:124,1,225
436,48,73034,2,0,P|480:72|492:104,1,75
488,184,73560,2,0,L|476:276,1,75,8|0,0:0|0:0,0:0:0:0:
432,336,74087,6,0,P|400:312|352:316,1,75
276,300,74613,2,0,L|200:296,1,75,8|0,0:0|0:0,0:0:0:0:
112,280,75139,1,0,0:0:0:0:
268,188,75666,1,10,0:0:0:0:
268,188,76192,6,0,P|252:116|316:76,1,150,0|8,0:0|0:0,0:0:0:0:
396,92,76981,1,0,0:0:0:0:
476,132,77245,2,0,P|448:172|408:180,1,75
396,92,77771,2,0,L|416:12,1,75,8|0,0:0|0:0,0:0:0:0:
324,16,78297,6,0,P|288:44|248:48,1,75
172,64,78823,2,0,P|112:68|96:88,1,75,8|0,0:0|0:0,0:0:0:0:
76,160,79350,1,0,0:0:0:0:
228,256,79876,1,10,0:0:0:0:
384,344,80402,6,0,P|436:296|416:220,1,150,0|8,0:0|0:0,0:0:0:0:
340,264,81192,1,0,0:0:0:0:
284,192,81455,2,0,P|308:176|360:176,1,75
340,264,81981,2,0,P|316:280|264:280,1,75,8|0,0:0|0:0,0:0:0:0:
188,316,82508,6,0,L|184:240,1,75
176,152,83034,2,0,P|192:120|184:80,1,75,8|0,0:0|0:0,0:0:0:0:
116,24,83560,1,0,0:0:0:0:
16,172,84087,1,10,0:0:0:0:
324,72,86718,6,0,P|376:112|328:248,1,225,4|0,0:0|0:0,0:0:0:0:
248,264,87771,2,0,L|156:248,1,75
160,164,88297,2,0,L|252:180,1,75,8|0,0:0|0:0,0:0:0:0:
324,188,88823,6,0,P|364:192|404:164,1,75
480,144,89350,2,0,L|468:228,1,75,8|0,0:0|0:0,0:0:0:0:
452,308,89876,1,0,0:0:0:0:
272,280,90402,1,10,0:0:0:0:
128,168,90929,6,0,P|156:100|300:100,1,225
228,156,91981,2,0,P|228:188|256:220,1,75
344,236,92508,2,0,P|340:196|312:164,1,75,8|0,0:0|0:0,0:0:0:0:
328,80,93034,6,0,L|240:68,1,75
164,80,93560,2,0,P|128:92|84:84,1,75,8|0,0:0|0:0,0:0:0:0:
8,52,94087,1,0,0:0:0:0:
100,208,94613,1,10,0:0:0:0:
100,208,95139,6,0,B|172:220|144:292|208:300,1,150,0|8,0:0|0:0,0:0:0:0:
292,332,95929,1,0,0:0:0:0:
296,244,96192,2,0,B|224:232|252:160|188:152,1,150
168,64,96981,1,0,0:0:0:0:
344,96,97508,5,0,0:0:0:0:
428,60,97771,2,0,P|432:116|416:140,1,75,8|0,0:0|0:0,0:0:0:0:
384,212,98297,2,0,P|324:220|252:156,1,150,0|8,0:0|0:0,0:0:0:0:
264,76,99087,2,0,L|180:68,1,75
136,140,99613,6,0,P|108:208|268:320,1,300
260,232,100929,1,8,0:0:0:0:
372,92,101455,5,0,0:0:0:0:
416,268,101981,1,0,0:0:0:0:
276,152,102508,2,0,L|200:132,1,75
116,108,103034,1,10,0:0:0:0:
288,56,103560,5,4,0:0:0:0:
300,236,104087,1,8,0:0:0:0:
300,236,104613,2,0,P|316:276|344:296,2,75,0|0|8,0:0|0:0|0:0,0:0:0:0:
172,108,105666,6,0,L|92:96,1,75
104,188,106192,2,0,L|184:200,1,75,8|0,0:0|0:0,0:0:0:0:
196,288,106718,1,0,0:0:0:0:
356,204,107245,1,10,0:0:0:0:
356,204,107771,6,0,P|312:140|228:128,1,150,0|8,0:0|0:0,0:0:0:0:
164,172,108560,2,0,P|152:104|196:32,1,150
280,36,109350,1,0,0:0:0:0:
304,216,109876,6,0,L|296:292,1,75
384,312,110402,1,8,0:0:0:0:
408,132,110929,1,0,0:0:0:0:
236,176,111455,1,10,0:0:0:0:
84,276,111981,6,0,P|124:328|204:340,1,150,0|8,0:0|0:0,0:0:0:0:
288,312,112771,1,0,0:0:0:0:
312,224,113034,2,0,L|312:136,1,75
396,180,113560,2,0,L|396:264,2,75,8|0|8,0:0|0:0|0:0,0:0:0:0:
224,128,114613,6,0,L|140:128,2,75,8|0|0,0:0|0:0|0:0,0:0:0:0:
280,300,115666,2,0,L|360:300,1,75,2|0,0:0|0:0,0:0:0:0:
360,212,116192,5,0,0:0:0:0:
256,64,116718,1,0,0:0:0:0:
152,212,117245,1,0,0:0:0:0:
256,64,117771,1,8,0:0:0:0:
428,116,118297,6,0,B|424:160|440:192|440:192|424:228|428:272,2,150,4|4|4,0:0|0:0|0:0,0:0:0:0:
68,92,120402,6,0,P|104:84|148:92,1,75
220,136,120929,2,0,P|256:141|296:136,1,75,8|0,0:0|0:0,0:0:0:0:
380,164,121455,1,0,0:0:0:0:
256,36,121981,1,8,0:0:0:0:
256,216,122508,6,0,L|256:296,2,75,0|0|8,0:0|0:0|0:0,0:0:0:0:
372,352,123560,2,0,L|428:300,1,75
440,212,124087,1,2,0:0:0:0:
340,64,124613,6,0,B|273:81|207:51|207:51|155:65|135:105,1,225
204,164,125666,2,0,B|270:146|336:176|336:176|388:162|408:122,1,225
476,180,126718,6,0,P|452:212|412:232,1,75
340,268,127245,2,0,P|312:288|292:324,1,75,8|0,0:0|0:0,0:0:0:0:
212,284,127771,2,0,P|164:272|140:248,1,75
108,172,128297,1,10,0:0:0:0:
240,44,128823,5,0,0:0:0:0:
240,44,129350,2,0,P|236:88|248:128,1,75,8|0,0:0|0:0,0:0:0:0:
324,156,129876,1,0,0:0:0:0:
168,248,130402,2,0,P|156:288|136:316,2,75,8|0|0,0:0|0:0|0:0,0:0:0:0:
340,308,131455,5,8,0:0:0:0:
436,156,131981,1,0,0:0:0:0:
264,216,132508,1,10,0:0:0:0:
336,68,133034,6,0,P|296:60|216:124,2,150
332,248,134613,1,0,0:0:0:0:
152,244,135139,6,0,P|148:288|168:320,1,75,4|0,0:0|0:0,0:0:0:0:
244,348,135666,2,0,L|328:340,1,75,4|0,0:0|0:0,0:0:0:0:
332,248,136192,1,4,0:0:0:0:
256,192,151718,12,4,153034,0:0:0:0:
432,156,154087,6,0,P|408:212|384:220,1,75,4|0,0:0|0:0,0:0:0:0:
312,232,154613,2,0,P|260:220|228:236,1,75,8|0,0:0|0:0,0:0:0:0:
160,268,155139,1,0,0:0:0:0:
244,108,155666,1,8,0:0:0:0:
244,108,156192,6,0,L|164:96,1,75
80,104,156718,2,0,P|44:116|28:156,1,75,8|0,0:0|0:0,0:0:0:0:
52,236,157245,1,0,0:0:0:0:
232,268,157771,1,10,0:0:0:0:
232,268,158297,6,0,P|256:240|260:192,1,75
208,132,158823,2,0,P|184:160|180:208,1,75,8|0,0:0|0:0,0:0:0:0:
232,268,159350,5,0,0:0:0:0:
316,304,159613,1,0,0:0:0:0:
400,272,159876,1,8,0:0:0:0:
444,96,160402,6,0,P|416:136|384:144,1,75
308,116,160929,2,0,L|224:108,1,75,8|0,0:0|0:0,0:0:0:0:
144,100,161455,2,0,P|116:132|116:164,1,75
176,228,161981,2,0,P|173:264|148:296,1,75,10|0,0:0|0:0,0:0:0:0:
80,240,162508,5,0,0:0:0:0:
228,340,163034,2,0,L|276:332,2,37.5,8|0|0,0:0|0:0|0:0,0:0:0:0:
150,294,163560,2,0,P|112:324|104:352,1,75
36,288,164087,2,0,L|48:204,1,75,8|0,0:0|0:0,0:0:0:0:
124,168,164613,6,0,P|160:160|192:124,1,75
264,88,165139,2,0,L|328:128,1,75,8|0,0:0|0:0,0:0:0:0:
412,156,165666,2,0,L|384:240,1,75
360,312,166192,1,10,0:0:0:0:
180,288,166718,5,0,0:0:0:0:
232,116,167245,1,8,0:0:0:0:
52,128,167771,2,0,L|68:212,2,75,0|0|8,0:0|0:0|0:0,0:0:0:0:
232,116,168823,6,0,P|296:76|376:88,1,150
424,256,169876,2,0,L|432:200,2,37.5,0|0|0,0:0|0:0|0:0,0:0:0:0:
360,320,170402,2,0,P|332:344|292:352,1,75,10|0,0:0|0:0,0:0:0:0:
216,308,170929,5,4,0:0:0:0:
324,164,171455,1,8,0:0:0:0:
148,196,171981,1,0,0:0:0:0:
324,164,172508,1,8,0:0:0:0:
192,44,173034,6,0,L|204:132,1,75
148,196,173560,2,0,P|164:240|160:284,1,75,8|0,0:0|0:0,0:0:0:0:
88,316,174087,1,0,0:0:0:0:
264,284,174613,1,2,0:0:0:0:
264,284,175139,6,0,P|264:236|284:208,1,75,0|0,0:0|0:0,0:0:0:0:
332,144,175666,2,0,P|368:112|376:72,1,75,8|0,0:0|0:0,0:0:0:0:
276,72,176192,1,0,0:0:0:0:
400,200,176718,1,8,0:0:0:0:
276,328,177245,6,0,P|232:312|212:284,1,75
224,200,177771,2,0,L|140:196,1,75,8|0,0:0|0:0,0:0:0:0:
168,108,178297,2,0,L|252:112,1,75
324,68,178823,2,0,L|408:72,2,75,10|0|0,0:0|0:0|0:0,0:0:0:0:
144,52,179876,5,8,0:0:0:0:
112,228,180402,1,0,0:0:0:0:
284,288,180929,1,8,0:0:0:0:
112,336,181455,1,0,0:0:0:0:
112,156,181981,6,0,P|124:116|164:96,1,75,8|0,0:0|0:0,0:0:0:0:
196,176,182508,2,0,L|188:264,1,75
260,308,183034,1,10,0:0:0:0:
436,272,183560,6,0,P|436:216|420:188,1,75
348,156,184087,2,0,P|328:120|332:76,1,75,8|0,0:0|0:0,0:0:0:0:
404,36,184613,1,0,0:0:0:0:
256,140,185139,1,8,0:0:0:0:
388,264,185666,5,4,0:0:0:0:
304,300,185929,1,0,0:0:0:0:
216,288,186192,2,0,L|140:268,1,75,4|0,0:0|0:0,0:0:0:0:
156,180,186718,2,0,L|228:200,2,75,4|0|10,0:0|0:0|0:0,0:0:0:0:
256,192,187771,12,4,191455,0:0:0:0:
