osu file format v14

[General]
AudioFilename: FIESTAR() _ One More( ).mp3
AudioLeadIn: 0
PreviewTime: 67630
Countdown: 0
SampleSet: Soft
StackLeniency: 0.7
Mode: 0
LetterboxInBreaks: 0
WidescreenStoryboard: 0

[Editor]
DistanceSpacing: 1
BeatDivisor: 4
GridSize: 4
TimelineZoom: 1.900003

[Metadata]
Title:One More
TitleUnicode:하나 더
Artist:FIESTAR
ArtistUnicode:피에스타
Creator:Pink Agate
Version:Hard
Source:
Tags:kpop k-pop LOEN Entertainment 콜라보따리 재이 린지 예지 혜미 차오루
BeatmapID:464437
BeatmapSetID:195781

[Difficulty]
HPDrainRate:6
CircleSize:4
OverallDifficulty:6
ApproachRate:7
SliderMultiplier:2
SliderTickRate:2

[Events]
//Background and Video events
Video,-186,"videoplayback.av.flv"
0,0,"BG.jpg",0,0
//Break Periods
2,84613,85292
2,137245,151081
//Storyboard Layer 0 (Background)
//Storyboard Layer 1 (Fail)
//Storyboard Layer 2 (Pass)
//Storyboard Layer 3 (Foreground)
//Storyboard Sound Samples

[TimingPoints]
8824,526.315789473684,4,2,0,50,1,0
31981,-100,4,2,0,30,0,0
32902,-100,4,2,0,50,0,0
63560,-100,4,2,0,50,0,1
67508,-100,4,2,0,50,0,0
133034,-100,4,2,0,50,0,1
136192,-100,4,2,0,50,0,0
183560,-100,4,2,0,50,0,1
185666,-100,4,2,0,65,0,1
187771,-100,4,2,0,50,0,0

[Colours]
Combo1 : 249,138,155
Combo2 : 248,184,14
Combo3 : 202,134,191

[HitObjects]
84,216,8823,6,0,B|132:264|132:320|132:320|204:256,1,200,0|8,0:0|0:0,0:0:0:0:
256,188,9613,1,0,0:0:0:0:
318,265,9876,2,0,B|380:320|380:320|380:264|428:216,1,200,0|8,0:0|0:0,0:0:0:0:
392,120,10666,1,0,0:0:0:0:
304,72,10929,6,0,B|256:52|256:52|204:76,1,100
124,120,11455,2,0,B|96:164|96:164|120:216,1,100,8|0,0:0|0:0,0:0:0:0:
160,296,11981,1,0,0:0:0:0:
256,328,12245,1,0,0:0:0:0:
348,292,12508,1,8,0:0:0:0:
348,292,12771,1,0,0:0:0:0:
395,207,13034,6,0,B|416:164|416:164|388:120,1,100
316,48,13560,2,0,P|288:88|292:140,1,100,8|0,0:0|0:0,0:0:0:0:
256,232,14087,1,0,0:0:0:0:
172,176,14350,1,0,0:0:0:0:
256,120,14613,1,8,0:0:0:0:
340,172,14876,1,0,0:0:0:0:
256,232,15139,6,0,P|224:272|168:280,1,100
256,232,15666,2,0,P|288:272|344:280,2,100,8|0|0,0:0|0:0|0:0,0:0:0:0:
256,120,16455,2,0,L|256:4,1,100,0|2,0:0|0:0,0:0:0:0:
160,52,16981,2,0,P|128:88|136:140,1,100,0|4,0:0|0:0,0:0:0:0:
76,220,17508,5,0,0:0:0:0:
124,228,17639,1,0,0:0:0:0:
156,264,17771,2,0,L|196:364,1,100,8|0,0:0|0:0,0:0:0:0:
338,239,18297,2,0,P|304:275|256:280,1,100
248,180,18823,2,0,P|281:144|330:139,1,100,8|0,0:0|0:0,0:0:0:0:
420,180,19350,6,0,B|400:128|440:88|440:88|396:60,1,150
352,40,19876,2,0,B|296:80|264:16|204:56,1,150,8|0,0:0|0:0,0:0:0:0:
160,48,20402,1,0,0:0:0:0:
76,108,20666,1,0,0:0:0:0:
136,188,20929,1,2,0:0:0:0:
136,188,21192,1,0,0:0:0:0:
60,252,21455,6,0,P|92:296|140:300,1,100,8|0,0:0|0:0,0:0:0:0:
212,240,21981,2,0,B|256:216|256:216|300:240,1,100
377,301,22508,2,0,P|425:292|452:252,1,100
448,152,23034,1,8,0:0:0:0:
404,60,23297,1,0,0:0:0:0:
304,56,23560,6,0,B|304:120|360:140|360:140|320:180,1,150
276,188,24087,2,0,P|236:232|280:308,1,150,8|0,0:0|0:0,0:0:0:0:
320,308,24613,1,0,0:0:0:0:
388,232,24876,1,0,0:0:0:0:
364,136,25139,2,0,P|328:96|280:84,1,100,2|0,0:0|0:0,0:0:0:0:
148,136,25666,6,0,P|184:96|232:84,1,100
244,184,26192,1,8,0:0:0:0:
164,244,26455,1,0,0:0:0:0:
64,240,26718,2,0,P|76:304|164:336,1,150
192,316,27245,2,0,B|236:296|236:296|288:320,1,100,8|0,0:0|0:0,0:0:0:0:
382,221,27771,6,0,B|338:241|338:241|292:220,1,100
204,172,28297,1,8,0:0:0:0:
116,120,28560,1,0,0:0:0:0:
192,56,28823,2,0,L|304:32,1,100
344,120,29350,2,0,L|232:144,1,100,2|0,0:0|0:0,0:0:0:0:
176,212,29876,6,0,P|188:280|128:324,1,150
80,320,30402,2,0,P|28:272|52:196,1,150,8|0,0:0|0:0,0:0:0:0:
24,156,30929,2,0,L|44:52,1,100
144,60,31455,1,8,0:0:0:0:
208,136,31718,1,0,0:0:0:0:
264,52,31981,5,0,0:0:0:0:
264,52,32245,1,0,0:0:0:0:
364,56,32508,2,0,B|360:120|304:136|304:136|296:180,1,150
332,212,33034,2,0,P|352:260|328:312,2,100,0|0|2,0:0|0:0|0:0,0:0:0:0:
228,268,33823,1,0,0:0:0:0:
160,340,34087,6,0,P|120:300|184:188,1,200,4|8,0:0|0:0,0:0:0:0:
335,189,34876,1,0,0:0:0:0:
335,189,35139,2,0,P|398:258|352:340,1,200,0|8,0:0|0:0,0:0:0:0:
260,300,35929,1,0,0:0:0:0:
232,204,36192,6,0,P|228:152|260:116,1,100
348,72,36718,1,8,0:0:0:0:
257,117,36981,1,0,0:0:0:0:
164,72,37245,1,0,0:0:0:0:
256,116,37508,1,0,0:0:0:0:
232,204,37771,2,0,P|200:256|156:264,1,100,2|0,0:0|0:0,0:0:0:0:
68,284,38297,6,0,P|100:336|144:344,1,100
108,188,38823,2,0,P|60:168|12:192,1,100,8|0,0:0|0:0,0:0:0:0:
156,268,39350,1,0,0:0:0:0:
232,204,39613,1,0,0:0:0:0:
192,112,39876,2,0,B|176:60|176:60|200:16,1,100,8|0,0:0|0:0,0:0:0:0:
314,19,40402,6,0,B|336:60|336:60|320:112,1,100
280,204,40929,1,10,0:0:0:0:
356,268,41192,1,0,0:0:0:0:
444,224,41455,2,0,P|412:184|360:172,1,100
256,244,41981,2,0,P|250:292|274:335,1,100,2|0,0:0|0:0,0:0:0:0:
376,344,42508,6,0,B|324:328|324:328|240:352|240:352|172:336,1,200,0|8,0:0|0:0,0:0:0:0:
148,244,43297,1,0,0:0:0:0:
56,204,43560,2,0,P|76:168|136:144,1,100
148,244,44087,2,0,P|128:280|68:304,1,100,8|0,0:0|0:0,0:0:0:0:
56,204,44613,6,0,P|104:148|216:184,1,200,0|8,0:0|0:0,0:0:0:0:
252,272,45402,1,0,0:0:0:0:
308,356,45666,2,0,B|364:344|368:300|368:300|368:236,1,150
332,204,46192,2,0,B|332:142|332:142|336:98|392:86,1,150,2|0,0:0|0:0,0:0:0:0:
440,100,46718,5,0,0:0:0:0:
432,200,46981,1,0,0:0:0:0:
256,192,47245,12,0,48560,0:0:0:0:
336,64,48823,5,4,0:0:0:0:
188,44,49087,1,0,0:0:0:0:
176,192,49350,1,4,0:0:0:0:
324,212,49613,1,0,0:0:0:0:
308,360,49876,1,4,0:0:0:0:
160,340,50139,1,0,0:0:0:0:
80,280,50402,2,0,B|56:240|56:240|88:196,1,100,2|0,0:0|0:0,0:0:0:0:
160,128,50929,6,0,P|184:80|156:36,1,100,4|0,0:0|0:0,0:0:0:0:
72,84,51455,1,8,0:0:0:0:
160,128,51718,1,0,0:0:0:0:
244,184,51981,1,0,0:0:0:0:
176,260,52245,1,0,0:0:0:0:
216,352,52508,2,0,P|260:324|268:276,1,100,8|0,0:0|0:0,0:0:0:0:
263,95,53034,6,0,P|236:135|244:184,1,100
340,212,53560,1,8,0:0:0:0:
368,116,53823,1,0,0:0:0:0:
263,95,54087,2,0,L|160:68,1,100
168,220,54613,2,0,L|271:192,1,100,2|0,0:0|0:0,0:0:0:0:
348,248,55139,6,0,B|372:300|372:300|352:348,1,100
156,339,55666,2,0,B|140:300|140:300|164:248,1,100,8|0,0:0|0:0,0:0:0:0:
252,296,56192,1,0,0:0:0:0:
348,248,56455,1,0,0:0:0:0:
324,152,56718,1,8,0:0:0:0:
228,184,56981,1,0,0:0:0:0:
132,212,57245,6,0,P|128:160|168:116,1,100
236,68,57771,2,0,P|288:64|332:104,1,100,8|0,0:0|0:0,0:0:0:0:
396,164,58297,2,0,P|397:212|366:251,1,100
292,316,58823,1,2,0:0:0:0:
216,252,59087,1,0,0:0:0:0:
284,180,59350,5,0,0:0:0:0:
356,248,59613,1,0,0:0:0:0:
356,248,59876,2,0,P|408:280|456:272,1,100,8|0,0:0|0:0,0:0:0:0:
444,107,60402,2,0,P|395:106|356:136,1,100
292,216,60929,2,0,B|256:248|256:248|208:216,1,100,8|0,0:0|0:0,0:0:0:0:
67,107,61455,6,0,P|116:106|156:136,1,100
180,256,61981,1,8,0:0:0:0:
88,212,62245,1,0,0:0:0:0:
100,312,62508,2,0,P|136:352|188:352,1,100
88,212,63034,2,0,P|36:224|8:272,1,100,2|0,0:0|0:0,0:0:0:0:
180,256,63560,6,0,L|200:152,1,100
313,157,64087,2,0,L|332:256,1,100,8|0,0:0|0:0,0:0:0:0:
308,352,64613,2,0,L|204:352,1,100
208,252,65139,2,2,L|312:252,1,100,10|2,0:0|0:0,0:0:0:0:
368,172,65666,5,4,0:0:0:0:
332,80,65929,1,0,0:0:0:0:
180,80,66192,1,4,0:0:0:0:
144,172,66455,1,0,0:0:0:0:
256,240,66718,1,4,0:0:0:0:
304,48,67245,2,0,P|256:36|204:48,1,100,2|0,0:0|0:0,0:0:0:0:
140,116,67771,6,0,L|152:272,2,150,4|0|0,0:0|0:0|0:0,0:0:0:0:
232,80,68823,1,0,0:0:0:0:
252,180,69087,1,0,0:0:0:0:
164,232,69350,2,0,B|112:252|68:216,1,100,8|0,0:0|0:0,0:0:0:0:
44,120,69876,6,0,B|96:100|140:136,1,100
252,180,70402,2,0,P|292:216|344:220,1,100,8|0,0:0|0:0,0:0:0:0:
424,176,70929,1,0,0:0:0:0:
328,116,71192,1,0,0:0:0:0:
320,216,71455,2,0,L|312:328,1,100,2|0,0:0|0:0,0:0:0:0:
199,315,71981,6,0,L|188:152,2,150
100,328,73034,1,0,0:0:0:0:
88,228,73297,1,0,0:0:0:0:
176,184,73560,2,0,P|228:164|272:184,1,100,8|0,0:0|0:0,0:0:0:0:
328,260,74087,6,0,P|276:280|232:260,1,100
176,184,74613,2,0,L|172:84,1,100,8|0,0:0|0:0,0:0:0:0:
256,28,75139,1,0,0:0:0:0:
344,80,75402,1,0,0:0:0:0:
344,80,75666,2,0,L|340:196,1,100,2|0,0:0|0:0,0:0:0:0:
320,276,76192,6,0,P|360:308|416:308,1,100
192,276,76718,2,0,P|152:308|96:308,1,100,8|0,0:0|0:0,0:0:0:0:
124,212,77245,1,0,0:0:0:0:
204,152,77508,1,0,0:0:0:0:
304,152,77771,1,8,0:0:0:0:
388,212,78034,1,0,0:0:0:0:
304,152,78297,6,0,P|320:96|360:76,1,100
154,76,78823,2,0,P|194:104|204:152,1,100,8|0,0:0|0:0,0:0:0:0:
148,236,79350,1,0,0:0:0:0:
72,300,79613,1,0,0:0:0:0:
64,200,79876,2,0,P|100:160|148:152,1,100,2|0,0:0|0:0,0:0:0:0:
232,104,80402,6,0,P|236:164|216:204,1,100
320,339,80929,2,0,P|301:293|308:244,1,100,8|0,0:0|0:0,0:0:0:0:
412,164,81455,1,0,0:0:0:0:
416,264,81718,1,0,0:0:0:0:
320,280,81981,2,0,L|210:273,1,100,8|0,0:0|0:0,0:0:0:0:
202,81,82508,6,0,L|312:88,1,100
336,184,83034,1,4,0:0:0:0:
320,280,83297,1,0,0:0:0:0:
196,280,83560,1,4,0:0:0:0:
176,184,83823,1,0,0:0:0:0:
256,120,84087,2,0,B|260:156|260:156|252:200|252:200|256:224,1,100,2|4,0:0|0:0,0:0:0:0:
256,96,86192,5,8,0:0:0:0:
412,220,86718,2,0,P|436:272|372:336,1,150,4|0,0:0|0:0,0:0:0:0:
340,308,87245,2,0,P|292:284|252:312,1,100
87,249,87771,2,0,P|129:273|172:252,1,100
148,156,88297,1,8,0:0:0:0:
212,80,88560,1,0,0:0:0:0:
260,164,88823,6,0,B|280:236|228:248|256:316,1,150
296,324,89350,2,0,B|364:304|384:344|444:324,1,150,8|0,0:0|0:0,0:0:0:0:
468,280,89876,1,0,0:0:0:0:
432,180,90139,1,0,0:0:0:0:
340,144,90402,2,0,P|368:100|412:88,1,100,2|0,0:0|0:0,0:0:0:0:
504,124,90929,6,0,P|476:168|432:180,1,100
392,212,91323,1,0,0:0:0:0:
384,260,91455,2,0,P|347:293|295:293,1,100,8|0,0:0|0:0,0:0:0:0:
218,165,91981,2,0,P|267:167|304:200,1,100
220,256,92508,2,0,P|172:288|128:280,1,100,8|0,0:0|0:0,0:0:0:0:
48,232,93034,6,0,B|8:184|28:116|28:116|32:72,1,150
76,28,93560,2,0,B|116:76|96:144|96:144|92:188,1,150,8|0,0:0|0:0,0:0:0:0:
124,212,94087,1,0,0:0:0:0:
204,272,94350,1,0,0:0:0:0:
280,216,94613,1,2,0:0:0:0:
280,216,94876,1,0,0:0:0:0:
376,196,95139,6,0,P|368:140|276:112,1,150
240,108,95666,2,0,P|192:132|176:180,1,100,8|0,0:0|0:0,0:0:0:0:
184,272,96192,6,0,P|192:328|284:356,1,150
320,360,96718,2,0,P|368:336|384:288,1,100,8|0,0:0|0:0,0:0:0:0:
420,200,97245,5,0,0:0:0:0:
384,296,97508,1,0,0:0:0:0:
324,216,97771,1,8,0:0:0:0:
264,136,98034,1,0,0:0:0:0:
208,216,98297,2,0,P|188:264|140:288,1,100
52,268,98823,2,0,P|72:220|120:196,1,100,2|0,0:0|0:0,0:0:0:0:
180,124,99350,6,0,B|156:84|156:84|176:32,1,100
336,34,99876,2,0,B|356:84|356:84|332:124,1,100,8|0,0:0|0:0,0:0:0:0:
304,220,100402,2,0,P|352:232|396:200,1,100
332,124,100929,1,8,0:0:0:0:
304,220,101192,1,0,0:0:0:0:
308,320,101455,6,0,P|400:320|476:248,1,200,4|0,3:0|0:0,0:0:0:0:
432,160,102245,2,0,P|340:160|264:232,1,200
184,296,103034,1,2,0:0:0:0:
96,340,103297,1,0,0:0:0:0:
96,240,103560,6,0,B|92:192|128:156|128:156|184:152|204:84,1,200,4|8,0:0|0:0,0:0:0:0:
256,4,104350,1,0,0:0:0:0:
309,89,104613,2,0,B|328:152|384:156|384:156|420:192|416:240,1,200,0|8,0:0|0:0,0:0:0:0:
316,256,105402,1,0,0:0:0:0:
416,240,105666,5,0,0:0:0:0:
440,336,105929,1,0,0:0:0:0:
340,348,106192,1,8,0:0:0:0:
240,360,106455,1,0,0:0:0:0:
156,292,106718,2,0,L|168:188,1,100
160,92,107245,2,0,P|208:96|244:132,1,100,2|0,0:0|0:0,0:0:0:0:
356,292,107771,6,0,L|344:192,1,100
351,91,108297,2,0,P|303:96|268:131,1,100,8|0,0:0|0:0,0:0:0:0:
256,232,108823,1,0,0:0:0:0:
256,332,109087,1,0,0:0:0:0:
356,292,109350,2,0,L|464:268,1,100,8|0,0:0|0:0,0:0:0:0:
412,180,109876,6,0,B|360:172|360:172|320:200,1,100
224,220,110402,2,0,B|185:247|185:247|133:239,1,100,8|0,0:0|0:0,0:0:0:0:
172,120,110929,1,0,0:0:0:0:
204,24,111192,1,0,0:0:0:0:
308,24,111455,1,2,0:0:0:0:
340,120,111718,1,0,0:0:0:0:
352,220,111981,6,0,B|304:228|304:228|256:244|208:228|208:228|152:220,1,200,0|8,0:0|0:0,0:0:0:0:
256,144,112771,1,0,0:0:0:0:
204,228,113034,2,0,P|196:292|164:320,1,100
308,228,113560,2,0,P|316:292|348:320,1,100,8|0,0:0|0:0,0:0:0:0:
404,240,114087,6,0,B|408:156|352:120|352:120|352:88|332:48,1,200,0|8,0:0|0:0,0:0:0:0:
174,59,114876,1,0,0:0:0:0:
174,59,115139,2,0,B|160:88|160:120|160:120|104:156|108:240,1,200,0|2,0:0|0:0,0:0:0:0:
208,220,115929,1,0,0:0:0:0:
256,308,116192,5,8,3:0:0:0:
304,220,116455,1,0,0:0:0:0:
304,220,116587,1,0,0:0:0:0:
304,220,116718,1,8,3:0:0:0:
328,124,116981,1,0,0:0:0:0:
184,124,117245,1,8,3:0:0:0:
256,56,117508,1,0,0:0:0:0:
256,156,117771,1,8,0:0:0:0:
256,156,118034,1,0,3:0:0:0:
152,204,118297,6,0,P|136:152|148:96,1,100,4|0,0:0|0:0,0:0:0:0:
369,107,118823,2,0,P|375:156|360:204,1,100,4|0,0:0|0:0,0:0:0:0:
154,344,119350,2,0,P|138:292|150:236,1,100,4|0,0:0|0:0,0:0:0:0:
372,248,119876,2,0,P|378:297|362:344,1,100,2|0,0:0|0:0,0:0:0:0:
276,292,120402,5,4,0:0:0:0:
288,192,120666,1,0,0:0:0:0:
376,144,120929,1,8,0:0:0:0:
468,188,121192,1,0,0:0:0:0:
376,144,121455,2,0,L|336:48,1,100
174,51,121981,2,0,L|136:144,1,100,8|0,0:0|0:0,0:0:0:0:
152,244,122508,6,0,P|168:292|136:344,1,100
60,284,123034,1,8,0:0:0:0:
152,244,123297,1,0,0:0:0:0:
152,144,123560,2,0,P|208:152|240:192,1,100
256,280,124087,1,2,0:0:0:0:
360,144,124613,6,0,P|304:152|272:192,1,100
280,284,125139,2,0,P|315:318|364:322,1,100,8|0,0:0|0:0,0:0:0:0:
416,228,125666,1,0,0:0:0:0:
360,144,125929,1,0,0:0:0:0:
264,120,126192,1,8,0:0:0:0:
204,200,126455,1,0,0:0:0:0:
164,292,126718,6,0,P|112:320|64:304,1,100
72,160,127245,2,0,P|120:152|161:179,1,100,8|0,0:0|0:0,0:0:0:0:
240,240,127771,2,0,P|280:272|332:264,1,100
326,116,128297,2,0,P|277:112|240:144,2,100,2|0|0,0:0|0:0|0:0,0:0:0:0:
392,192,129087,5,0,0:0:0:0:
424,96,129350,2,0,P|408:44|364:20,1,100,8|0,0:0|0:0,0:0:0:0:
392,192,129876,2,0,P|428:236|472:236,1,100
508,144,130402,1,8,0:0:0:0:
424,96,130666,1,0,0:0:0:0:
324,112,130929,5,0,0:0:0:0:
288,204,131192,1,0,0:0:0:0:
368,264,131455,2,0,B|336:308|336:308|288:320,1,100,8|0,0:0|0:0,0:0:0:0:
216,188,131981,2,0,B|248:144|248:144|296:132,1,100
144,264,132508,2,0,B|176:308|176:308|224:320,1,100,2|0,0:0|0:0,0:0:0:0:
296,188,133034,6,0,B|264:144|264:144|216:132,1,100
316,276,133560,1,8,0:0:0:0:
416,292,133823,1,0,0:0:0:0:
496,232,134087,1,0,0:0:0:0:
472,136,134350,1,0,0:0:0:0:
392,76,134613,2,0,L|380:184,1,100,8|0,0:0|0:0,0:0:0:0:
131,175,135139,6,0,L|120:76,1,100,4|0,0:0|0:0,0:0:0:0:
256,216,135666,2,0,L|256:328,2,100,4|0|4,0:0|0:0|0:0,0:0:0:0:
256,192,151981,12,4,153560,0:0:0:0:
380,124,154087,6,0,P|400:168|380:216,1,100,4|0,0:0|0:0,0:0:0:0:
304,276,154613,1,0,0:0:0:0:
256,296,154745,1,0,0:0:0:0:
208,276,154876,1,0,0:0:0:0:
129,213,155139,2,0,P|111:168|132:124,2,100,0|0|8,0:0|0:0|0:0,0:0:0:0:
248,52,156192,6,0,B|244:100|244:100|264:148|264:148|260:200,1,150
188,224,156718,2,0,P|256:200|332:228,1,150,8|0,0:0|0:0,0:0:0:0:
332,276,157245,1,0,0:0:0:0:
256,340,157508,1,0,0:0:0:0:
184,272,157771,1,2,0:0:0:0:
256,204,158034,1,0,0:0:0:0:
348,168,158297,6,0,P|352:232|324:264,1,100
180,258,158823,2,0,P|155:216|164:168,1,100,8|0,0:0|0:0,0:0:0:0:
171,67,159350,2,0,P|216:89|245:129,1,100
245,317,159876,2,0,P|200:296|171:255,1,100,8|0,0:0|0:0,0:0:0:0:
340,255,160402,6,0,P|311:296|266:317,1,100
266,129,160929,2,0,P|295:89|340:68,1,100,8|0,0:0|0:0,0:0:0:0:
416,192,161455,1,0,0:0:0:0:
340,256,161718,1,0,0:0:0:0:
306,161,161981,1,2,0:0:0:0:
300,60,162245,1,0,0:0:0:0:
212,60,162508,5,0,0:0:0:0:
206,161,162771,1,0,0:0:0:0:
172,256,163034,1,8,0:0:0:0:
172,256,163166,1,0,0:0:0:0:
172,256,163297,1,0,0:0:0:0:
72,256,163560,2,0,P|80:200|120:168,1,100
206,161,164087,2,0,P|248:184|268:232,1,100,8|0,0:0|0:0,0:0:0:0:
244,328,164613,6,0,P|308:332|364:260,1,150
384,228,165139,2,0,B|360:172|400:128|400:128|360:108,1,150,8|0,0:0|0:0,0:0:0:0:
316,84,165666,1,0,0:0:0:0:
256,164,165929,1,0,0:0:0:0:
196,84,166192,1,2,0:0:0:0:
196,84,166455,1,0,0:0:0:0:
96,68,166718,6,0,B|92:120|92:120|124:164,1,100
92,256,167245,2,0,B|144:260|144:260|188:228,1,100,8|0,0:0|0:0,0:0:0:0:
256,164,167771,1,0,0:0:0:0:
356,156,168034,1,0,0:0:0:0:
448,196,168297,2,0,P|416:240|368:248,1,100,8|0,0:0|0:0,0:0:0:0:
364,60,168823,6,0,P|411:72|438:112,2,100
264,64,169613,1,0,0:0:0:0:
216,76,169745,1,0,0:0:0:0:
168,92,169876,2,0,L|68:116,1,100
70,268,170402,2,0,L|168:292,1,100,2|0,0:0|0:0,0:0:0:0:
368,312,170929,6,0,P|388:264|368:220,1,100,4|0,0:0|0:0,0:0:0:0:
144,72,171455,2,0,P|124:120|144:164,1,100
256,256,171981,1,0,0:0:0:0:
328,192,172245,1,0,0:0:0:0:
256,124,172508,1,8,0:0:0:0:
180,188,172771,1,0,0:0:0:0:
328,92,173034,6,0,L|328:192,1,100
180,188,173560,2,0,L|180:88,1,100,8|0,0:0|0:0,0:0:0:0:
256,24,174087,1,0,0:0:0:0:
256,284,174613,1,2,0:0:0:0:
452,316,175139,6,0,P|424:248|392:240,1,100
312,200,175666,1,8,0:0:0:0:
256,284,175929,1,0,0:0:0:0:
320,360,176192,2,0,P|352:320|352:272,1,100
159,273,176718,2,0,P|160:322|192:360,1,100,8|0,0:0|0:0,0:0:0:0:
176,176,177245,6,0,P|116:180|84:212,1,100
64,300,177771,1,8,0:0:0:0:
160,272,178034,1,0,0:0:0:0:
256,216,178297,2,0,P|268:168|244:116,1,100,8|4,3:0|3:0,0:0:0:0:
168,76,178823,1,2,0:0:0:0:
176,176,179087,1,0,0:0:0:0:
256,236,179350,5,0,0:0:0:0:
464,208,179876,2,0,P|416:228|368:208,1,100,8|0,0:0|0:0,0:0:0:0:
212,80,180402,2,0,P|256:60|300:80,1,100
139,212,180929,2,0,P|92:227|48:208,1,100,8|0,0:0|0:0,0:0:0:0:
212,80,181455,6,0,P|256:60|300:80,1,100
328,176,181981,1,8,0:0:0:0:
316,276,182245,1,0,0:0:0:0:
184,176,182508,1,0,0:0:0:0:
196,276,182771,1,0,0:0:0:0:
316,276,183034,1,2,0:0:0:0:
196,276,183297,1,0,0:0:0:0:
328,176,183560,5,0,0:0:0:0:
184,176,183823,1,0,0:0:0:0:
160,80,184087,1,8,0:0:0:0:
352,80,184350,1,0,0:0:0:0:
328,176,184613,1,0,0:0:0:0:
184,176,184876,1,0,0:0:0:0:
256,108,185139,2,0,L|256:8,1,100,8|0,0:0|0:0,0:0:0:0:
428,160,185666,6,0,P|412:224|384:252,1,100,4|0,0:0|0:0,0:0:0:0:
122,247,186192,2,0,P|91:208|84:159,1,100,4|0,0:0|0:0,0:0:0:0:
208,64,186718,2,0,B|256:52|256:52|308:64,2,100,4|0|2,0:0|0:0|0:0,0:0:0:0:
256,192,187771,12,4,191455,0:0:0:0:
