osu file format v14

[General]
AudioFilename: FIESTAR() _ One More( ).mp3
AudioLeadIn: 0
PreviewTime: 67630
Countdown: 0
SampleSet: Soft
StackLeniency: 0.7
Mode: 0
LetterboxInBreaks: 0
WidescreenStoryboard: 0

[Editor]
DistanceSpacing: 1.2
BeatDivisor: 2
GridSize: 4
TimelineZoom: 1.100003

[Metadata]
Title:One More
TitleUnicode:하나 더
Artist:FIESTAR
ArtistUnicode:피에스타
Creator:Pink Agate
Version:Easy
Source:
Tags:kpop k-pop LOEN Entertainment 콜라보따리 재이 린지 예지 혜미 차오루
BeatmapID:656519
BeatmapSetID:195781

[Difficulty]
HPDrainRate:1
CircleSize:3
OverallDifficulty:1
ApproachRate:2
SliderMultiplier:1
SliderTickRate:2

[Events]
//Background and Video events
Video,-186,"videoplayback.av.flv"
0,0,"BG.jpg",0,0
//Break Periods
2,84604,93579
2,137245,150421
//Storyboard Layer 0 (Background)
//Storyboard Layer 1 (Fail)
//Storyboard Layer 2 (Pass)
//Storyboard Layer 3 (Foreground)
//Storyboard Sound Samples

[TimingPoints]
8824,526.315789473684,4,2,0,50,1,0
31981,-100,4,2,0,20,0,0
33560,-100,4,2,0,50,0,0
63560,-100,4,2,0,50,0,1
67508,-100,4,2,0,50,0,0
133034,-100,4,2,0,50,0,1
136192,-100,4,2,0,50,0,0
183560,-100,4,2,0,50,0,1
185666,-100,4,2,0,65,0,1
187771,-100,4,2,0,50,0,0

[Colours]
Combo1 : 249,138,155
Combo2 : 248,184,14
Combo3 : 202,134,191

[HitObjects]
32,228,8823,6,0,P|76:288|184:256,1,200
188,136,10402,1,8,0:0:0:0:
288,208,10929,6,0,L|284:312,2,100,0|8|0,0:0|0:0|0:0,0:0:0:0:
248,96,12508,1,8,0:0:0:0:
364,120,13034,6,0,P|368:64|328:16,2,100,0|8|0,0:0|0:0|0:0,0:0:0:0:
344,240,14613,1,8,0:0:0:0:
216,216,15139,6,0,L|96:216,2,100,0|8|0,0:0|0:0|0:0,0:0:0:0:
308,140,16718,1,10,0:0:0:0:
256,32,17245,6,0,P|168:76|192:172,1,200,4|0,0:0|0:0,0:0:0:0:
144,280,18823,1,8,0:0:0:0:
264,272,19350,6,0,L|272:172,2,100,0|8|0,0:0|0:0|0:0,0:0:0:0:
384,284,20929,1,10,0:0:0:0:
476,208,21455,6,0,P|432:156|312:184,1,200
200,144,23034,1,8,0:0:0:0:
108,220,23560,6,0,L|120:328,2,100,0|8|0,0:0|0:0|0:0,0:0:0:0:
132,104,25139,1,10,0:0:0:0:
200,204,25666,6,0,P|249:208|291:182,1,100
232,80,26718,2,0,P|257:38|312:26,2,100,0|8|0,0:0|0:0|0:0,0:0:0:0:
236,200,28297,2,0,L|248:316,2,100,8|0|2,0:0|0:0|0:0,0:0:0:0:
216,80,29876,5,0,0:0:0:0:
324,136,30402,1,8,0:0:0:0:
416,212,30929,6,0,P|456:112|392:52,1,200
288,96,32508,1,0,0:0:0:0:
172,124,33034,1,0,0:0:0:0:
252,212,33560,1,2,0:0:0:0:
172,304,34087,6,0,P|256:348|352:304,1,200,4|0,0:0|0:0,0:0:0:0:
372,192,35666,1,8,0:0:0:0:
304,92,36192,6,0,P|344:68|416:76,2,100,0|8|0,0:0|0:0|0:0,0:0:0:0:
192,140,37771,1,8,0:0:0:0:
120,236,38297,6,0,L|100:344,2,100,0|8|0,0:0|0:0|0:0,0:0:0:0:
228,288,39876,1,8,0:0:0:0:
312,204,40402,5,0,0:0:0:0:
404,284,40929,1,8,0:0:0:0:
384,164,41455,2,0,P|296:124|228:204,1,200
252,300,43034,5,8,0:0:0:0:
368,336,43560,2,0,P|365:217|296:188,1,200
184,164,45139,5,8,0:0:0:0:
168,284,45666,2,0,P|216:280|260:248,2,100,0|10|0,0:0|0:0|0:0,0:0:0:0:
140,168,47245,2,0,P|156:40|216:36,1,200,8|0,0:0|0:0,0:0:0:0:
304,96,48823,5,4,0:0:0:0:
256,204,49350,1,4,0:0:0:0:
372,236,49876,1,4,0:0:0:0:
428,132,50402,1,2,0:0:0:0:
468,244,50929,6,0,L|464:348,2,100,4|8|0,0:0|0:0|0:0,0:0:0:0:
348,212,52508,1,8,0:0:0:0:
308,324,53034,5,0,0:0:0:0:
188,340,53560,1,8,0:0:0:0:
116,244,54087,1,0,0:0:0:0:
188,148,54613,1,10,0:0:0:0:
268,56,55139,6,0,P|308:92|296:156,1,100,0|8,0:0|0:0,0:0:0:0:
312,240,56192,2,0,L|300:344,1,100,0|8,0:0|0:0,0:0:0:0:
184,304,57245,5,0,0:0:0:0:
68,332,57771,1,8,0:0:0:0:
28,220,58297,1,0,0:0:0:0:
112,132,58823,2,0,L|104:16,2,100,10|0|0,0:0|0:0|0:0,0:0:0:0:
120,252,60402,5,0,0:0:0:0:
240,240,60929,2,0,P|288:240|328:280,2,100,8|0|0,0:0|0:0|0:0,0:0:0:0:
172,340,62508,1,0,0:0:0:0:
56,312,63034,1,10,0:0:0:0:
72,192,63560,6,0,B|59:149|78:98|78:98|137:102|152:52|152:52|213:47|253:85,1,300,8|8,3:0|3:0,3:0:0:0:
368,128,65666,6,0,P|348:180|300:208,2,100,4|4|4,0:0|0:0|0:0,0:0:0:0:
192,292,67771,6,0,P|220:336|356:312,1,200,4|0,0:0|0:0,0:0:0:0:
376,204,69350,1,8,0:0:0:0:
376,84,69876,6,0,L|496:68,2,100,0|8|0,0:0|0:0|0:0,0:0:0:0:
256,84,71455,1,10,0:0:0:0:
160,156,71981,6,0,P|224:212|340:172,1,200
400,92,73560,1,8,0:0:0:0:
284,120,74087,6,0,P|232:202|280:288,1,200
372,212,75666,1,10,0:0:0:0:
492,200,76192,6,0,P|500:276|380:320,1,200
300,264,77771,1,8,0:0:0:0:
188,224,78297,6,0,P|176:272|200:332,2,100,0|8|0,0:0|0:0|0:0,0:0:0:0:
164,104,79876,1,10,0:0:0:0:
280,148,80402,6,0,P|375:142|415:55,1,200
296,40,81981,1,8,0:0:0:0:
280,148,82508,6,0,P|296:232|204:312,1,200
180,200,84087,1,10,0:0:0:0:
256,316,95139,5,0,0:0:0:0:
256,196,95666,1,8,0:0:0:0:
340,112,96192,2,0,P|256:40|164:128,1,250
168,176,97771,5,8,0:0:0:0:
256,260,98297,1,0,0:0:0:0:
340,172,98823,1,10,0:0:0:0:
256,192,99350,12,0,101455,0:0:0:0:
420,96,103034,6,0,L|416:160,1,50,10|0,0:0|0:0,0:0:0:0:
396,204,103560,6,0,P|372:268|244:256,1,200
156,204,105139,1,8,0:0:0:0:
260,144,105666,6,0,L|268:32,1,100,0|8,0:0|0:0,0:0:0:0:
148,44,106718,2,0,L|140:143,1,100,0|10,0:0|0:0,0:0:0:0:
64,236,107771,6,0,P|80:292|216:292,1,200
284,216,109350,1,8,0:0:0:0:
164,196,109876,5,0,0:0:0:0:
204,304,110402,1,8,0:0:0:0:
308,360,110929,2,0,P|332:312|316:256,1,100
312,148,111981,6,0,P|350:75|465:97,1,200
416,200,113560,1,0,0:0:0:0:
452,316,114087,6,0,P|352:320|304:240,1,200
292,124,115666,1,10,0:0:0:0:
172,104,116192,6,8,P|180:56|220:28,2,100
208,220,117771,1,0,0:0:0:0:
92,256,118297,5,4,0:0:0:0:
108,136,118823,1,4,0:0:0:0:
220,100,119350,1,4,0:0:0:0:
312,176,119876,1,2,0:0:0:0:
380,276,120402,6,0,P|312:312|220:244,1,200,4|0,0:0|0:0,0:0:0:0:
204,128,121981,1,8,0:0:0:0:
324,112,122508,6,0,L|436:100,2,100,0|8|0,0:0|0:0|0:0,0:0:0:0:
204,128,124087,1,10,0:0:0:0:
92,108,124613,6,0,P|84:164|120:204,1,100,0|8,0:0|0:0,0:0:0:0:
220,236,125666,2,0,L|216:340,2,100,0|8|0,0:0|0:0|0:0,0:0:0:0:
208,116,127245,5,8,0:0:0:0:
320,60,127771,1,0,0:0:0:0:
392,156,128297,1,10,0:0:0:0:
324,256,128823,5,0,0:0:0:0:
252,352,129350,1,8,0:0:0:0:
192,248,129876,2,0,P|196:168|300:124,1,200
416,132,131455,5,8,0:0:0:0:
348,32,131981,1,0,0:0:0:0:
272,124,132508,1,10,0:0:0:0:
344,220,133034,2,0,B|344:276|308:312|308:312|252:276|216:324|216:324|168:308|144:256,1,300,0|8,0:0|0:0,0:0:0:0:
256,192,135139,12,0,136718,0:0:0:0:
256,192,151981,12,12,154087,0:0:0:0:
416,184,155139,6,0,L|388:300,1,100,0|8,0:0|0:0,0:0:0:0:
272,272,156192,6,0,P|184:320|104:264,1,200
156,164,157771,1,10,0:0:0:0:
252,92,158297,6,0,L|364:100,2,100,0|8|0,0:0|0:0|0:0,0:0:0:0:
132,68,159876,1,8,0:0:0:0:
68,168,160402,2,0,P|132:196|248:116,1,200
284,248,161981,1,10,0:0:0:0:
240,360,162508,6,0,P|164:324|172:212,1,200,4|0,0:0|0:0,0:0:0:0:
216,112,164087,1,8,0:0:0:0:
332,80,164613,6,0,P|372:120|372:176,2,100,0|8|0,0:0|0:0|0:0,0:0:0:0:
212,64,166192,1,10,0:0:0:0:
92,80,166718,6,0,P|116:156|228:180,1,200
212,64,168297,1,8,0:0:0:0:
324,108,168823,2,0,P|360:188|328:244,1,150
288,276,169876,2,0,P|352:248|424:280,1,150
468,316,170929,5,4,0:0:0:0:
356,360,171455,1,8,0:0:0:0:
244,320,171981,1,0,0:0:0:0:
136,272,172508,1,0,0:0:0:0:
160,156,173034,2,0,L|152:56,2,100,0|8|0,0:0|0:0|0:0,0:0:0:0:
136,272,174613,1,10,0:0:0:0:
256,260,175139,6,0,L|372:252,1,100,0|8,0:0|0:0,0:0:0:0:
360,132,176192,2,0,L|244:124,1,100,0|8,0:0|0:0,0:0:0:0:
156,64,177245,6,0,P|136:104|148:164,1,100,0|8,0:0|0:0,0:0:0:0:
172,276,178297,2,0,P|144:324|92:340,1,100,0|10,0:0|0:0,0:0:0:0:
36,240,179350,5,0,0:0:0:0:
108,144,179876,2,0,P|168:100|276:148,1,200,8|8,0:0|0:0,0:0:0:0:
196,236,181455,5,0,0:0:0:0:
308,196,181981,1,8,0:0:0:0:
236,100,182508,2,0,P|192:80|136:96,1,100
56,172,183560,6,0,B|62:220|114:240|150:212|150:212|194:200|222:236,1,200
256,344,185139,1,8,0:0:0:0:
368,300,185666,6,0,P|336:244|292:228,2,100,4|4|4,0:0|0:0|0:0,0:0:0:0:
256,344,187245,1,10,0:0:0:0:
256,192,187771,12,4,191455,0:0:0:0:
