osu file format v5

[General]
AudioFilename: FF7 Galvanized Boss Remix.mp3
AudioLeadIn: 0
PreviewTime: -1
Countdown: 3
SampleSet: None
StackLeniency: 0.7
Mode: 0
LetterboxInBreaks: 1
SkinPreference:Default

[Metadata]
Title:FF7 Galvanized Boss Music Remix
Artist:
Creator:marr
Version:Insane
Source:
Tags:

[Difficulty]
HPDrainRate:9
CircleSize:5
OverallDifficulty:7
SliderMultiplier:1.4
SliderTickRate:1

[Events]
//Background and Video events
//Break Periods
2,25383,36588
2,75657,87471
2,136687,141502
//Storyboard Layer 0 (Background)
//Storyboard Layer 1 (Failing)
//Storyboard Layer 2 (Passing)
//Storyboard Layer 3 (Foreground)
//Storyboard Sound Samples
//Background Colour Transformations
3,100,163,162,255

[TimingPoints]
0,1000,4,0,0,100,1

[HitObjects]
255,192,3000,5,2
255,193,6000,1,2
256,192,9000,5,0
256,192,9820,1,2
160,192,12029,5,2
192,160,12216,5,2
256,128,12424,5,2
320,160,12770,5,2
320,192,12968,5,2
256,224,13192,5,2
224,192,13592,5,2
192,160,13779,5,2
192,128,13981,5,2
256,96,14216,5,2
352,96,14515,5,2
352,128,14685,5,2
352,160,14925,5,2
352,192,15085,5,2
320,192,15240,1,2
288,224,15411,1,2
192,224,15790,1,2
160,224,15955,1,2
96,192,16147,1,2
128,128,16499,1,2
128,128,16664,1,2
128,128,16835,1,2
128,128,17000,1,2
128,128,17443,1,2
128,128,17625,1,2
128,128,17779,1,2
224,128,18041,1,2
256,128,18227,1,2
320,160,18457,1,2
320,224,18835,1,2
320,256,19054,1,2
288,256,19268,1,2
192,256,19609,1,2
192,256,19758,1,2
192,256,19913,1,2
192,256,20116,1,2
192,256,20425,1,2
192,256,20612,1,2
192,256,20734,1,2
320,160,20996,1,2
320,160,21225,1,2
352,224,21433,1,2
352,224,21833,1,2
320,256,22004,1,2
320,256,22180,1,2
224,224,22505,1,2
256,128,22927,1,2
160,128,23316,1,2
384,160,23636,1,2
352,192,23946,1,2
256,192,37638,5,2
32,352,38000,2,2,B|512:352|512:0|0:32|0:64|0:64|-32:160,3,840
123,189,58131,5,2
442,192,58931,1,2
261,50,61129,1,2
251,269,61977,1,2
155,188,64890,5,2
199,192,65562,1,2
436,193,67888,1,2
400,203,68720,1,2
267,40,71702,1,2
259,84,72464,1,2
255,340,74828,1,2
258,270,75457,1,2
104,216,88521,5,2
143,218,88745,5,2
204,219,88974,1,2
244,220,89161,1,2
244,220,89305,1,2
280,142,89620,1,2
214,121,89780,1,2
128,121,89998,1,2
117,164,90217,1,2
119,212,90425,1,2
152,248,90622,1,2
216,270,90831,1,2
272,283,91188,1,2
331,271,91572,1,2
344,229,91780,1,2
347,180,91972,1,2
339,149,92132,1,2
297,123,92287,1,2
233,105,92644,1,2
188,122,92836,1,2
152,159,93002,5,2
154,245,93402,1,2
232,294,93828,1,2
344,312,94522,1,2
361,266,94719,1,2
372,193,94943,1,2
367,157,95130,1,2
338,130,95295,1,2
283,96,95658,1,2
211,101,95839,1,2
280,151,96111,1,2
308,197,96298,1,2
314,229,96448,1,2
280,248,96608,1,2
223,256,96773,1,2
161,247,97120,1,2
154,172,97546,1,2
196,151,97893,1,2
247,120,98096,1,2
296,120,98299,1,2
329,172,98683,1,2
339,198,98859,1,2
360,221,99056,1,2
424,218,99285,1,2
422,173,99451,1,2
422,173,99643,1,2
398,104,99830,1,2
319,81,100507,5,2
265,89,100912,5,2
200,99,101088,5,2
155,118,101254,5,2
116,153,101681,5,2
106,182,101846,5,2
105,216,102033,5,2
108,252,102267,5,2
120,276,102459,1,2
120,276,102651,1,2
182,310,102827,1,2
208,318,103158,1,2
261,321,103532,1,2
316,321,103878,1,2
366,311,104086,1,2
366,311,104284,1,2
399,276,104652,1,2
399,276,104849,1,2
334,249,105036,1,2
295,264,105222,1,2
254,266,105399,1,2
179,257,105591,1,2
134,236,105788,1,2
164,187,106556,1,2
227,172,106945,1,2
258,168,107127,1,2
295,172,107298,1,2
349,184,107650,1,2
349,184,107852,1,2
363,144,108071,1,2
330,112,108263,1,2
277,94,108455,1,2
215,88,108636,1,2
175,98,108812,1,2
136,143,109175,1,2
116,206,109559,1,2
130,243,109922,1,2
172,279,110093,1,2
207,294,110279,1,2
274,300,110663,1,2
332,307,111080,1,2
377,276,111416,1,2
380,217,111789,1,2
85,225,112499,1,2
423,235,114045,5,2
85,156,115571,5,2
421,156,116313,5,2
100,215,117038,5,2
408,232,117854,5,2
352,176,118590,5,2
231,156,118804,5,2
148,159,118969,5,2
116,196,119278,5,2
121,232,119454,5,2
147,259,119678,5,2
213,280,120020,1,2
257,285,120249,1,2
257,285,120415,1,2
257,285,120580,1,2
257,285,120745,1,2
257,285,120937,1,2
257,285,121113,1,2
257,285,121305,1,2
257,285,121540,1,2
324,292,121690,1,2
372,284,121908,1,2
372,243,122276,1,2
343,195,122516,1,2
279,157,122703,1,2
204,148,123060,1,2
153,150,123258,1,2
153,150,123434,5,2
153,150,123605,5,2
153,150,123823,5,2
153,150,124010,5,2
153,150,124223,5,2
126,190,124634,5,2
126,190,124794,5,2
123,226,124959,5,2
123,226,125290,5,2
134,269,125461,5,2
134,269,125642,5,2
217,284,126032,1,2
217,284,126218,1,2
217,284,126368,1,2
217,284,126581,1,2
217,284,126938,1,2
217,284,127136,5,2
217,284,127344,5,2
286,286,127563,5,2
286,286,127717,5,2
358,283,127936,5,2
347,234,128293,5,2
332,179,128517,5,2
332,179,128704,5,2
224,137,129040,5,2
224,137,129243,5,2
224,137,129398,5,2
224,137,129675,5,2
224,137,129926,5,2
224,137,130166,5,2
224,137,130331,5,2
224,137,130576,5,2
199,186,130774,5,2
191,220,130955,5,2
255,267,131291,5,2
255,267,131478,5,2
341,265,131654,5,2
360,232,132043,1,2
341,170,132251,1,2
332,138,132411,1,2
332,138,132641,1,2
332,138,132924,1,2
332,138,133110,1,2
332,138,133324,1,2
278,133,133564,1,2
278,133,133750,5,2
213,144,133926,5,2
192,186,134289,5,2
179,229,134471,5,2
179,229,134663,5,2
248,241,135047,5,2
360,229,135436,5,2
336,133,135756,5,2
224,120,136130,5,2
121,168,136487,5,2
156,204,142552,1,2
234,201,142883,1,2
309,216,143608,1,2
309,216,143768,1,2
304,83,143902,1,2
219,108,144371,5,2
199,177,144766,5,2
261,213,145129,5,2
261,213,145273,5,2
261,213,145406,5,2
261,213,145529,5,2
261,213,145779,5,2
261,213,145913,5,2
333,232,146659,5,2
333,232,146771,5,2
333,232,146915,5,2
333,232,147044,5,2
202,215,148505,1,2
202,215,148809,1,2
202,215,148964,1,2
252,216,149663,5,2
296,211,149828,5,2
296,211,149972,5,2
323,199,150404,5,2
323,199,150778,5,2
215,176,151135,5,2
215,176,151284,5,2
215,176,151530,5,2
215,176,151823,5,2
215,176,151935,5,2
215,176,152698,1,2
215,176,152831,1,2
215,176,152991,1,2
263,192,154533,1,2
263,192,154784,1,2
263,192,154933,1,2
202,203,155637,1,2
202,203,155765,1,2
202,203,155904,1,2
322,224,156395,1,2
322,224,156725,1,2
322,224,157125,1,2
322,224,157392,1,2
308,142,157664,1,2
308,142,157936,5,2
308,142,158683,5,2
308,142,158870,5,2
308,142,158998,5,2
182,185,160587,1,2
182,185,160849,1,2
182,185,160977,1,2
271,196,161553,1,2
271,196,161692,1,2
271,196,161825,1,2
271,196,161964,5,2
271,196,162417,5,2
271,196,162758,5,2
271,196,163158,5,2
271,196,163297,1,2
404,196,163623,1,2
252,168,164012,1,2
180,179,164647,1,2
180,179,164769,1,2
180,179,164919,1,2
180,179,165036,1,2
306,195,166551,5,2
306,195,166930,5,2
217,179,167602,5,2
217,179,167735,5,2
217,179,167879,5,2
278,172,168375,1,2
217,179,168808,1,2
292,196,169208,1,2
217,179,169554,1,2
248,170,169896,1,2
255,209,170280,1,2
299,208,170653,1,2
226,188,171027,1,2
275,148,171411,1,2
267,209,171773,1,2
301,209,172152,1,2
212,184,172536,1,2
259,135,172888,1,2
259,221,173256,1,2
308,211,173656,1,2
224,177,174014,1,2
262,129,174345,1,2
245,228,174803,1,2
311,202,175193,1,2
211,166,175534,1,2
258,114,175881,5,2
323,201,176286,1,2
238,201,176622,1,2
204,151,177001,1,2
272,96,177348,1,2
321,216,177780,1,2
228,222,178148,1,2
199,143,178516,1,2
257,138,178884,1,2
294,232,179279,5,2
228,228,179647,5,2
207,149,180015,5,2
260,148,180399,5,2
320,177,180815,5,2
319,222,181156,5,2
253,247,181525,5,2
206,240,181855,5,2
185,176,182309,1,2
192,142,182655,1,2
213,96,183023,1,2
241,84,183397,1,2
241,84,183781,1,2
300,86,184160,1,2
344,104,184570,1,2
363,122,184944,1,2
393,159,185291,1,2
394,198,185680,1,2
394,198,186011,1,2
371,242,186427,1,2
336,259,186805,5,2
305,272,187179,5,2
268,275,187504,5,2
268,275,187680,5,2
224,270,187840,5,2
188,266,188022,5,2
188,266,188134,5,2
138,240,188299,5,2
104,217,188624,5,2
104,217,189046,1,2
126,192,189211,1,2
126,192,189387,1,2
176,184,189542,1,2
176,184,189707,1,2
178,222,189878,1,2
193,253,190086,5,2
231,260,190331,5,2
258,230,190593,5,2
243,177,191084,5,2
184,153,191686,5,2
237,120,192391,5,2
319,173,193169,1,2
256,214,193511,1,2
172,208,193905,1,2
292,223,194279,1,2
292,223,194620,1,2
292,223,194754,1,2
292,223,194882,1,2
292,223,195010,1,2
292,223,195367,1,2
292,223,195522,1,2
292,223,195842,5,2
292,223,196135,1,2
292,223,196295,1,2
292,223,196471,1,2
292,223,196637,1,2
292,223,196802,1,2
292,223,196957,1,2
292,223,197127,1,2
292,223,197293,1,2
292,223,197463,1,2
292,223,197607,1,2
292,223,197751,1,2
292,223,198056,5,2
292,223,198456,5,2
