osu file format v10

[General]
AudioFilename: 05.Plan Doll~1.mp3
AudioLeadIn: 0
PreviewTime: 73178
Countdown: 0
SampleSet: Soft
StackLeniency: 0.7
Mode: 0
LetterboxInBreaks: 1

[Editor]
Bookmarks: 15336,29149,42962,56775,72315,87854,101667,115480,129293,144833,160372,174185,187998,201811,215624,229437,243250
DistanceSpacing: 1
BeatDivisor: 4
GridSize: 4

[Metadata]
Title:Plan Doll
TitleUnicode:
Artist:FELT(vo.maika)
ArtistUnicode:
Creator:Gundam
Version:Hard
Source:touhou
Tags:maihana alice Margatroid eikkaleyd
BeatmapID:158338
BeatmapSetID:51698

[Difficulty]
HPDrainRate:6
CircleSize:4
OverallDifficulty:4
ApproachRate:7
SliderMultiplier:1.7
SliderTickRate:1

[Events]
//Background and Video events
0,0,"BG.jpg"
//Break Periods
2,101875,114587
2,174176,186242
//Storyboard Layer 0 (Background)
//Storyboard Layer 1 (Fail)
//Storyboard Layer 2 (Pass)
//Storyboard Layer 3 (Foreground)
//Storyboard Sound Samples
//Background Colour Transformations
3,100,163,162,255

[TimingPoints]
15344,431.654676258993,4,2,1,30,1,0
15991,-200,4,2,1,30,0,0
16423,-100,4,2,1,30,0,0
17718,-200,4,2,1,30,0,0
18149,-100,4,2,1,30,0,0
21171,-200,4,2,1,30,0,0
21602,-100,4,2,1,30,0,0
22897,-200,4,2,1,30,0,0
23329,-100,4,2,1,30,0,0
25716,431.654676258993,4,2,1,30,1,0
32622,-200,4,2,1,30,0,0
33053,-100,4,2,1,30,0,0
37586,-200,4,2,1,30,0,0
38017,-100,4,2,1,30,0,0
42109,416.666666666667,4,2,1,50,1,0
42970,431.654676258993,4,2,1,50,1,0
45344,-200,4,2,1,50,0,0
45775,-100,4,2,1,50,0,0
47070,-200,4,2,1,50,0,0
47502,-100,4,2,1,50,0,0
50955,-200,4,2,1,50,0,0
51171,-100,4,2,1,50,0,0
52250,-200,4,2,1,50,0,0
52682,-100,4,2,1,50,0,0
54840,-200,4,2,1,50,0,0
55164,-100,4,2,1,50,0,0
56567,-200,4,2,1,50,0,0
57214,-100,4,2,1,50,0,0
57430,-100,4,2,1,40,0,0
57646,-100,4,2,1,35,0,0
57862,-100,4,2,1,30,0,0
58077,-100,4,2,1,50,0,0
59157,-200,4,2,1,50,0,0
59588,-100,4,2,1,50,0,0
60020,-200,4,2,1,50,0,0
61099,-100,4,2,1,50,0,0
61962,-200,4,2,1,50,0,0
63473,-100,4,2,1,50,0,0
70811,-200,4,2,1,50,0,0
71243,-100,4,2,1,50,0,0
72538,-100,4,1,1,40,0,0
74049,-200,4,1,1,50,0,1
74480,-100,4,1,1,50,0,1
76639,-200,4,1,1,50,0,1
77718,-100,4,1,1,50,0,1
82466,-200,4,1,1,50,0,1
82898,-100,4,1,1,50,0,1
85919,-200,4,1,1,50,0,1
86351,-100,4,1,1,50,0,1
91099,-200,4,1,1,50,0,1
91531,-100,4,1,1,50,0,1
98005,-200,4,1,1,50,0,1
98437,-100,4,1,1,50,0,1
101675,-100,4,2,1,50,0,0
119588,-200,4,2,1,50,0,0
120020,-100,4,2,1,50,0,0
123041,-200,4,2,1,50,0,0
123473,-100,4,2,1,50,0,0
123905,-200,4,2,1,50,0,0
124336,-100,4,2,1,50,0,0
126495,-200,4,2,1,50,0,0
126926,-100,4,2,1,50,0,0
135991,-200,4,2,1,50,0,0
136423,-100,4,2,1,50,0,0
139444,-200,4,2,1,50,0,0
139876,-100,4,2,1,50,0,0
142034,-200,4,2,1,50,0,0
142466,-100,4,2,1,50,0,0
142898,-200,4,2,1,50,0,0
143329,-100,4,2,1,50,0,0
145056,-100,4,1,1,50,0,0
146567,-200,4,1,1,50,0,1
146998,-100,4,1,1,50,0,1
149157,-200,4,1,1,50,0,1
150236,-100,4,1,1,50,0,1
154984,-200,4,1,1,50,0,1
155416,-100,4,1,1,50,0,1
155847,-200,4,1,1,50,0,1
156279,-100,4,1,1,50,0,1
158437,-200,4,1,1,50,0,1
158869,-100,4,1,1,50,0,1
166207,-200,4,1,1,50,0,1
166639,-100,4,1,1,50,0,1
174193,-100,4,2,1,50,0,0
187142,-200,4,2,1,50,0,0
195344,-100,4,2,1,50,0,0
198365,-200,4,2,1,50,0,0
198797,-100,4,2,1,50,0,0
200739,-200,4,2,1,50,0,0
201171,-100,4,2,1,50,0,0
201818,-200,4,2,1,50,0,0
202250,-100,4,2,1,50,0,0
209588,-200,4,2,1,50,0,0
210020,-100,4,2,1,50,0,0
214768,-100,4,2,1,40,0,0
216279,-200,4,2,1,40,0,0
216711,-100,4,2,1,40,0,0
218221,-200,4,2,1,40,0,0
218653,-100,4,2,1,40,0,0
220595,-200,4,2,1,40,0,0
221027,-100,4,2,1,40,0,0
221459,-200,4,2,1,40,0,0
221890,-100,4,2,1,40,0,0
227502,-200,4,2,1,40,0,0
227934,-100,4,2,1,40,0,0
228581,-100,4,1,1,40,0,0
229444,-200,4,1,1,50,0,1
229876,-100,4,1,1,50,0,1
243257,-100,4,2,1,50,0,0

[Colours]
Combo1 : 91,173,255
Combo2 : 255,255,121
Combo3 : 49,49,49
Combo4 : 242,121,0
Combo5 : 0,0,70

[HitObjects]
176,96,15343,2,0,B|124:108|116:168,1,85
200,176,15775,1,0,0:0:0
176,96,15991,6,0,B|124:108|116:168,1,85,0|2,0:0|0:0,0:0:0
192,304,16854,6,0,B|240:288|272:252,1,85
284,176,17286,1,0,0:0:0
200,176,17502,1,0,0:0:0
264,260,17718,6,0,B|312:268|352:236,1,85,0|2,0:0|0:0,0:0:0
448,108,18581,5,0,0:0:0
384,52,18797,1,0,0:0:0
356,132,19013,2,0,B|304:128|272:88,1,85
220,36,19444,2,0,B|128:52|84:136,1,170,0|2,0:0|0:0,0:0:0
244,192,20307,6,0,B|152:192,2,85
324,160,20955,1,0,0:0:0
312,244,21171,6,0,B|320:288|376:312,1,85,0|2,0:0|0:0,0:0:0
460,164,22034,6,0,B|452:120|408:96,1,85
332,72,22466,1,0,0:0:0
212,56,22682,1,0,0:0:0
80,132,22897,6,0,B|124:152|140:196,1,85,0|2,0:0|0:0,0:0:0
308,208,23761,5,0,0:0:0
308,208,23977,2,0,B|288:256|240:276,1,85
284,344,24408,1,0,0:0:0
284,344,24624,2,0,B|168:376|116:256|220:196,1,255,0|2,0:0|0:0,0:0:0
256,192,25716,12,0,27443,0:0:0
432,88,28737,6,0,B|436:132|404:172,1,85
340,116,29168,1,0,0:0:0
332,200,29384,1,0,0:0:0
407,167,29600,1,0,0:0:0
412,252,29816,2,0,B|388:308|336:340|252:324,1,170,0|0,0:0|0:0,0:0:0
220,260,30463,1,2,0:0:0
164,324,30679,2,0,B|104:312|56:248|76:168,1,170
76,112,31327,1,0,0:0:0
144,164,31543,6,0,B|192:152|220:104,1,85
268,52,31974,1,0,0:0:0
352,64,32190,1,2,0:0:0
300,132,32406,1,0,0:0:0
384,136,32622,6,0,B|428:152|444:200,1,85
376,248,33269,5,0,0:0:0
460,256,33485,2,0,B|500:320|408:388|344:312,1,170,0|2,0:0|0:0,0:0:0
376,248,34132,2,0,B|320:224|256:280|288:356,1,170
367,333,34780,1,0,0:0:0
120,276,35427,6,0,B|56:200,2,85,0|2|0,0:0|0:0|0:0,0:0:0
88,356,36075,2,0,B|160:372|208:308|196:236,1,170
164,180,36722,1,0,0:0:0
108,116,36938,1,0,0:0:0
192,104,37154,2,0,B|208:48|252:24,1,85,0|2,0:0|0:0,0:0:0
312,72,37586,6,0,B|340:104|388:104,1,85
387,104,38233,1,0,0:0:0
320,328,39096,5,2,0:0:0
404,340,39312,2,0,B|404:276|364:232|280:248,1,170
228,300,39960,1,0,0:0:0
144,292,40176,2,0,B|108:248|120:212,1,85
136,136,40607,1,0,0:0:0
224,56,40823,1,2,0:0:0
308,64,41039,2,0,B|372:40|428:116|380:180,1,170
308,140,41686,1,0,0:0:0
304,308,42109,5,0,0:0:0
384,284,42317,1,0,0:0:0
324,224,42525,1,2,0:0:0
184,316,42970,5,0,0:0:0
224,240,43185,1,0,0:0:0
140,252,43401,2,0,B|64:200|48:104,2,170,0|0|2,0:0|0:0|0:0,0:0:0
224,240,44480,1,0,0:0:0
176,172,44696,1,0,0:0:0
260,156,44912,1,0,0:0:0
208,88,45128,1,0,0:0:0
292,80,45344,6,0,B|336:72|380:104,1,85
436,156,45991,5,2,0:0:0
428,276,46207,1,0,0:0:0
280,316,46423,2,0,B|208:324|156:272,1,127.5
144,240,46854,1,0,0:0:0
112,160,47070,6,0,B|136:116|180:100,1,85
344,116,47934,6,0,B|436:144|464:240,2,170
276,272,49228,1,0,0:0:0
276,272,49444,1,2,0:0:0
124,196,49876,6,0,B|76:116,1,85
164,144,50308,2,0,B|164:56,1,85
236,104,50739,1,0,0:0:0
316,80,50955,6,0,B|368:88,1,42.5,0|2,0:0|0:0,0:0:0
440,108,51387,5,0,0:0:0
428,216,51603,1,0,0:0:0
348,324,51818,1,0,0:0:0
188,320,52034,1,0,0:0:0
76,192,52250,6,0,B|120:180|144:144,1,85
212,92,52898,5,2,0:0:0
296,80,53113,1,0,0:0:0
264,160,53329,1,0,0:0:0
296,80,53545,1,0,0:0:0
348,148,53761,1,0,0:0:0
296,80,53977,1,0,0:0:0
380,68,54193,2,0,B|424:84|440:136,1,85
348,148,54624,1,2,0:0:0
437,127,54840,6,0,B|460:160|452:200,1,63.75
452,232,55272,5,0,0:0:0
368,240,55487,2,0,B|356:303|289:351|220:328,1,170
260,248,56135,1,0,0:0:0
184,192,56351,1,2,0:0:0
104,224,56567,6,0,B|96:148|148:100,1,127.5,0|0,0:0|0:0,0:0:0
184,192,57430,5,0,0:0:0
228,120,57646,1,0,0:0:0
276,52,57862,1,0,0:0:0
316,128,58077,6,0,B|360:96|360:40,1,85,2|0,0:0|0:0,0:0:0
444,56,58509,2,0,B|444:100|488:136,1,85,0|0,0:0|0:0,0:0:0
420,188,58941,1,0,0:0:0
472,256,59157,6,0,B|432:288|376:264,1,85
332,212,59804,5,2,0:0:0
320,296,60020,2,0,B|268:344|172:344|112:280,1,212.5
156,212,61315,6,0,B|108:192|72:228,2,85,0|2|0,0:0|0:0|0:0,0:0:0
232,252,61962,6,0,B|240:172|176:132,1,127.5
108,108,63041,2,0,B|124:64|188:56,1,85
344,64,63905,1,0,0:0:0
412,116,64121,1,2,0:0:0
332,148,64336,5,0,0:0:0
396,204,64552,1,0,0:0:0
312,224,64768,1,0,0:0:0
252,160,64984,2,0,B|168:192|196:316|292:296,1,212.5,0|0,0:0|0:0,0:0:0
316,324,65631,2,0,B|360:348|416:336,2,85,0|2|0,0:0|0:0|0:0,0:0:0
232,348,66279,2,0,B|132:336|88:252,1,170,0|0,0:0|0:0,0:0:0
100,176,66926,1,0,0:0:0
144,104,67142,1,0,0:0:0
244,56,67358,1,0,0:0:0
380,68,67574,1,2,0:0:0
468,204,67790,1,0,0:0:0
220,264,68437,6,0,B|232:308|296:312,1,85,0|0,0:0|0:0,0:0:0
300,228,68869,2,0,B|344:232|376:284,1,85
428,336,69300,1,2,0:0:0
456,256,69516,1,0,0:0:0
392,200,69732,2,0,B|396:148|440:128,1,85
484,60,70164,1,0,0:0:0
400,52,70380,2,0,B|348:44|316:88,1,85
292,160,70811,6,0,B|240:160,2,42.5,0|2|0,0:0|0:0|0:0,0:0:0
244,88,71459,6,0,B|196:96|176:148,2,85,0|0|2,0:0|0:0|0:0,0:0:0
180,138,72106,1,2,0:0:0
72,268,72538,5,0,0:0:0
192,308,72754,1,0,0:0:0
356,268,72970,1,0,0:0:0
436,240,73185,6,0,B|412:196|364:192,1,85
284,208,73617,2,0,B|288:156|332:120,1,85,10|0,0:0|0:0,0:0:0
404,124,74049,6,0,B|392:76|352:56,1,85,0|8,0:0|0:0,0:0:0
272,68,74696,6,0,B|220:80,2,42.5
100,72,75344,6,0,B|64:100|72:160,1,85,10|0,0:0|0:0,0:0:0
156,136,75775,2,0,B|156:184|120:220,1,85
44,236,76207,2,0,B|52:288|116:296,1,85,8|0,0:0|0:0,0:0:0
152,360,76639,6,0,B|192:328|196:272,1,85,0|10,0:0|0:0,0:0:0
224,208,77286,2,0,B|264:236|268:284,1,85
328,340,77934,1,8,0:0:0
416,272,78149,5,0,0:0:0
480,152,78365,1,0,0:0:0
328,96,78581,2,0,B|364:60|412:64,2,85,0|10|0,0:0|0:0|0:0,0:0:0
380,164,79228,1,0,0:0:0
324,228,79444,5,0,0:0:0
268,164,79660,2,0,P|244:124|244:80,1,85,8|0,0:0|0:0,0:0:0
168,56,80092,1,0,0:0:0
148,140,80308,1,0,0:0:0
244,95,80523,1,10,0:0:0
148,140,80739,1,0,0:0:0
72,176,80955,6,0,B|48:128,2,42.5
140,232,81387,1,8,0:0:0
60,260,81603,2,0,B|40:328|116:376|172:300,1,170
140,232,82250,5,10,0:0:0
224,240,82466,6,0,B|260:268|248:316,1,85
164,312,83113,5,8,0:0:0
248,316,83329,2,0,B|304:336|368:320|400:272,1,170
368,192,83977,1,10,0:0:0
452,208,84193,6,0,B|456:152|408:104,2,85
368,192,84840,1,8,0:0:0
336,112,85056,2,0,P|296:136|276:172,1,85
196,188,85487,1,0,0:0:0
164,108,85703,1,10,0:0:0
88,72,85919,6,0,B|60:112|96:180,1,85
164,108,86567,1,8,0:0:0
184,276,86998,5,0,0:0:0
100,296,87214,1,0,0:0:0
264,248,87430,1,10,0:0:0
184,276,87646,1,0,0:0:0
344,220,87862,1,0,0:0:0
264,248,88077,1,0,0:0:0
328,304,88293,1,8,0:0:0
408,276,88509,2,0,B|452:252|456:196,2,85
344,220,89157,6,0,B|352:176|388:148,1,85,10|0,0:0|0:0,0:0:0
472,144,89588,2,0,B|460:96|412:72,1,85
344,44,90020,1,8,0:0:0
308,120,90236,1,0,0:0:0
220,52,90452,1,0,0:0:0
220,188,90667,1,0,0:0:0
112,68,90883,1,10,0:0:0
92,236,91099,6,0,B|100:280|156:308,1,85
92,236,91746,1,8,0:0:0
252,300,92178,1,0,0:0:0
412,244,92610,5,10,0:0:0
460,316,92826,2,0,B|519:279|505:176|436:164,1,170
368,316,93689,2,0,B|308:279|322:176|392:164,1,170
488,52,94552,2,0,B|464:96|408:108,1,85
388,28,94984,2,0,B|340:40|320:92,1,85,0|8,0:0|0:0,0:0:0
272,148,95416,2,0,B|244:104|252:52,2,85
188,128,96063,6,0,B|136:88|60:168|104:232,1,170,10|0,0:0|0:0,0:0:0
188,220,96711,1,0,0:0:0
256,272,96926,1,8,0:0:0
188,220,97142,1,0,0:0:0
256,272,97358,2,0,B|296:236|344:236,1,85
328,320,97790,1,10,0:0:0
400,280,98005,6,0,B|424:236|400:180,1,85
331,236,98653,6,0,B|324:160|372:104|436:104,1,170,8|0,0:0|0:0,0:0:0
252,60,99516,6,0,B|256:112|204:144,2,85,2|0|8,0:0|0:0|0:0,0:0:0
168,68,100164,2,0,B|132:96|132:152,1,85
256,192,100487,12,0,101675,0:0:0
368,64,115487,6,0,B|324:88|328:144,1,85
412,136,115919,1,2,0:0:0
484,180,116135,2,0,B|464:224|404:268|336:268,1,170
284,212,116782,1,0,0:0:0
224,272,116998,2,0,B|176:264|152:216,1,85
188,144,117430,1,0,0:0:0
156,224,117646,1,2,0:0:0
108,152,117862,6,0,B|80:88|152:24|220:72,1,170
260,124,118509,2,0,B|304:100|304:48,1,85
384,24,118941,1,0,0:0:0
464,52,119157,2,0,B|464:96|500:128,1,85,0|2,0:0|0:0,0:0:0
472,208,119588,6,0,B|452:252|388:240,1,85
412,156,120236,1,0,0:0:0
336,192,120452,5,0,0:0:0
400,240,120667,1,0,0:0:0
320,272,120883,1,0,0:0:0
144,224,121962,5,2,0:0:0
200,288,122178,2,0,B|116:344|24:252|92:156,1,255,0|0,0:0|0:0,0:0:0
144,224,123041,6,0,B|176:184|168:124,1,85
108,84,123689,1,0,0:0:0
192,68,123905,2,0,B|232:76|252:128,1,85
276,204,124552,1,2,0:0:0
464,108,125416,5,0,0:0:0
472,24,125631,2,0,B|408:28|376:88|396:160,1,170
464,108,126279,1,2,0:0:0
456,192,126495,6,0,B|436:232|376:232,1,85
385,231,127142,5,0,0:0:0
392,148,127358,2,0,B|328:156|296:212|312:280,1,170
385,231,128005,1,2,0:0:0
148,324,128653,6,0,B|212:344|272:316|276:236,1,170
192,236,129300,1,0,0:0:0
136,172,129516,1,0,0:0:0
124,88,129732,1,2,0:0:0
208,88,129948,2,0,B|196:136,2,42.5
264,152,130380,1,0,0:0:0
296,72,130595,6,0,B|340:84|352:144,1,85
316,212,131027,2,0,B|380:216|432:184|424:88,1,170
468,40,131675,2,0,B|504:92|504:144|472:220,1,170
440,276,132322,1,2,0:0:0
376,328,132538,1,0,0:0:0
292,332,132754,2,0,B|308:280,2,42.5
376,328,133185,1,2,0:0:0
292,332,133401,1,0,0:0:0
224,284,133617,1,0,0:0:0
164,340,133833,6,0,B|136:288|160:220|216:196,1,170
292,228,134480,2,0,B|296:152|248:112|176:116,1,170
124,164,135128,2,0,B|87:245|87:245|36:176,1,170
76,104,135775,1,2,0:0:0
144,52,135991,6,0,B|184:28|232:40,1,85
308,60,136639,5,2,0:0:0
272,136,136854,2,0,B|320:152|360:124,1,85
308,60,137286,1,0,0:0:0
392,48,137502,5,2,0:0:0
476,52,137718,2,0,B|484:112|464:168|392:208,1,170
324,212,138365,2,0,B|320:260|364:288,1,85,2|0,0:0|0:0,0:0:0
436,320,138797,2,0,B|400:364|332:364|276:328,1,170,0|2,0:0|0:0,0:0:0
248,252,139444,6,0,B|208:276|200:324,1,85
116,324,140092,6,0,B|72:304|60:256,1,85,2|0,0:0|0:0,0:0:0
120,200,140523,1,0,0:0:0
52,148,140739,1,0,0:0:0
132,116,140955,1,2,0:0:0
60,72,141171,6,0,B|88:28|184:24|220:64,1,170
214,58,141818,1,2,0:0:0
236,140,142034,6,0,B|284:136|304:80,1,85
299,90,142682,1,2,0:0:0
356,28,142898,2,0,B|392:56|392:112,1,85
392,188,143545,5,2,0:0:0
364,284,143761,1,0,0:0:0
252,320,143977,1,2,0:0:0
124,272,144193,1,0,0:0:0
64,132,144408,1,2,0:0:0
216,56,144624,1,0,0:0:0
256,220,145056,6,0,B|256:128,2,85,2|0|2,0:0|0:0|0:0,0:0:0
216,296,145703,6,0,B|260:316|304:292,1,85,0|0,0:0|0:0,0:0:0
256,220,146135,1,0,0:0:0
340,220,146351,1,0,0:0:0
380,296,146567,6,0,B|416:264|424:216,1,85,0|8,0:0|0:0,0:0:0
444,140,147214,5,0,0:0:0
444,140,147322,1,0,0:0:0
444,140,147430,1,0,0:0:0
284,88,147862,6,0,B|320:52|368:52,1,85,8|0,0:0|0:0,0:0:0
352,136,148293,2,0,B|324:176|268:168,1,85
212,116,148725,2,0,B|184:156|200:208,1,85,8|0,0:0|0:0,0:0:0
124,152,149157,6,0,B|128:200|92:240,1,85,0|8,0:0|0:0,0:0:0
48,300,149804,2,0,B|88:324|136:308,1,85
216,308,150452,1,8,0:0:0
292,316,150667,6,0,B|300:264|348:240,1,85
384,316,151099,2,0,B|424:280|424:232,1,85,0|8,0:0|0:0,0:0:0
336,246,151531,1,0,0:0:0
388,180,151746,1,0,0:0:0
304,160,151962,6,0,B|336:108|380:104,1,85,0|8,0:0|0:0,0:0:0
452,116,152394,1,0,0:0:0
492,48,152610,1,0,0:0:0
408,32,152826,2,0,B|364:20|320:48,1,85,0|8,0:0|0:0,0:0:0
256,92,153257,1,0,0:0:0
180,128,153473,6,0,B|192:72,2,42.5
116,188,153905,1,8,0:0:0
72,116,154121,2,0,B|28:168|32:232|84:268,1,170
116,188,154768,5,8,0:0:0
200,208,154984,6,0,B|196:256|156:296,1,85
108,340,155631,1,8,0:0:0
192,360,155847,2,0,B|232:336|256:284,1,85
288,220,156495,1,8,0:0:0
336,292,156711,5,0,0:0:0
416,324,156926,1,0,0:0:0
400,240,157142,1,0,0:0:0
480,264,157358,2,0,B|488:208|452:176,1,85,8|0,0:0|0:0,0:0:0
380,160,157790,6,0,B|404:116|448:100,1,85
368,56,158221,1,8,0:0:0
308,116,158437,6,0,B|284:68|240:64,1,85
220,148,159085,1,8,0:0:0
52,184,159516,6,0,B|52:232|96:280,1,85
136,196,159948,2,0,B|168:232|168:284,1,85,8|0,0:0|0:0,0:0:0
108,332,160380,2,0,B|164:372|228:356|256:284,1,170,0|8,0:0|0:0,0:0:0
168,272,161027,1,0,0:0:0
332,76,161675,6,0,B|376:84|408:116,1,85,8|0,0:0|0:0,0:0:0
336,160,162106,1,0,0:0:0
412,196,162322,1,0,0:0:0
488,160,162538,2,0,B|504:204|480:248,1,85,8|0,0:0|0:0,0:0:0
408,280,162970,2,0,B|432:324|480:344,2,85,0|0|8,0:0|0:0|0:0,0:0:0
332,240,163617,2,0,B|332:304|304:356|236:364,1,170
252,280,164264,1,8,0:0:0
160,136,165128,5,8,0:0:0
72,128,165344,2,0,B|88:72|152:40|208:56,1,170
160,136,165991,1,8,0:0:0
244,128,166207,6,0,B|288:104|300:52,1,85
344,136,166854,1,8,0:0:0
384,60,167070,6,0,B|400:100|436:128,1,85
496,188,167502,1,0,0:0:0
492,272,167718,2,0,B|448:272|416:236,1,85,8|0,0:0|0:0,0:0:0
336,212,168149,2,0,B|336:260|364:304,1,85
417,237,168581,1,8,0:0:0
252,272,169013,5,0,0:0:0
212,196,169228,2,0,B|176:220|164:272,1,85,0|8,0:0|0:0,0:0:0
188,348,169660,1,0,0:0:0
108,316,169876,1,0,0:0:0
88,232,170092,2,0,B|128:204|132:152,1,85,0|8,0:0|0:0,0:0:0
44,160,170523,2,0,B|44:104|100:52|168:72,1,170
130,161,171171,2,0,B|184:192|252:160|264:88,1,170,8|0,0:0|0:0,0:0:0
404,188,172034,5,8,0:0:0
448,116,172250,2,0,B|499:159|500:224|444:260,1,170
404,188,172898,1,8,0:0:0
360,116,173113,2,0,B|308:148|308:228|368:268,2,170
52,128,187142,6,0,B|68:76|116:52,1,85
136,140,188005,2,0,B|180:152|224:132|224:120,1,85
244,48,188869,2,0,B|288:56|312:100,1,85
308,180,189732,2,0,B|356:176|388:140,1,85
464,116,190595,2,0,B|464:164|444:212,1,85
376,244,191459,5,4,0:0:0
220,312,192322,6,0,B|260:340|304:340,1,85
288,256,193185,2,0,B|268:212|216:200,1,85
156,252,194049,2,0,B|88:304|88:304|56:228,1,170,0|8,0:0|0:0,0:0:0
55,226,195128,1,0,0:0:0
64,140,195344,6,0,B|116:144|148:120,1,85,8|0,0:0|0:0,0:0:0
96,52,195775,2,0,B|140:36|192:52,1,85,8|0,0:0|0:0,0:0:0
224,120,196207,1,8,0:0:0
224,120,196423,1,0,0:0:0
264,196,196639,2,0,B|304:168|312:120,1,85,8|0,0:0|0:0,0:0:0
276,48,197070,2,0,B|320:32|376:56,1,85,8|0,0:0|0:0,0:0:0
380,132,197502,1,8,0:0:0
380,132,197718,1,0,0:0:0
464,156,197934,6,0,B|464:208|420:232,1,85,8|0,0:0|0:0,0:0:0
340,228,198365,6,0,B|344:272|400:308,1,85,12|8,0:0|0:0,0:0:0
340,228,199013,5,0,0:0:0
188,304,199444,2,0,B|280:296,2,85,0|8|4,0:0|0:0|0:0,0:0:0
104,312,200092,1,8,0:0:0
188,304,200308,1,0,0:0:0
136,236,200523,1,8,0:0:0
52,232,200739,6,0,B|60:180|100:152,1,85,4|0,0:0|0:0,0:0:0
176,156,201387,5,8,0:0:0
120,92,201603,1,0,0:0:0
204,88,201818,6,0,B|236:48|280:48,1,85,4|0,0:0|0:0,0:0:0
284,120,202466,5,0,0:0:0
284,204,202682,2,0,B|344:200|388:152|380:72,1,170
436,28,203329,1,0,0:0:0
468,108,203545,1,4,0:0:0
436,188,203761,2,0,B|448:248|404:316|336:308,1,170
264,292,204408,1,0,0:0:0
284,208,204624,2,0,B|220:200|176:256|176:324,1,170
96,340,205272,6,0,B|68:280|92:216,1,127.5,4|0,0:0|0:0,0:0:0
128,196,205703,2,0,B|128:152|96:108,1,85
356,132,206567,5,0,0:0:0
316,56,206782,2,0,B|380:40|436:72|440:148,1,170
356,132,207430,1,0,0:0:0
272,136,207646,2,0,B|272:204|340:236|408:208,1,170
480,204,208293,1,0,0:0:0
448,284,208509,5,0,0:0:0
448,284,208725,2,0,B|400:272|364:304,1,85,8|0,0:0|0:0,0:0:0
308,360,209157,2,0,B|268:336|260:292,1,85,8|0,0:0|0:0,0:0:0
216,220,209588,6,0,B|184:256|184:308,1,85,8|8,0:0|0:0,0:0:0
104,332,210236,5,0,0:0:0
60,260,210452,1,8,0:0:0
112,192,210667,2,0,B|80:108,2,85,0|8|0,0:0|0:0|0:0,0:0:0
332,64,211746,5,0,0:0:0
400,116,211962,1,0,0:0:0
468,64,212178,2,0,B|492:124|468:184|400:200,1,170
328,160,212826,2,0,B|280:224|368:312|440:272,1,212.5
472,296,213473,2,0,B|448:340|404:356,1,85
68,96,214768,6,0,B|112:72|160:72,1,85,2|0,0:0|0:0,0:0:0
152,156,215200,2,0,B|200:156|244:124,1,85,2|0,0:0|0:0,0:0:0
244,48,215631,1,2,0:0:0
312,96,215847,1,0,0:0:0
308,180,216063,1,2,0:0:0
384,140,216279,2,0,B|432:140|472:188,1,85
388,224,216926,5,2,0:0:0
464,264,217142,2,0,B|436:304|392:312,1,85,0|2,0:0|0:0,0:0:0
320,272,217574,1,0,0:0:0
284,348,217790,2,0,B|244:320|232:276,1,85,2|0,0:0|0:0,0:0:0
200,204,218221,6,2,B|156:232|148:288,1,85,0|0,0:0|0:0,0:0:0
108,344,218869,5,0,0:0:0
72,268,219085,5,2,0:0:0
68,184,219300,5,0,0:0:0
84,100,219516,5,2,0:0:0
144,40,219732,5,0,0:0:0
164,124,219948,2,0,B|208:108|232:60,1,85,2|0,0:0|0:0,0:0:0
292,124,220380,1,2,0:0:0
324,44,220595,6,0,B|368:64|384:116,1,85
292,124,221243,1,2,0:0:0
352,184,221459,2,0,B|408:200|444:160,1,85
476,244,222106,6,0,B|472:296|432:328,1,85,2|0,0:0|0:0,0:0:0
376,264,222538,2,0,B|324:260,2,42.5,2|0|0,0:0|0:0|0:0,0:0:0
352,348,222970,1,2,0:0:0
268,328,223185,2,0,B|252:280|168:256|116:288,1,170
172,356,223833,5,2,0:0:0
88,356,224049,2,0,B|24:324|24:252|88:220,1,170
160,192,224696,1,2,0:0:0
244,188,224912,2,0,B|240:124|172:88|100:132,1,170
36,96,225559,1,2,0:0:0
100,40,225775,5,0,0:0:0
228,32,225991,1,2,0:0:0
396,52,226207,1,0,0:0:0
320,88,226423,2,0,B|336:132|388:152,1,85,2|0,0:0|0:0,0:0:0
456,120,226854,6,0,B|468:168|440:208,1,85,2|0,0:0|0:0,0:0:0
364,232,227286,1,2,0:0:0
432,280,227502,6,0,B|404:312|352:312,1,85
364,232,228149,1,2,0:0:0
208,296,228581,6,0,B|236:336|284:340,1,85
276,252,229013,2,0,B|248:208|200:208,1,85
136,256,229444,6,0,B|120:300|72:312,1,85
56,228,230092,6,0,B|72:172,2,42.5
196,128,230739,6,0,B|148:128|116:92,1,85,8|0,0:0|0:0,0:0:0
188,48,231171,1,0,0:0:0
268,80,231387,1,0,0:0:0
348,48,231603,2,0,B|356:96|332:136,1,85,8|0,0:0|0:0,0:0:0
264,180,232034,1,0,0:0:0
344,208,232250,2,0,B|388:200|416:148,1,85,0|8,0:0|0:0,0:0:0
464,92,232682,2,0,B|504:140|504:200|456:272,1,170
392,284,233329,1,8,0:0:0
60,208,234193,5,8,0:0:0
56,316,234408,2,0,B|120:316|168:252|168:176,1,170
112,136,235056,1,8,0:0:0
40,88,235272,2,0,B|80:40|160:44|184:104,1,170
240,168,235919,1,8,0:0:0
240,252,236135,6,0,B|248:296|288:324,1,85
324,244,236567,1,0,0:0:0
364,316,236782,2,0,B|408:284|412:240,1,85,8|0,0:0|0:0,0:0:0
452,172,237214,1,0,0:0:0
368,176,237430,1,0,0:0:0
410,247,237646,1,8,0:0:0
356,88,238077,6,0,B|328:48|280:48,1,85
208,88,238509,2,0,B|228:128|280:128,1,85,8|0,0:0|0:0,0:0:0
248,208,238941,2,0,B|236:256|188:276,1,85
164,192,239372,1,8,0:0:0
128,116,239588,1,0,0:0:0
80,184,239804,1,0,0:0:0
44,108,240020,2,0,B|8:136|0:184,1,85,0|8,0:0|0:0,0:0:0
40,256,240452,2,0,B|92:284,2,42.5
208,280,241099,5,8,0:0:0
200,364,241315,2,0,B|256:360|300:308|288:240,1,170
208,280,241962,1,8,0:0:0
256,192,242070,12,0,243257,0:0:0
