osu file format v14

[General]
AudioFilename: Roll Ground.mp3
AudioLeadIn: 1000
PreviewTime: 146826
Countdown: 0
SampleSet: Soft
StackLeniency: 0.5
Mode: 0
LetterboxInBreaks: 0
EpilepsyWarning: 1
WidescreenStoryboard: 1

[Editor]
DistanceSpacing: 1
BeatDivisor: 4
GridSize: 4
TimelineZoom: 1

[Metadata]
Title:Roll Ground
TitleUnicode:Roll Ground
Artist:FELT
ArtistUnicode:FELT
Creator:Natsu
Version:Lunatic
Source:東方Project
Tags:Kanari touhou 舞花 美歌 Ground Snow NAGI☆ 月まで届け、不死の煙 東方永夜抄 ~ Imperishable Night Extra Stage Boss Theme Maika Mika Fujiwara no Mokou Comiket 83
BeatmapID:726981
BeatmapSetID:327587

[Difficulty]
HPDrainRate:7
CircleSize:4
OverallDifficulty:8
ApproachRate:8.5
SliderMultiplier:1.7
SliderTickRate:1

[Events]
//Background and Video events
0,0,"w.jpg",0,0
//Break Periods
2,171171,178711
//Storyboard Layer 0 (Background)
//Storyboard Layer 1 (Fail)
//Storyboard Layer 2 (Pass)
//Storyboard Layer 3 (Foreground)
//Storyboard Sound Samples

[TimingPoints]
850,365.853658536585,4,2,1,40,1,0
18045,-100,4,2,2,50,0,0
18136,-100,4,2,1,40,0,0
23898,-100,4,2,2,50,0,0
23990,-100,4,2,1,55,0,0
29752,-100,4,2,2,55,0,0
29843,-100,4,2,1,55,0,0
35606,-100,4,2,2,55,0,0
35697,-100,4,2,1,55,0,0
41459,-100,4,2,2,55,0,0
41642,-100,4,2,1,55,0,0
47313,-100,4,2,2,55,0,0
47404,-100,4,2,1,60,0,0
57740,-100,4,2,2,65,0,0
59386,-90.9090909090909,4,2,2,70,0,0
69813,-71.4285714285714,4,2,1,70,0,0
70362,-66.6666666666667,4,2,1,70,0,0
70728,-100,4,2,2,70,0,0
71093,-90.9090909090909,4,2,2,75,0,1
82709,-90.9090909090909,4,2,2,75,0,0
82801,-90.9090909090909,4,2,2,75,0,1
94325,-90.9090909090909,4,2,1,75,0,0
94508,-90.9090909090909,4,2,1,45,0,0
99447,-100,4,2,1,60,0,0
101093,-100,4,2,2,60,0,0
101460,-100,4,2,1,60,0,0
104020,-100,4,2,2,60,0,0
104387,-100,4,2,1,60,0,0
106947,-100,4,2,2,60,0,0
107313,-100,4,2,1,60,0,0
109874,-100,4,2,2,60,0,0
110240,-100,4,2,1,60,0,0
123776,-100,4,2,2,60,0,0
131094,-100,4,2,1,70,0,0
132923,-100,4,2,2,70,0,0
135484,-90.9090909090909,4,2,2,70,0,0
145911,-71.4285714285714,4,2,1,70,0,0
146460,-66.6666666666667,4,2,1,70,0,0
146826,-100,4,2,1,70,0,0
147191,-90.9090909090909,4,2,2,75,0,1
158807,-90.9090909090909,4,2,2,75,0,0
158898,-90.9090909090909,4,2,2,75,0,1
170423,-90.9090909090909,4,2,1,70,0,0
179386,-100,4,2,2,70,0,0
191002,-100,4,2,2,15,0,0
193654,-111.111111111111,4,2,1,45,0,0
200606,-111.111111111111,4,2,1,50,0,0
202801,-100,4,2,2,70,0,0
204447,-71.4285714285714,4,2,1,70,0,0
204996,-66.6666666666667,4,2,1,70,0,0
205362,-100,4,2,1,70,0,0
205728,-90.9090909090909,4,2,2,75,0,1
220179,-90.9090909090909,4,2,2,75,0,0
220270,-90.9090909090909,4,2,2,40,0,0

[Colours]
Combo1 : 166,18,254
Combo2 : 255,198,255
Combo3 : 82,95,252
Combo4 : 252,65,219

[HitObjects]
152,252,850,6,0,B|160:272|180:284|180:284|224:232|192:160,1,170,6|8,0:0|0:0,0:0:0:0:
256,64,1398,1,0,0:0:0:0:
317,165,1581,2,0,B|288:232|332:284|332:284|352:272|360:252,1,170,2|8,0:0|0:0,0:0:0:0:
196,84,2313,6,0,L|100:84,2,85,2|0|8,0:0|0:0|0:0,0:0:0:0:
256,192,2862,1,0,0:0:0:0:
316,300,3045,2,0,L|412:300,2,85,2|0|8,0:0|0:0|0:0,0:0:0:0:
140,144,3776,6,0,B|102:101|122:29|146:9|178:17|186:53|169:48,1,170,2|8,0:0|0:0,0:0:0:0:
372,240,4508,2,0,B|410:283|390:355|366:375|334:367|326:331|343:336,1,170,2|8,0:0|0:0,0:0:0:0:
256,192,5057,1,2,0:0:0:0:
256,88,5240,6,0,P|252:44|264:4,2,85,2|0|8,0:0|0:0|0:0,0:0:0:0:
256,192,5789,1,0,0:0:0:0:
256,296,5971,2,0,P|260:338|248:378,1,85,2|0,0:0|0:0,0:0:0:0:
132,380,6337,2,0,P|120:339|124:297,1,85,8|0,0:0|0:0,0:0:0:0:
188,252,6612,1,2,0:0:0:0:
188,252,6703,6,0,B|216:208|188:180|188:180|188:166|188:166|159:137|188:93,1,170,6|8,0:0|0:0,0:0:0:0:
396,28,7435,2,0,P|440:20|484:28,1,85,2|0,0:0|0:0,0:0:0:0:
396,120,7801,2,0,P|352:128|308:120,1,85,8|0,0:0|0:0,0:0:0:0:
186,95,8167,6,0,B|186:31|186:31|206:11,2,85,2|0|8,0:0|0:0|0:0,0:0:0:0:
256,192,8715,1,0,0:0:0:0:
326,289,8898,2,0,B|326:353|326:353|306:373,1,85,2|0,0:0|0:0,0:0:0:0:
200,367,9264,2,0,B|186:353|186:353|186:289,1,85,8|0,0:0|0:0,0:0:0:0:
256,192,9630,5,2,0:0:0:0:
320,100,9813,2,0,L|344:64,2,42.5,2|2|10,0:0|0:0|0:0,0:0:0:0:
256,192,10179,1,0,0:0:0:0:
172,264,10362,2,0,P|128:276|88:264,1,85,2|0,0:0|0:0,0:0:0:0:
204,96,10728,1,2,0:0:0:0:
204,96,10819,1,0,0:0:0:0:
204,96,10910,1,0,0:0:0:0:
204,96,11002,1,0,0:0:0:0:
204,96,11093,6,0,L|204:184,1,85,2|0,0:0|0:0,0:0:0:0:
204,292,11459,1,8,0:0:0:0:
108,236,11642,1,0,0:0:0:0:
204,181,11825,2,0,L|312:181,1,85,2|0,0:0|0:0,0:0:0:0:
380,244,12191,2,0,L|436:244,2,42.5,10|2|2,0:0|0:0|0:0,0:0:0:0:
204,181,12557,6,0,P|192:136|204:92,1,85,6|0,0:0|0:0,0:0:0:0:
264,248,12923,2,0,P|184:268|116:196,1,170,8|2,0:0|0:0,0:0:0:0:
112,104,13471,1,0,0:0:0:0:
112,104,13654,2,0,L|112:12,1,85,8|0,0:0|0:0,0:0:0:0:
16,156,14020,6,0,L|16:248,2,85,2|0|8,0:0|0:0|0:0,0:0:0:0:
112,104,14569,1,0,0:0:0:0:
208,156,14752,2,0,P|248:164|296:152,1,85,2|0,0:0|0:0,0:0:0:0:
348,60,15118,1,8,0:0:0:0:
404,156,15301,1,0,0:0:0:0:
248,80,15484,6,0,P|168:76|116:144,1,170,2|8,0:0|0:0,0:0:0:0:
120,252,16032,1,2,0:0:0:0:
120,252,16124,1,2,0:0:0:0:
120,252,16215,2,0,L|28:252,2,85,2|0|8,0:0|0:0|0:0,0:0:0:0:
200,328,16764,1,0,0:0:0:0:
256,192,16947,6,0,P|288:104|244:32,1,170,2|8,0:0|0:0,0:0:0:0:
188,116,17496,1,0,0:0:0:0:
372,96,17679,2,0,L|472:80,1,85,2|0,0:0|0:0,0:0:0:0:
339,178,18045,2,0,L|239:194,1,85,8|0,0:0|0:0,0:0:0:0:
372,96,18410,6,0,P|424:164|396:244,1,170,6|8,0:0|0:0,0:0:0:0:
300,284,18959,1,0,0:0:0:0:
212,220,19142,2,0,P|128:208|56:264,1,170,2|8,0:0|0:0,0:0:0:0:
156,320,19691,1,0,0:0:0:0:
300,364,19874,6,0,P|340:372|384:356,1,85,2|0,0:0|0:0,0:0:0:0:
320,276,20240,2,0,P|360:264|392:232,1,85,8|0,0:0|0:0,0:0:0:0:
296,184,20606,2,0,P|328:152|340:107,1,85,2|0,0:0|0:0,0:0:0:0:
232,120,20971,2,0,P|240:76|232:31,1,85,8|0,0:0|0:0,0:0:0:0:
96,72,21337,6,0,L|36:72,2,42.5,2|2|2,0:0|0:0|0:0,0:0:0:0:
148,172,21703,2,0,L|60:172,2,85,8|0|2,0:0|0:0|0:0,0:0:0:0:
256,192,22252,1,0,0:0:0:0:
352,244,22435,2,0,P|360:284|352:336,1,85,8|0,0:0|0:0,0:0:0:0:
157,327,22801,6,0,P|151:285|160:244,2,85,2|0|8,0:0|0:0|0:0,0:0:0:0:
256,376,23349,1,0,0:0:0:0:
256,264,23532,2,0,L|256:168,1,85,2|0,0:0|0:0,0:0:0:0:
168,112,23898,2,0,L|168:208,1,85,8|0,0:0|0:0,0:0:0:0:
256,376,24264,5,6,0:0:0:0:
320,288,24447,2,0,P|360:280|404:288,1,85,0|8,0:0|0:0,0:0:0:0:
256,376,24813,1,0,0:0:0:0:
192,288,24996,2,0,P|152:280|108:288,1,85,2|0,0:0|0:0,0:0:0:0:
28,364,25362,1,8,0:0:0:0:
28,252,25545,2,0,L|24:156,1,85,2|0,0:0|0:0,0:0:0:0:
116,32,25910,5,0,0:0:0:0:
200,104,26093,2,0,P|208:144|200:188,1,85,8|0,0:0|0:0,0:0:0:0:
256,284,26459,1,2,0:0:0:0:
311,187,26642,2,0,P|303:145|312:104,1,85,0|8,0:0|0:0,0:0:0:0:
384,28,27008,1,0,0:0:0:0:
376,232,27191,6,0,P|344:260|292:264,1,85,2|0,0:0|0:0,0:0:0:0:
208,232,27557,1,8,0:0:0:0:
120,180,27740,2,0,L|120:128,2,42.5,2|2|2,0:0|0:0|0:0,0:0:0:0:
120,284,28106,1,2,0:0:0:0:
208,232,28289,2,0,P|248:220|292:228,1,85,8|0,0:0|0:0,0:0:0:0:
444,328,28654,5,2,0:0:0:0:
444,328,28837,2,0,L|456:240,1,85,0|8,0:0|0:0,0:0:0:0:
400,156,29203,1,0,0:0:0:0:
500,144,29386,1,2,0:0:0:0:
352,240,29569,1,0,1:0:0:0:
352,240,29660,1,0,1:0:0:0:
352,240,29752,2,0,P|308:252|256:240,1,85,8|0,0:0|0:0,0:0:0:0:
160,144,30118,6,0,P|204:132|256:144,2,85,6|0|8,0:0|0:0|0:0,0:0:0:0:
68,192,30667,1,0,0:0:0:0:
160,240,30849,2,0,P|204:252|256:240,2,85,2|0|8,0:0|0:0|0:0,0:0:0:0:
68,192,31398,1,0,0:0:0:0:
94,30,31581,6,0,P|142:16|199:21,1,85,2|0,0:0|0:0,0:0:0:0:
320,80,31947,2,0,P|370:83|418:68,1,85,8|0,0:0|0:0,0:0:0:0:
256,20,32313,1,2,0:0:0:0:
204,108,32496,1,0,0:0:0:0:
260,196,32679,2,0,P|268:236|264:284,1,85,8|0,0:0|0:0,0:0:0:0:
204,108,33045,6,0,P|264:92|356:160,1,170,2|8,0:0|0:0,0:0:0:0:
404,256,33593,2,0,P|444:264|496:244,1,85,2|0,0:0|0:0,0:0:0:0:
504,152,33959,1,0,0:0:0:0:
404,256,34142,2,0,L|340:336,1,85,8|0,0:0|0:0,0:0:0:0:
161,322,34508,6,0,L|108:256,1,85,2|0,0:0|0:0,0:0:0:0:
128,124,34874,2,0,L|181:190,1,85,12|2,0:0|0:0,0:0:0:0:
256,260,35240,1,2,0:0:0:0:
276,160,35423,1,0,0:0:0:0:
160,280,35606,2,0,L|88:332,1,85,8|0,0:0|0:0,0:0:0:0:
276,160,35971,5,6,0:0:0:0:
276,160,36154,2,0,L|348:108,1,85,0|8,0:0|0:0,0:0:0:0:
428,52,36520,1,0,0:0:0:0:
362,190,36703,2,0,P|344:152|344:110,1,85,2|0,0:0|0:0,0:0:0:0:
256,24,37069,1,8,0:0:0:0:
168,110,37252,2,0,P|167:152|149:190,1,85,2|0,0:0|0:0,0:0:0:0:
173,308,37618,5,0,0:0:0:0:
256,368,37801,1,8,0:0:0:0:
338,308,37984,1,0,0:0:0:0:
307,211,38167,1,2,0:0:0:0:
205,211,38349,2,0,L|120:200,1,85,2|8,0:0|0:0,0:0:0:0:
64,116,38715,1,0,0:0:0:0:
256,124,38898,6,0,L|341:135,1,85,6|0,0:0|0:0,0:0:0:0:
420,200,39264,1,8,0:0:0:0:
372,292,39447,1,0,0:0:0:0:
266,279,39630,2,0,P|232:203|256:124,1,170,2|8,0:0|0:0,0:0:0:0:
324,16,40179,2,0,L|224:16,1,85,2|0,0:0|0:0,0:0:0:0:
64,116,40545,5,0,0:0:0:0:
72,216,40728,1,8,0:0:0:0:
156,160,40910,2,0,L|256:160,1,85,2|0,0:0|0:0,0:0:0:0:
316,228,41276,1,0,1:0:0:0:
316,228,41368,1,0,1:0:0:0:
316,228,41459,1,8,0:0:0:0:
332,128,41642,1,0,0:0:0:0:
208,312,41825,6,0,P|164:320|112:304,1,85,6|0,0:0|0:0,0:0:0:0:
304,308,42191,2,0,P|348:300|400:316,1,85,8|0,0:0|0:0,0:0:0:0:
452,352,42465,1,2,0:0:0:0:
452,352,42557,2,0,P|460:304|448:260,2,85,8|0|8,0:0|0:0|0:0,0:0:0:0:
388,224,43106,6,0,P|379:182|388:141,1,85,2|0,0:0|0:0,0:0:0:0:
440,52,43471,1,0,0:0:0:0:
440,52,43654,2,0,L|348:52,1,85,8|0,0:0|0:0,0:0:0:0:
296,100,43929,1,2,0:0:0:0:
296,100,44020,2,0,P|292:144|304:188,1,85,8|0,0:0|0:0,0:0:0:0:
216,284,44386,6,0,P|220:240|208:196,1,85,8|0,0:0|0:0,0:0:0:0:
104,144,44752,2,0,P|100:188|112:232,1,85,2|0,0:0|0:0,0:0:0:0:
216,284,45118,1,8,0:0:0:0:
328,332,45301,2,0,P|372:340|416:332,1,85,2|0,0:0|0:0,0:0:0:0:
448,200,45667,2,0,P|404:192|360:200,1,85,0|8,0:0|0:0,0:0:0:0:
216,284,46032,6,0,P|174:290|132:282,1,85,2|0,0:0|0:0,0:0:0:0:
38,240,46398,1,0,0:0:0:0:
46,139,46581,1,8,0:0:0:0:
146,116,46764,1,2,0:0:0:0:
198,203,46947,2,0,P|212:236|212:304,1,85,8|0,0:0|0:0,0:0:0:0:
146,116,47313,2,0,P|148:64|208:76,1,127.5,8|0,0:0|0:0,0:0:0:0:
256,144,47679,6,0,P|320:184|412:156,1,170,6|8,0:0|0:0,0:0:0:0:
492,36,48228,1,0,0:0:0:0:
492,36,48410,2,0,P|422:79|406:161,1,170,2|8,0:0|0:0,0:0:0:0:
508,140,48959,1,2,0:0:0:0:
324,44,49142,6,0,L|236:40,2,85,2|0|8,0:0|0:0|0:0,0:0:0:0:
268,132,49691,1,0,0:0:0:0:
268,132,49874,2,0,L|180:128,1,85,2|0,0:0|0:0,0:0:0:0:
220,224,50240,2,0,L|132:220,1,85,8|0,0:0|0:0,0:0:0:0:
292,296,50606,5,6,0:0:0:0:
292,296,50789,2,0,L|380:300,1,85,0|0,3:0|3:0,0:0:0:0:
432,352,51063,2,0,P|452:292|420:240,1,127.5,0|0,3:0|0:0,0:0:0:0:
332,192,51520,1,0,0:0:0:0:
256,120,51703,2,0,L|236:32,1,85,8|0,0:0|0:0,0:0:0:0:
256,264,52069,6,0,L|276:352,1,85,2|0,0:0|0:0,0:0:0:0:
184,192,52435,2,0,L|96:212,1,85,8|0,0:0|0:0,0:0:0:0:
256,120,52801,2,0,L|236:32,1,85,2|0,0:0|0:0,0:0:0:0:
328,192,53167,2,0,L|416:172,1,85,8|4,0:0|0:0,0:0:0:0:
184,192,53532,6,0,L|96:212,1,85,6|0,0:0|0:0,0:0:0:0:
212,276,53898,2,0,L|294:257,1,85,8|0,0:0|0:0,0:0:0:0:
368,236,54173,1,2,0:0:0:0:
368,236,54264,2,0,P|368:192|348:144,1,85,8|0,0:0|0:0,0:0:0:0:
256,120,54630,1,8,0:0:0:0:
332,52,54813,1,0,0:0:0:0:
184,168,54996,6,0,P|172:128|176:85,1,85,2|0,0:0|0:0,0:0:0:0:
332,52,55362,2,0,P|344:92|339:134,1,85,8|0,0:0|0:0,0:0:0:0:
184,168,55728,2,0,L|88:188,1,85,2|0,0:0|0:0,0:0:0:0:
56,320,56093,2,0,L|139:302,1,85,8|0,0:0|0:0,0:0:0:0:
256,204,56459,6,0,P|260:160|240:112,1,85,6|0,0:0|0:0,0:0:0:0:
168,48,56825,2,0,L|112:48,1,42.5,8|0,0:0|1:0,0:0:0:0:
128,124,57008,2,0,L|68:124,1,42.5,2|0,0:0|1:0,0:0:0:0:
96,200,57191,1,0,1:0:0:0:
96,200,57282,1,0,1:0:0:0:
96,200,57374,2,0,L|0:200,1,85,0|0,1:0|0:0,0:0:0:0:
176,284,57740,6,0,L|261:284,1,85,12|0,0:0|0:0,0:0:0:0:
487,266,58106,1,0,0:0:0:0:
405,123,58289,1,12,0:0:0:0:
388,288,58471,1,2,0:0:0:0:
498,165,58654,1,8,0:0:0:0:
336,199,58837,1,0,0:0:0:0:
487,266,59020,1,2,0:0:0:0:
405,123,59203,1,8,0:0:0:0:
436,356,59386,6,0,P|368:372|308:320,1,140.25000428009,6|0,0:0|0:0,0:0:0:0:
288,264,59752,1,8,0:0:0:0:
312,104,59935,2,0,P|244:88|184:140,1,140.25000428009,6|0,0:0|0:0,0:0:0:0:
172,204,60301,5,2,0:0:0:0:
100,56,60484,1,8,0:0:0:0:
28,192,60667,2,0,P|16:236|36:292,2,93.5000028533936,6|0|0,0:0|0:0|0:0,0:0:0:0:
100,56,61215,1,8,0:0:0:0:
192,160,61398,2,0,B|212:232|156:268|156:268|164:304|212:272,1,187.000005706787,6|8,0:0|0:0,0:0:0:0:
320,220,61947,1,8,0:0:0:0:
424,148,62130,5,0,1:0:0:0:
424,148,62221,1,0,1:0:0:0:
424,148,62313,2,0,B|466:119|474:155|474:155|418:191|438:263,1,187.000005706787,6|8,0:0|0:0,0:0:0:0:
360,352,62862,2,0,P|304:383|180:360,1,187.000005706787,6|4,0:0|0:0,0:0:0:0:
68,356,63410,1,8,0:0:0:0:
68,356,63593,2,0,B|96:372|96:372|104:304|160:288,1,140.25000428009,12|0,0:0|0:0,0:0:0:0:
196,216,63959,6,0,L|196:116,1,93.5000028533936,12|8,0:0|0:0,0:0:0:0:
316,48,64325,1,4,0:0:0:0:
316,48,64417,2,0,L|316:148,1,93.5000028533936,8|0,0:0|0:0,0:0:0:0:
316,228,64691,1,8,0:0:0:0:
316,228,64782,1,0,1:0:0:0:
316,228,64874,2,0,L|368:240,1,46.7500014266968,8|0,0:0|1:0,0:0:0:0:
376,328,65057,2,0,L|324:316,1,46.7500014266968,0|0,1:0|1:0,0:0:0:0:
236,276,65240,6,0,P|224:208|268:148,1,140.25000428009,6|0,0:0|0:0,0:0:0:0:
336,136,65606,1,8,0:0:0:0:
236,276,65789,2,0,P|168:304|80:240,1,187.000005706787,6|8,0:0|0:0,0:0:0:0:
72,116,66337,1,8,0:0:0:0:
172,196,66520,6,0,L|136:380,1,187.000005706787,6|0,0:0|0:0,0:0:0:0:
260,316,67069,1,8,0:0:0:0:
260,316,67252,2,0,L|280:208,1,93.5000028533936,2|0,0:0|0:0,0:0:0:0:
392,172,67618,1,2,0:0:0:0:
392,172,67709,1,2,0:0:0:0:
392,172,67801,2,0,L|372:280,1,93.5000028533936,10|0,0:0|0:0,0:0:0:0:
464,132,68167,6,0,P|408:92|340:108,1,140.25000428009,6|0,0:0|0:0,0:0:0:0:
306,176,68532,1,8,0:0:0:0:
230,259,68715,1,0,1:0:0:0:
196,152,68898,1,8,0:0:0:0:
309,196,69081,1,0,1:0:0:0:
212,252,69264,1,8,0:0:0:0:
212,140,69447,2,0,P|188:72|220:4,1,140.25000428009,6|0,0:0|0:0,0:0:0:0:
276,76,69813,6,0,L|336:76,1,59.4999981842042,2|0,0:0|0:0,0:0:0:0:
276,76,69996,2,0,L|88:76,1,178.499994552612,2|0,0:0|0:0,0:0:0:0:
36,140,70362,6,0,L|12:200,1,63.7500024318696,2|0,0:0|0:0,0:0:0:0:
102,204,70545,2,0,L|80:264,1,63.7500024318696,2|0,0:0|0:0,0:0:0:0:
192,192,70728,6,0,L|164:280,1,85,2|0,0:0|0:0,0:0:0:0:
224,344,71002,1,2,0:0:0:0:
224,344,71093,6,0,P|268:356|320:344,1,93.5000028533936,6|0,0:0|0:0,0:0:0:0:
432,244,71459,2,0,P|388:232|336:244,1,93.5000028533936,8|0,0:0|0:0,0:0:0:0:
224,344,71825,1,2,0:0:0:0:
208,204,72008,1,0,0:0:0:0:
341,241,72191,2,0,L|352:336,1,93.5000028533936,8|0,0:0|0:0,0:0:0:0:
208,204,72557,6,0,L|197:109,1,93.5000028533936,2|0,0:0|0:0,0:0:0:0:
256,8,72923,1,8,0:0:0:0:
314,111,73106,2,0,L|304:204,1,93.5000028533936,6|0,0:0|1:0,0:0:0:0:
304,204,73380,1,0,1:0:0:0:
304,204,73471,1,0,1:0:0:0:
256,352,73654,1,8,0:0:0:0:
172,244,73837,1,2,0:0:0:0:
304,204,74020,6,0,P|351:195|400:208,1,93.5000028533936,2|0,0:0|0:0,0:0:0:0:
172,244,74386,2,0,P|124:252|76:240,1,93.5000028533936,8|0,0:0|0:0,0:0:0:0:
304,204,74752,2,0,L|332:312,1,93.5000028533936,2|0,0:0|0:0,0:0:0:0:
172,244,75118,2,0,L|144:136,1,93.5000028533936,8|0,0:0|0:0,0:0:0:0:
304,204,75484,5,2,0:0:0:0:
304,204,75667,2,0,P|352:216|400:200,1,93.5000028533936,2|8,0:0|0:0,0:0:0:0:
440,60,76032,2,0,P|388:64|352:144,1,140.25000428009,2|0,0:0|1:0,0:0:0:0:
350,136,76398,1,0,0:0:0:0:
352,296,76581,1,8,0:0:0:0:
188,192,76764,5,2,0:0:0:0:
188,192,76856,1,2,0:0:0:0:
188,192,76947,2,0,P|140:180|88:200,1,93.5000028533936,6|0,0:0|0:0,0:0:0:0:
324,192,77313,2,0,P|372:204|424:184,1,93.5000028533936,8|0,0:0|0:0,0:0:0:0:
256,76,77679,1,2,0:0:0:0:
188,192,77862,1,0,0:0:0:0:
324,192,78045,1,8,0:0:0:0:
256,76,78228,2,0,B|176:72|176:72|200:104,1,93.5000028533936,2|0,0:0|0:0,0:0:0:0:
324,192,78593,6,0,B|404:196|404:196|380:164,1,93.5000028533936,2|8,0:0|0:0,0:0:0:0:
248,152,78959,2,0,P|236:192|256:248,1,93.5000028533936,2|0,0:0|0:0,0:0:0:0:
356,280,79325,1,0,0:0:0:0:
268,348,79508,1,8,0:0:0:0:
324,192,79691,5,2,0:0:0:0:
324,192,79782,1,2,0:0:0:0:
324,192,79874,2,0,P|336:144|312:84,1,93.5000028533936,2|0,0:0|0:0,0:0:0:0:
256,12,80240,1,2,0:0:0:0:
187,102,80423,2,0,P|175:147|188:192,1,93.5000028533936,0|8,1:0|0:0,0:0:0:0:
256,288,80789,1,2,0:0:0:0:
256,288,80880,1,2,0:0:0:0:
256,288,80971,1,10,0:0:0:0:
187,102,81154,6,0,P|96:84|28:152,1,187.000005706787,6|0,0:0|0:0,0:0:0:0:
108,304,81703,1,8,0:0:0:0:
152,315,81794,1,0,1:0:0:0:
195,299,81885,1,0,1:0:0:0:
220,260,81978,1,0,1:0:0:0:
236,217,82069,1,0,1:0:0:0:
272,188,82160,1,0,1:0:0:0:
317,180,82252,1,0,1:0:0:0:
360,197,82343,1,0,1:0:0:0:
389,233,82435,1,12,0:0:0:0:
316,300,82618,1,2,0:0:0:0:
196,128,82801,6,0,P|148:120|100:136,1,93.5000028533936,6|0,0:0|0:0,0:0:0:0:
316,256,83167,2,0,P|364:264|412:248,1,93.5000028533936,8|0,0:0|0:0,0:0:0:0:
316,128,83532,1,2,0:0:0:0:
196,256,83715,1,0,0:0:0:0:
196,128,83899,2,0,P|188:80|200:28,1,93.5000028533936,8|0,0:0|0:0,0:0:0:0:
316,256,84264,6,0,P|324:304|312:356,1,93.5000028533936,2|0,0:0|0:0,0:0:0:0:
204,368,84631,1,8,0:0:0:0:
96,344,84813,2,0,P|87:298|95:252,1,93.5000028533936,2|0,0:0|0:0,0:0:0:0:
88,132,85179,1,2,0:0:0:0:
188,188,85362,1,8,0:0:0:0:
88,132,85545,1,0,0:0:0:0:
256,308,85728,6,0,B|302:314|302:314|296:260,1,93.5000028533936,2|0,0:0|0:0,0:0:0:0:
256,76,86093,2,0,B|210:70|210:70|216:124,1,93.5000028533936,8|0,0:0|0:0,0:0:0:0:
372,192,86459,2,0,B|378:146|378:146|324:152,1,93.5000028533936,2|0,0:0|0:0,0:0:0:0:
140,192,86825,2,0,B|134:238|134:238|188:232,1,93.5000028533936,8|0,0:0|0:0,0:0:0:0:
372,192,87191,6,0,P|420:184|468:196,2,93.5000028533936,2|0|8,0:0|0:0|0:0,0:0:0:0:
332,352,87740,2,0,P|396:332|416:268,1,140.25000428009,2|0,0:0|1:0,0:0:0:0:
415,267,88106,1,0,0:0:0:0:
416,100,88289,1,8,0:0:0:0:
256,44,88472,5,2,0:0:0:0:
256,44,88564,1,2,0:0:0:0:
256,44,88655,2,0,L|152:32,1,93.5000028533936,6|0,0:0|0:0,0:0:0:0:
256,132,89020,2,0,L|360:144,1,93.5000028533936,8|0,0:0|0:0,0:0:0:0:
436,212,89387,1,2,0:0:0:0:
456,100,89570,1,0,0:0:0:0:
348,142,89751,1,8,0:0:0:0:
348,256,89935,2,0,P|336:300|344:348,1,93.5000028533936,2|0,0:0|0:0,0:0:0:0:
168,346,90301,6,0,P|176:300|164:256,1,93.5000028533936,2|8,0:0|0:0,0:0:0:0:
44,200,90667,2,0,P|36:245|48:290,1,93.5000028533936,6|0,0:0|0:0,0:0:0:0:
168,346,91033,1,2,0:0:0:0:
280,352,91216,1,8,0:0:0:0:
368,192,91399,5,2,0:0:0:0:
368,192,91490,1,2,0:0:0:0:
368,192,91582,2,0,B|396:120|396:120|364:128,1,93.5000028533936,2|0,0:0|0:0,0:0:0:0:
256,192,91948,1,8,0:0:0:0:
131,260,92130,2,0,B|116:264|116:264|144:192,1,93.5000028533936,2|0,0:0|0:0,0:0:0:0:
256,98,92496,2,0,L|256:202,1,93.5000028533936,0|8,0:0|0:0,0:0:0:0:
335,324,92862,6,0,P|256:367|176:328,1,187.000005706787,6|0,0:0|0:0,0:0:0:0:
256,191,93411,1,8,0:0:0:0:
335,324,93593,2,0,P|380:332|428:320,1,93.5000028533936,6|0,0:0|0:0,0:0:0:0:
172,324,93959,2,0,P|127:316|79:328,1,93.5000028533936,8|0,0:0|0:0,0:0:0:0:
256,376,94325,1,6,0:0:0:0:
256,192,94508,12,6,97435,0:0:0:0:
140,256,99447,5,4,3:0:0:0:
372,128,99813,1,8,3:0:0:0:
256,192,99996,2,0,L|256:300,1,85,0|0,3:0|0:0,0:0:0:0:
372,128,100362,5,6,0:0:0:0:
372,128,100545,2,0,L|372:40,1,85,0|8,0:0|0:0,0:0:0:0:
276,80,100910,1,2,0:0:0:0:
188,132,101093,2,0,P|144:144|96:128,1,85,8|0,0:0|0:0,0:0:0:0:
36,60,101460,1,8,0:0:0:0:
188,132,101643,2,0,L|188:216,1,85,2|0,0:0|0:0,0:0:0:0:
256,368,102008,5,2,0:0:0:0:
336,308,102191,2,0,P|344:264|336:223,1,85,8|0,0:0|0:0,0:0:0:0:
256,164,102557,1,2,0:0:0:0:
176,224,102740,2,0,P|168:268|176:309,1,85,0|8,0:0|0:0,0:0:0:0:
256,368,103106,1,0,0:0:0:0:
256,164,103289,6,0,L|256:64,1,85,6|0,0:0|0:0,0:0:0:0:
168,28,103655,1,8,0:0:0:0:
72,56,103837,2,0,L|28:56,2,42.5,2|2|10,0:0|0:0|0:0,0:0:0:0:
168,28,104204,1,2,0:0:0:0:
256,79,104387,2,0,P|296:88|340:76,1,85,8|0,0:0|0:0,0:0:0:0:
492,20,104752,5,2,0:0:0:0:
492,20,104935,2,0,L|484:112,1,85,0|8,0:0|0:0,0:0:0:0:
472,208,105301,1,0,0:0:0:0:
372,192,105484,1,2,0:0:0:0:
384,92,105667,1,0,0:0:0:0:
484,104,105849,2,0,L|528:108,2,42.5,10|2|2,0:0|0:0|0:0,0:0:0:0:
256,192,106215,6,0,P|200:216|100:168,1,170,6|8,0:0|0:0,0:0:0:0:
121,24,106765,1,0,0:0:0:0:
121,24,106947,2,0,P|145:80|97:180,1,170,10|8,0:0|0:0,0:0:0:0:
48,92,107496,1,0,0:0:0:0:
220,44,107679,6,0,P|256:32|304:44,1,85,2|0,0:0|0:0,0:0:0:0:
360,160,108045,2,0,P|324:172|276:160,1,85,8|0,0:0|0:0,0:0:0:0:
220,44,108410,1,2,0:0:0:0:
172,132,108593,1,0,0:0:0:0:
152,232,108777,2,0,P|144:272|156:320,1,85,8|0,0:0|0:0,0:0:0:0:
390,306,109143,6,0,P|325:255|244:268,1,170,6|8,0:0|0:0,0:0:0:0:
300,352,109691,1,0,0:0:0:0:
356,176,109874,2,0,L|380:88,1,85,8|0,0:0|0:0,0:0:0:0:
284,32,110240,2,0,L|260:120,1,85,8|0,0:0|0:0,0:0:0:0:
228,352,110606,6,0,L|252:264,1,85,2|0,0:0|0:0,0:0:0:0:
156,208,110971,2,0,L|132:296,1,85,8|0,0:0|0:0,0:0:0:0:
56,360,111338,1,2,0:0:0:0:
24,264,111521,1,2,0:0:0:0:
24,264,111703,2,0,L|46:181,1,85,8|0,0:0|0:0,0:0:0:0:
128,56,112069,5,6,0:0:0:0:
128,56,112160,1,2,0:0:0:0:
128,56,112252,2,0,P|168:48|212:60,1,85,2|8,0:0|0:0,0:0:0:0:
256,192,112618,1,0,0:0:0:0:
301,58,112801,2,0,P|342:48|384:56,1,85,2|0,0:0|0:0,0:0:0:0:
464,160,113167,1,8,0:0:0:0:
348,216,113349,2,0,P|337:175|345:133,1,85,2|0,0:0|0:0,0:0:0:0:
425,284,113715,5,2,0:0:0:0:
359,361,113898,1,8,0:0:0:0:
281,294,114081,1,0,0:0:0:0:
348,216,114264,1,2,0:0:0:0:
425,284,114447,2,0,P|468:296|512:280,1,85,2|8,0:0|0:0,0:0:0:0:
464,192,114813,1,0,0:0:0:0:
392,96,114996,6,0,P|349:84|305:100,1,85,2|0,0:0|0:0,0:0:0:0:
256,192,115362,1,8,0:0:0:0:
200,288,115545,2,0,P|160:300|120:288,1,85,2|0,0:0|0:0,0:0:0:0:
164,140,115910,2,0,P|175:180|163:220,1,85,0|8,0:0|0:0,0:0:0:0:
16,176,116276,2,0,P|56:164|96:176,1,85,2|0,0:0|0:0,0:0:0:0:
200,288,116642,6,0,P|240:300|280:288,1,85,0|8,0:0|0:0,0:0:0:0:
380,164,117008,2,0,P|339:151|299:163,1,85,2|0,0:0|0:0,0:0:0:0:
200,288,117374,1,2,0:0:0:0:
132,212,117557,1,8,0:0:0:0:
232,184,117740,1,2,0:0:0:0:
96,304,117923,6,0,P|52:312|0:296,1,85,2|0,0:0|0:0,0:0:0:0:
232,184,118289,2,0,P|276:176|328:192,1,85,8|0,0:0|0:0,0:0:0:0:
380,232,118563,1,2,0:0:0:0:
380,232,118655,2,0,P|392:188|376:140,2,85,2|0|8,0:0|0:0|0:0,0:0:0:0:
132,232,119203,6,0,P|120:188|136:140,1,85,2|0,0:0|0:0,0:0:0:0:
196,72,119569,1,0,0:0:0:0:
132,232,119752,2,0,L|40:248,1,85,8|0,0:0|0:0,0:0:0:0:
156,320,120118,2,0,L|248:304,1,85,2|0,0:0|0:0,0:0:0:0:
340,196,120484,6,0,P|344:152|332:108,1,85,8|0,0:0|0:0,0:0:0:0:
177,112,120849,2,0,P|167:153|172:196,1,85,2|0,0:0|0:0,0:0:0:0:
256,288,121216,1,8,0:0:0:0:
340,196,121399,2,0,P|380:188|428:196,1,85,2|0,0:0|0:0,0:0:0:0:
172,196,121764,2,0,P|132:204|84:196,1,85,0|8,0:0|0:0,0:0:0:0:
256,28,122130,6,0,L|256:124,1,85,2|0,0:0|0:0,0:0:0:0:
256,216,122496,1,0,0:0:0:0:
344,164,122679,1,8,0:0:0:0:
256,113,122862,1,0,0:0:0:0:
176,176,123045,2,0,L|88:188,1,85,2|0,0:0|0:0,0:0:0:0:
344,164,123410,2,0,L|432:152,1,85,8|0,0:0|0:0,0:0:0:0:
392,320,123776,6,0,L|304:332,1,85,6|0,0:0|0:0,0:0:0:0:
120,320,124142,2,0,L|208:332,1,85,2|0,0:0|0:0,0:0:0:0:
256,207,124508,2,0,B|286:116|225:131|256:40,1,170,8|0,0:0|0:0,0:0:0:0:
348,84,125057,1,0,0:0:0:0:
176,156,125240,6,0,P|132:164|88:156,2,85,2|0|0,0:0|1:0|0:0,0:0:0:0:
348,84,125789,1,0,1:0:0:0:
348,84,125971,2,0,P|392:76|436:84,1,85,8|0,0:0|0:0,0:0:0:0:
431,301,126337,2,0,P|389:307|348:300,1,85,2|0,0:0|0:0,0:0:0:0:
216,192,126703,6,0,B|168:156|100:164|68:176|72:224|120:224|124:188,1,170,6|0,0:0|0:0,0:0:0:0:
140,88,127252,1,0,0:0:0:0:
140,88,127435,2,0,P|132:44|140:4,2,85,8|0|0,0:0|0:0|0:0,0:0:0:0:
328,192,127984,6,0,L|416:192,1,85,2|0,0:0|0:0,0:0:0:0:
184,192,128349,2,0,L|96:192,2,85,2|0|0,0:0|0:0|0:0,0:0:0:0:
256,112,128898,2,0,P|264:72|252:24,1,85,8|0,0:0|0:0,0:0:0:0:
256,272,129264,2,0,P|248:312|260:360,1,85,2|0,0:0|0:0,0:0:0:0:
256,112,129630,6,0,P|212:104|164:116,1,85,6|0,0:0|0:0,0:0:0:0:
256,272,129996,2,0,P|300:280|348:268,1,85
396,228,130271,1,2,0:0:0:0:
396,228,130362,2,0,L|396:132,1,85,8|0,0:0|0:0,0:0:0:0:
364,48,130728,1,2,0:0:0:0:
464,68,130910,1,0,0:0:0:0:
256,192,131094,6,0,P|216:204|156:192,1,85,2|8,0:0|0:0,0:0:0:0:
332,208,131459,2,0,P|312:248|264:272,1,85,2|8,0:0|0:0,0:0:0:0:
400,164,131825,2,0,P|412:206|393:257,1,85,8|0,0:0|0:0,0:0:0:0:
420,84,132191,2,0,P|458:106|479:156,1,85,8|0,0:0|0:0,0:0:0:0:
278,268,132557,6,0,B|252:280|252:280|188:280,1,85,6|0,0:0|0:0,0:0:0:0:
96,200,132923,2,0,L|40:200,1,42.5,2|0,0:0|1:0,0:0:0:0:
56,276,133106,2,0,L|-4:276,2,42.5,0|0|8,1:0|1:0|0:0,0:0:0:0:
195,280,133472,2,0,P|204:236|192:184,1,85,2|0,0:0|0:0,0:0:0:0:
317,104,133837,6,0,P|308:148|320:200,1,85,10|0,0:0|0:0,0:0:0:0:
396,330,134204,1,0,0:0:0:0:
314,187,134387,1,8,0:0:0:0:
297,352,134569,1,2,0:0:0:0:
407,229,134752,1,8,0:0:0:0:
245,263,134935,1,0,0:0:0:0:
396,330,135118,1,2,0:0:0:0:
314,187,135301,1,0,0:0:0:0:
297,352,135484,6,0,P|232:372|172:340,1,140.25000428009,6|0,0:0|0:0,0:0:0:0:
144,268,135850,1,8,0:0:0:0:
256,124,136032,2,0,P|321:104|381:136,1,140.25000428009,6|0,0:0|0:0,0:0:0:0:
409,208,136398,1,2,0:0:0:0:
448,64,136582,1,8,0:0:0:0:
476,164,136764,6,0,P|488:208|468:264,2,93.5000028533936,6|0|0,0:0|0:0|0:0,0:0:0:0:
388,40,137313,1,8,0:0:0:0:
256,96,137496,2,0,B|164:112|152:20|152:20|176:52,1,187.000005706787,6|0,0:0|0:0,0:0:0:0:
256,192,138045,1,8,0:0:0:0:
336,336,138228,5,2,0:0:0:0:
336,336,138319,1,2,0:0:0:0:
336,336,138410,2,0,B|358:366|358:366|346:274|254:290,1,187.000005706787,6|8,0:0|0:0,0:0:0:0:
112,288,138959,2,0,P|80:200|128:108,1,187.000005706787,6|4,0:0|0:0,0:0:0:0:
256,192,139508,1,8,0:0:0:0:
400,288,139691,2,0,P|416:224|396:148,1,140.25000428009,6|0,0:0|0:0,0:0:0:0:
344,104,140057,6,0,P|380:80|432:84,1,93.5000028533936,8|8,0:0|0:0,0:0:0:0:
256,192,140423,1,4,0:0:0:0:
256,192,140514,2,0,P|220:216|168:212,1,93.5000028533936,8|0,0:0|0:0,0:0:0:0:
100,176,140789,1,0,1:0:0:0:
100,176,140880,1,0,1:0:0:0:
100,176,140972,2,0,L|92:232,1,46.7500014266968,8|0,0:0|1:0,0:0:0:0:
20,184,141154,2,0,L|28:128,1,46.7500014266968
40,48,141337,6,0,P|104:24|184:56,1,140.25000428009,6|0,0:0|0:0,0:0:0:0:
232,96,141704,1,8,0:0:0:0:
148,264,141887,2,0,P|93:215|111:108,1,187.000005706787,6|2,0:0|0:0,0:0:0:0:
232,96,142435,1,8,0:0:0:0:
260,272,142618,6,0,P|199:329|148:264,1,187.000005706787,6|0,0:0|0:0,0:0:0:0:
208,168,143167,1,8,0:0:0:0:
308,116,143350,2,0,P|352:104|404:116,1,93.5000028533936,2|0,0:0|0:0,0:0:0:0:
208,168,143716,1,2,0:0:0:0:
208,168,143807,1,2,0:0:0:0:
208,168,143898,2,0,P|164:180|112:168,1,93.5000028533936,2|0,0:0|0:0,0:0:0:0:
308,116,144264,6,0,P|332:172|296:256,1,140.25000428009,6|0,0:0|0:0,0:0:0:0:
256,296,144630,1,8,0:0:0:0:
120,272,144813,1,0,1:0:0:0:
208,168,144996,1,8,0:0:0:0:
180,324,145179,1,0,1:0:0:0:
44,300,145362,1,8,0:0:0:0:
132,196,145545,2,0,P|148:124|120:64,1,140.25000428009,6|0,0:0|0:0,0:0:0:0:
48,36,145911,6,0,L|-16:44,1,59.4999981842042,2|0,0:0|0:0,0:0:0:0:
48,36,146093,2,0,L|236:16,1,178.499994552612,2|0,0:0|0:0,0:0:0:0:
300,52,146460,6,0,L|308:116,1,63.7500024318696,2|0,0:0|0:0,0:0:0:0:
384,76,146642,2,0,L|392:140,1,63.7500024318696,2|0,0:0|0:0,0:0:0:0:
460,36,146826,6,0,L|472:132,1,85,2|0,0:0|0:0,0:0:0:0:
480,204,147100,1,2,0:0:0:0:
480,204,147191,6,0,P|444:232|396:236,1,93.5000028533936,6|0,0:0|0:0,0:0:0:0:
164,160,147557,2,0,P|200:132|248:128,1,93.5000028533936,8|2,0:0|0:0,0:0:0:0:
397,236,147923,1,0,0:0:0:0:
240,284,148106,1,2,0:0:0:0:
246,127,148289,2,0,L|246:31,1,93.5000028533936,8|0,0:0|0:0,0:0:0:0:
266,257,148654,6,0,L|266:353,1,93.5000028533936,2|0,0:0|0:0,0:0:0:0:
144,264,149021,1,8,0:0:0:0:
144,264,149204,2,0,L|144:168,1,93.5000028533936,2|0,0:0|0:0,0:0:0:0:
256,148,149569,1,0,1:0:0:0:
180,64,149752,1,8,0:0:0:0:
256,148,149935,1,0,0:0:0:0:
312,296,150118,6,0,P|351:298|357:248,1,93.5000028533936,2|0,0:0|0:0,0:0:0:0:
200,88,150484,2,0,P|160:85|154:135,1,93.5000028533936,8|0,0:0|0:0,0:0:0:0:
360,136,150849,2,0,P|362:96|312:90,1,93.5000028533936,2|0,0:0|0:0,0:0:0:0:
152,248,151215,2,0,P|149:287|199:293,1,93.5000028533936,8|0,0:0|0:0,0:0:0:0:
360,136,151582,5,2,0:0:0:0:
360,136,151765,2,0,P|408:128|456:136,1,93.5000028533936,2|8,0:0|0:0,0:0:0:0:
408,240,152130,2,0,P|340:252|268:236,1,140.25000428009,2|0,0:0|1:0,0:0:0:0:
216,184,152496,1,0,0:0:0:0:
256,52,152679,1,8,0:0:0:0:
360,136,152862,5,2,0:0:0:0:
360,136,152954,1,2,0:0:0:0:
360,136,153045,2,0,L|376:236,1,93.5000028533936,6|0,0:0|0:0,0:0:0:0:
252,336,153410,2,0,L|236:236,1,93.5000028533936,8|0,0:0|0:0,0:0:0:0:
208,84,153777,1,2,0:0:0:0:
360,136,153960,1,0,0:0:0:0:
237,243,154143,1,8,0:0:0:0:
208,84,154325,2,0,L|108:48,1,93.5000028533936,2|0,0:0|0:0,0:0:0:0:
156,172,154691,6,0,L|56:208,1,93.5000028533936,0|8,0:0|0:0,0:0:0:0:
237,243,155057,2,0,L|184:335,1,93.5000028533936,2|0,0:0|0:0,0:0:0:0:
104,372,155423,1,0,0:0:0:0:
120,272,155606,1,8,0:0:0:0:
312,280,155789,5,2,0:0:0:0:
312,280,155880,1,2,0:0:0:0:
312,280,155972,2,0,L|420:280,1,93.5000028533936,2|0,0:0|0:0,0:0:0:0:
480,192,156338,1,8,0:0:0:0:
405,104,156520,2,0,L|312:104,1,93.5000028533936,0|8,1:0|0:0,0:0:0:0:
256,192,156887,1,2,0:0:0:0:
256,192,156978,1,2,0:0:0:0:
256,192,157069,1,10,0:0:0:0:
172,312,157252,6,0,P|112:256|120:156,1,187.000005706787,6|0,0:0|0:0,0:0:0:0:
237,41,157801,1,8,0:0:0:0:
280,20,157892,1,0,1:0:0:0:
328,20,157983,1,0,1:0:0:0:
369,42,158074,1,0,1:0:0:0:
394,81,158166,1,0,1:0:0:0:
397,127,158257,1,0,1:0:0:0:
375,167,158349,1,0,1:0:0:0:
336,192,158440,1,0,1:0:0:0:
291,194,158531,1,0,1:0:0:0:
246,206,158624,1,0,1:0:0:0:
217,242,158715,1,0,1:0:0:0:
214,287,158807,1,0,1:0:0:0:
236,328,158898,6,0,P|280:340|336:324,1,93.5000028533936,6|0,0:0|0:0,0:0:0:0:
480,232,159264,2,0,P|436:220|380:236,1,93.5000028533936,8|0,0:0|0:0,0:0:0:0:
325,329,159630,1,2,0:0:0:0:
432,300,159813,1,0,0:0:0:0:
440,136,159997,2,0,L|444:36,1,93.5000028533936,8|0,0:0|0:0,0:0:0:0:
340,104,160362,6,0,P|292:116|244:100,1,93.5000028533936,2|0,0:0|0:0,0:0:0:0:
164,20,160729,1,8,0:0:0:0:
160,160,160911,2,0,L|160:253,1,93.5000028533936,2|0,0:0|0:0,0:0:0:0:
116,356,161277,1,2,0:0:0:0:
228,336,161460,1,8,0:0:0:0:
116,356,161643,1,0,0:0:0:0:
312,264,161826,6,0,P|360:272|404:256,1,93.5000028533936,6|0,0:0|0:0,0:0:0:0:
200,120,162191,2,0,P|152:112|108:128,1,93.5000028533936,8|0,0:0|0:0,0:0:0:0:
328,136,162557,2,0,P|336:88|320:44,1,93.5000028533936,2|0,0:0|0:0,0:0:0:0:
184,248,162923,2,0,P|176:296|192:340,1,93.5000028533936,8|0,0:0|0:0,0:0:0:0:
200,120,163289,6,0,P|152:112|108:128,2,93.5000028533936,2|0|8,0:0|0:0|0:0,0:0:0:0:
316,208,163838,2,0,P|380:188|400:124,1,140.25000428009,4|0,0:0|1:0,0:0:0:0:
376,56,164203,1,0,0:0:0:0:
256,20,164387,1,8,0:0:0:0:
200,120,164570,5,2,0:0:0:0:
200,120,164660,1,2,0:0:0:0:
200,120,164753,2,0,L|184:224,1,93.5000028533936,6|0,0:0|0:0,0:0:0:0:
312,264,165118,2,0,L|328:160,1,93.5000028533936,8|0,0:0|0:0,0:0:0:0:
308,32,165485,1,2,0:0:0:0:
200,120,165668,1,0,0:0:0:0:
326,171,165849,1,8,0:0:0:0:
216,32,166033,2,0,P|168:32|128:64,1,93.5000028533936,2|0,0:0|0:0,0:0:0:0:
180,204,166398,6,0,P|228:204|268:172,1,93.5000028533936,2|8,0:0|0:0,0:0:0:0:
364,28,166764,2,0,P|316:28|276:60,1,93.5000028533936,6|0,0:0|0:0,0:0:0:0:
263,178,167131,1,0,0:0:0:0:
376,128,167314,1,8,0:0:0:0:
188,108,167496,6,0,B|119:104|119:104|92:124,1,93.5000028533936,6|0,0:0|0:0,0:0:0:0:
28,192,167862,1,0,0:0:0:0:
128,212,168046,1,8,0:0:0:0:
188,108,168228,2,0,P|200:60|192:16,1,93.5000028533936,2|0,0:0|0:0,0:0:0:0:
319,17,168593,2,0,P|312:63|324:108,1,93.5000028533936,0|8,0:0|0:0,0:0:0:0:
456,200,168959,6,0,P|372:208|320:292,1,187.000005706787,6|8,0:0|0:0,0:0:0:0:
424,300,169509,1,10,0:0:0:0:
488,100,169691,2,0,L|500:4,1,93.5000028533936,10|0,0:0|0:0,0:0:0:0:
364,104,170057,2,0,L|352:200,1,93.5000028533936,10|0,0:0|0:0,0:0:0:0:
266,118,170423,2,0,P|299:10|363:103,1,280.500008560181,6|8,0:0|0:0,0:0:0:0:
176,256,179386,6,0,B|220:200|208:128|188:120|156:120|152:156|188:164,1,170,6|8,0:0|0:0,0:0:0:0:
340,155,179935,2,0,B|360:156|356:120|324:120|304:128|292:200|336:256,1,170,6|0,0:0|0:0,0:0:0:0:
256,344,180484,1,8,0:0:0:0:
134,327,180667,6,0,P|103:262|176:256,1,170,6|0,0:0|0:0,0:0:0:0:
256,344,181215,1,8,0:0:0:0:
377,327,181398,2,0,P|408:262|335:256,1,170,6|0,0:0|0:0,0:0:0:0:
256,344,181947,1,8,0:0:0:0:
196,188,182130,6,0,L|180:96,1,85,6|0,0:0|0:0,0:0:0:0:
100,56,182496,1,8,0:0:0:0:
184,16,182679,1,8,0:0:0:0:
100,152,182862,1,2,0:0:0:0:
100,152,182953,2,0,L|120:280,1,127.5,8|0,0:0|0:0,0:0:0:0:
208,312,183410,1,8,0:0:0:0:
360,132,183593,6,0,B|393:100|395:57|395:57|351:55|318:87,1,170,6|0,0:0|0:0,0:0:0:0:
256,192,184142,1,8,0:0:0:0:
193,296,184325,2,0,B|160:328|116:326|116:326|118:283|152:252,1,170,6|0,0:0|0:0,0:0:0:0:
256,192,184874,1,8,0:0:0:0:
360,254,185057,2,0,B|392:287|390:331|390:331|347:329|316:296,1,170,6|2,0:0|0:0,0:0:0:0:
256,192,185606,1,8,0:0:0:0:
196,88,185789,2,0,B|164:54|121:52|121:52|119:96|151:129,1,170,6|0,0:0|0:0,0:0:0:0:
256,192,186337,1,8,0:0:0:0:
360,254,186520,6,0,P|436:288|516:240,1,170,6|0,0:0|0:0,0:0:0:0:
432,188,187069,1,8,0:0:0:0:
432,188,187252,2,0,L|432:100,2,85,2|0|0,0:0|0:0|0:0,0:0:0:0:
360,254,187801,1,8,0:0:0:0:
256,192,187984,6,0,B|176:156|172:224|80:188,1,170,6|0,0:0|0:0,0:0:0:0:
24,124,188532,1,8,0:0:0:0:
92,60,188715,2,0,B|173:27|177:95|257:59,1,170,2|0,0:0|0:0,0:0:0:0:
328,124,189264,1,8,0:0:0:0:
404,208,189447,6,0,P|420:272|364:360,1,170,6|2,0:0|0:0,0:0:0:0:
256,364,189996,1,8,0:0:0:0:
142,357,190179,2,0,P|94:289|108:208,1,170,6|0,0:0|0:0,0:0:0:0:
176,140,190728,1,8,0:0:0:0:
256,192,190910,1,6,0:0:0:0:
256,192,191002,12,0,193289,0:0:0:0:
208,136,193654,5,2,0:0:0:0:
308,144,193837,1,0,0:0:0:0:
256,228,194020,2,0,P|172:236|120:188,1,152.999995330811,2|0,0:0|0:0,0:0:0:0:
20,24,194752,1,2,0:0:0:0:
12,124,194935,1,0,0:0:0:0:
100,80,195118,1,2,0:0:0:0:
296,120,195484,6,0,P|336:112|372:120,1,76.4999976654053,2|0,0:0|0:0,0:0:0:0:
440,192,195850,1,2,0:0:0:0:
370,264,196032,2,0,P|333:272|296:264,1,76.4999976654053
228,192,196398,1,0,0:0:0:0:
144,136,196581,1,2,0:0:0:0:
52,172,196764,1,0,0:0:0:0:
92,264,196947,6,0,P|128:276|176:264,1,76.4999976654053,2|0,0:0|0:0,0:0:0:0:
216,356,197313,2,0,P|245:331|260:284,1,76.4999976654053,2|0,0:0|0:0,0:0:0:0:
360,296,197679,2,0,P|355:258|323:220,1,76.4999976654053,2|0,0:0|0:0,0:0:0:0:
384,144,198045,2,0,P|349:128|300:135,1,76.4999976654053,2|0,0:0|0:0,0:0:0:0:
232,192,198410,2,0,B|140:212|92:152|96:96|148:52|208:56|236:96|220:144|172:128,1,305.999990661621,2|0,0:0|0:0,0:0:0:0:
12,20,199508,5,2,0:0:0:0:
12,20,199691,1,0,0:0:0:0:
12,20,199874,2,0,L|24:180,1,152.999995330811,2|0,0:0|0:0,0:0:0:0:
144,332,200606,5,2,0:0:0:0:
239,361,200789,1,0,0:0:0:0:
268,265,200971,1,2,0:0:0:0:
173,236,201154,2,0,P|164:196|172:152,1,76.4999976654053
256,64,201520,6,0,P|265:104|257:148,1,76.4999976654053,2|0,0:0|0:0,0:0:0:0:
168,161,201886,2,0,L|84:176,1,76.4999976654053,2|0,0:0|0:0,0:0:0:0:
4,128,202252,1,0,0:0:0:0:
12,228,202435,1,2,0:0:0:0:
225,270,202618,5,2,0:0:0:0:
225,270,202709,1,2,0:0:0:0:
225,270,202801,1,6,0:0:0:0:
334,222,202984,1,0,1:0:0:0:
286,113,203167,1,8,0:0:0:0:
177,161,203349,1,0,1:0:0:0:
298,287,203532,1,8,0:0:0:0:
351,149,203715,1,0,1:0:0:0:
213,96,203898,1,0,1:0:0:0:
160,234,204081,6,0,B|144:328|144:328|104:280,1,127.5,6|0,0:0|0:0,0:0:0:0:
72,236,204447,6,0,P|36:232|12:236,1,59.4999981842042,2|0,0:0|0:0,0:0:0:0:
72,236,204630,2,0,P|84:168|64:116,1,118.999996368408,2|0,0:0|0:0,0:0:0:0:
188,40,204996,6,0,L|252:28,1,63.7500024318696,2|0,0:0|0:0,0:0:0:0:
256,108,205179,2,0,L|320:96,1,63.7500024318696,2|0,0:0|0:0,0:0:0:0:
292,178,205362,6,0,L|376:164,1,85,2|0,0:0|0:0,0:0:0:0:
211,303,205728,6,0,L|120:320,1,93.5000028533936,6|0,0:0|0:0,0:0:0:0:
292,178,206094,2,0,P|304:132|288:76,1,93.5000028533936,8|0,0:0|0:0,0:0:0:0:
224,12,206460,1,2,0:0:0:0:
197,111,206643,1,0,0:0:0:0:
240,240,206825,2,0,P|280:260|332:248,1,93.5000028533936,8|0,0:0|0:0,0:0:0:0:
197,111,207191,6,0,P|157:91|105:103,1,93.5000028533936,2|0,0:0|0:0,0:0:0:0:
44,196,207558,1,8,0:0:0:0:
136,260,207740,2,0,P|156:220|144:168,1,93.5000028533936,2|0,0:0|0:0,0:0:0:0:
147,173,208015,1,0,1:0:0:0:
147,173,208106,1,0,1:0:0:0:
44,196,208289,1,8,0:0:0:0:
40,300,208472,1,0,0:0:0:0:
324,328,208655,6,0,P|320:280|292:232,1,93.5000028533936,2|0,0:0|0:0,0:0:0:0:
188,56,209020,2,0,P|192:104|220:152,1,93.5000028533936,8|0,0:0|0:0,0:0:0:0:
392,124,209386,2,0,P|344:128|296:156,1,93.5000028533936,2|0,0:0|0:0,0:0:0:0:
120,260,209752,2,0,P|168:256|216:228,1,93.5000028533936,8|0,0:0|0:0,0:0:0:0:
392,124,210119,5,2,0:0:0:0:
392,124,210301,2,0,L|408:224,1,93.5000028533936,0|8,0:0|0:0,0:0:0:0:
332,64,210667,2,0,P|380:40|460:80,1,140.25000428009,2|0,0:0|1:0,0:0:0:0:
454,72,211033,1,0,0:0:0:0:
484,192,211215,1,8,0:0:0:0:
416,320,211399,5,2,0:0:0:0:
416,320,211491,1,2,0:0:0:0:
416,320,211582,2,0,P|368:332|316:312,1,93.5000028533936,6|0,0:0|0:0,0:0:0:0:
184,264,211947,2,0,P|139:251|94:263,1,93.5000028533936,8|0,0:0|0:0,0:0:0:0:
256,360,212314,1,2,0:0:0:0:
256,228,212497,1,0,0:0:0:0:
326,319,212680,1,8,0:0:0:0:
328,156,212863,6,0,B|332:76|332:76|300:100,1,93.5000028533936,2|0,0:0|0:0,0:0:0:0:
184,228,213228,2,0,B|180:308|180:308|212:284,1,93.5000028533936,2|8,0:0|0:0,0:0:0:0:
328,228,213593,2,0,B|332:308|332:308|321:299,1,93.5000028533936,6|0,0:0|0:0,0:0:0:0:
256,192,213960,1,0,0:0:0:0:
256,192,214143,1,8,0:0:0:0:
200,80,214325,6,0,L|96:80,1,93.5000028533936,6|0,0:0|0:0,0:0:0:0:
20,28,214691,1,0,0:0:0:0:
16,132,214875,1,8,0:0:0:0:
199,169,215058,2,0,P|212:124|200:80,1,93.5000028533936,2|0,0:0|0:0,0:0:0:0:
16,132,215423,2,0,P|3:176|15:221,1,93.5000028533936,0|8,0:0|0:0,0:0:0:0:
124,336,215789,6,0,P|142:245|74:177,1,187.000005706787,6|0,0:0|0:0,0:0:0:0:
52,272,216337,1,8,0:0:0:0:
220,224,216520,2,0,L|316:200,1,93.5000028533936,12|0,0:0|0:0,0:0:0:0:
428,272,216886,2,0,L|332:296,1,93.5000028533936,6|0,0:0|0:0,0:0:0:0:
220,224,217252,6,0,P|192:180|192:132,1,93.5000028533936,6|0,0:0|0:0,0:0:0:0:
256,28,217618,1,0,0:0:0:0:
256,28,217801,1,0,0:0:0:0:
321,139,217984,2,0,P|318:185|292:224,1,93.5000028533936,6|8,0:0|0:0,0:0:0:0:
144,244,218349,2,0,P|147:197|173:159,1,93.5000028533936,2|0,0:0|0:0,0:0:0:0:
212,288,218715,6,0,P|128:324|64:256,1,187.000005706787,6|0,0:0|1:0,0:0:0:0:
131,77,219264,1,8,0:0:0:0:
238,205,219447,1,8,0:0:0:0:
76,164,219630,1,8,0:0:0:0:
231,101,219813,2,0,L|324:96,1,93.5000028533936,10|0,0:0|0:0,0:0:0:0:
144,244,220179,1,6,0:0:0:0:
256,192,220270,12,0,221825,0:0:0:0:
