osu file format v14

[General]
AudioFilename: Roll Ground.mp3
AudioLeadIn: 1000
PreviewTime: 146826
Countdown: 0
SampleSet: Soft
StackLeniency: 0.5
Mode: 0
LetterboxInBreaks: 0
EpilepsyWarning: 1
WidescreenStoryboard: 1

[Editor]
DistanceSpacing: 1
BeatDivisor: 4
GridSize: 4
TimelineZoom: 1

[Metadata]
Title:Roll Ground
TitleUnicode:Roll Ground
Artist:FELT
ArtistUnicode:FELT
Creator:Natsu
Version:Hard
Source:東方Project
Tags:Kanari touhou 舞花 美歌 Ground Snow NAGI☆ 月まで届け、不死の煙 東方永夜抄 ~ Imperishable Night Extra Stage Boss Theme Maika Mika Fujiwara no Mokou Comiket 83
BeatmapID:727969
BeatmapSetID:327587

[Difficulty]
HPDrainRate:6
CircleSize:4
OverallDifficulty:6
ApproachRate:7
SliderMultiplier:1.5
SliderTickRate:1

[Events]
//Background and Video events
0,0,"w.jpg",0,0
//Break Periods
2,171171,178486
//Storyboard Layer 0 (Background)
//Storyboard Layer 1 (Fail)
//Storyboard Layer 2 (Pass)
//Storyboard Layer 3 (Foreground)
//Storyboard Sound Samples

[TimingPoints]
850,365.853658536585,4,2,1,40,1,0
18045,-100,4,2,2,50,0,0
18136,-100,4,2,1,40,0,0
23898,-100,4,2,2,50,0,0
23990,-100,4,2,1,55,0,0
29752,-100,4,2,2,55,0,0
29843,-100,4,2,1,55,0,0
35606,-100,4,2,2,55,0,0
35697,-100,4,2,1,55,0,0
41459,-100,4,2,2,55,0,0
41642,-100,4,2,1,55,0,0
47313,-100,4,2,2,55,0,0
47404,-100,4,2,1,60,0,0
57740,-100,4,2,2,65,0,0
59386,-100,4,2,2,70,0,0
69813,-83.3333333333333,4,2,1,70,0,0
71093,-100,4,2,2,75,0,1
82709,-100,4,2,2,75,0,0
82801,-100,4,2,2,75,0,1
94325,-100,4,2,1,75,0,0
94508,-100,4,2,1,45,0,0
99447,-100,4,2,1,60,0,0
101093,-100,4,2,2,60,0,0
101460,-100,4,2,1,60,0,0
104020,-100,4,2,2,60,0,0
104387,-100,4,2,1,60,0,0
106947,-100,4,2,2,60,0,0
107313,-100,4,2,1,60,0,0
109874,-100,4,2,2,60,0,0
110240,-100,4,2,1,60,0,0
123776,-100,4,2,2,60,0,0
131094,-100,4,2,1,70,0,0
132923,-100,4,2,2,70,0,0
145911,-83.3333333333333,4,2,1,70,0,0
147191,-100,4,2,2,75,0,1
158807,-100,4,2,2,75,0,0
158898,-100,4,2,2,75,0,1
170423,-100,4,2,1,70,0,0
179386,-100,4,2,2,70,0,0
191002,-100,4,2,2,15,0,0
193654,-111.111111111111,4,2,1,45,0,0
200606,-111.111111111111,4,2,1,50,0,0
202801,-100,4,2,2,70,0,0
204447,-83.3333333333333,4,2,1,70,0,0
205728,-100,4,2,2,75,0,1
220179,-100,4,2,2,75,0,0
220270,-100,4,2,2,40,0,0

[Colours]
Combo1 : 166,18,254
Combo2 : 255,198,255
Combo3 : 82,95,252
Combo4 : 252,65,219

[HitObjects]
176,252,850,6,0,P|172:304|240:280,1,150,6|8,0:0|0:0,0:0:0:0:
256,192,1398,1,0,0:0:0:0:
272,102,1581,2,0,P|326:69|336:132,1,150,2|8,0:0|0:0,0:0:0:0:
120,144,2313,6,0,L|120:68,2,75,2|0|8,0:0|0:0|0:0,0:0:0:0:
120,236,2862,1,0,0:0:0:0:
84,316,3045,2,0,P|120:324|164:312,2,75,2|0|8,0:0|0:0|0:0,0:0:0:0:
304,236,3776,6,0,P|380:224|460:272,1,150,2|8,0:0|0:0,0:0:0:0:
200,304,4508,2,0,P|124:316|44:268,1,150,2|8,0:0|0:0,0:0:0:0:
32,200,5057,1,2,0:0:0:0:
12,112,5240,6,0,P|8:72|16:28,2,75,2|0|8,0:0|0:0|0:0,0:0:0:0:
32,200,5789,1,0,0:0:0:0:
116,232,5971,2,0,P|152:240|196:228,1,75,2|0,0:0|0:0,0:0:0:0:
192,140,6337,2,0,P|156:132|112:144,1,75,8|0,0:0|0:0,0:0:0:0:
32,200,6703,6,0,B|16:256|16:256|24:288|24:288|12:352,1,150,6|8,0:0|0:0,0:0:0:0:
192,356,7435,2,0,P|228:364|272:348,1,75,2|0,0:0|0:0,0:0:0:0:
308,276,7801,2,0,P|343:265|379:273,1,75,8|0,0:0|0:0,0:0:0:0:
436,344,8167,6,0,P|472:351|507:341,2,75,2|0|8,0:0|0:0|0:0,0:0:0:0:
379,273,8715,1,0,0:0:0:0:
376,184,8898,2,0,L|376:88,2,75,2|0|8,0:0|0:0|0:0,0:0:0:0:
256,320,9630,5,2,0:0:0:0:
172,352,9813,2,0,B|120:352|120:352|88:340,2,75,2|10|0,0:0|0:0|0:0,0:0:0:0:
256,320,10362,2,0,B|308:320|308:320|340:332,2,75,2|0|10,0:0|0:0|0:0,0:0:0:0:
172,352,10910,1,2,0:0:0:0:
188,264,11093,6,0,P|172:192|188:116,1,150,2|8,0:0|0:0,0:0:0:0:
256,64,11642,1,0,0:0:0:0:
325,118,11825,2,0,P|340:191|324:264,1,150,2|10,0:0|0:0,0:0:0:0:
256,324,12374,1,2,0:0:0:0:
128,344,12557,6,0,L|40:344,1,75,6|0,0:0|0:0,0:0:0:0:
128,344,12923,2,0,P|158:276|123:214,1,150,8|2,0:0|0:0,0:0:0:0:
40,152,13471,1,0,0:0:0:0:
40,152,13654,2,0,P|32:108|44:64,1,75,8|0,0:0|0:0,0:0:0:0:
144,28,14020,6,0,L|224:20,2,75,2|0|8,0:0|0:0|0:0,0:0:0:0:
184,108,14569,1,0,0:0:0:0:
216,192,14752,2,0,L|296:184,2,75,2|0|8,0:0|0:0|0:0,0:0:0:0:
248,276,15301,1,0,0:0:0:0:
364,348,15484,6,0,B|392:284|368:228|368:228|324:240,1,150,2|8,0:0|0:0,0:0:0:0:
248,276,16032,1,2,0:0:0:0:
248,276,16215,2,0,P|176:276|128:216,1,150,2|8,0:0|0:0,0:0:0:0:
216,192,16764,1,0,0:0:0:0:
216,192,16947,6,0,L|140:344,1,150,2|8,0:0|0:0,0:0:0:0:
124,136,17679,2,0,L|164:64,1,75,2|0,0:0|0:0,0:0:0:0:
236,20,18045,1,8,0:0:0:0:
416,68,18410,6,0,P|440:136|412:212,1,150,6|8,0:0|0:0,0:0:0:0:
336,248,18959,1,0,0:0:0:0:
248,220,19142,2,0,P|176:204|104:240,1,150,2|8,0:0|0:0,0:0:0:0:
256,344,19874,6,0,P|296:352|336:336,2,75,2|0|8,0:0|0:0|0:0,0:0:0:0:
288,260,20423,1,0,0:0:0:0:
327,178,20606,2,0,P|292:167|256:176,2,75,2|0|8,0:0|0:0|0:0,0:0:0:0:
76,244,21337,6,0,L|64:168,1,75,2|2,0:0|0:0,0:0:0:0:
140,116,21703,2,0,L|128:41,2,75,8|0|2,0:0|0:0|0:0,0:0:0:0:
224,148,22252,1,0,0:0:0:0:
224,148,22435,2,0,L|235:222,1,75,8|0,0:0|0:0,0:0:0:0:
256,312,22801,6,0,P|292:316|340:300,2,75,2|0|8,0:0|0:0|0:0,0:0:0:0:
172,276,23349,1,0,0:0:0:0:
124,200,23532,2,0,L|124:120,1,75,2|0,0:0|0:0,0:0:0:0:
124,36,23898,1,8,0:0:0:0:
344,152,24264,5,6,0:0:0:0:
408,216,24447,2,0,P|344:244|272:208,1,150,0|0,0:0|0:0,0:0:0:0:
196,168,24996,2,0,P|188:200|200:256,1,75,2|0,0:0|0:0,0:0:0:0:
240,320,25362,1,8,0:0:0:0:
240,320,25545,2,0,L|152:328,1,75,2|0,0:0|0:0,0:0:0:0:
56,336,25910,5,0,0:0:0:0:
104,260,26093,2,0,P|112:220|104:176,1,75,8|0,0:0|0:0,0:0:0:0:
156,112,26459,1,2,0:0:0:0:
208,184,26642,2,0,P|203:221|211:257,1,75,0|8,0:0|0:0,0:0:0:0:
276,320,27008,1,0,0:0:0:0:
368,232,27191,6,0,P|392:160|352:92,1,150,2|8,0:0|0:0,0:0:0:0:
304,168,27740,2,0,P|268:176|228:168,1,75,2|2,0:0|0:0,0:0:0:0:
156,112,28106,1,2,0:0:0:0:
148,200,28289,2,0,L|144:284,1,75,8|0,0:0|0:0,0:0:0:0:
60,300,28654,5,2,0:0:0:0:
60,300,28837,2,0,L|64:216,1,75,0|8,0:0|0:0,0:0:0:0:
68,136,29203,1,0,0:0:0:0:
156,112,29386,1,2,0:0:0:0:
236,152,29569,1,0,1:0:0:0:
236,152,29660,1,0,1:0:0:0:
236,152,29752,2,0,L|332:152,1,75,8|0,0:0|0:0,0:0:0:0:
376,88,30118,6,0,P|348:160|388:224,1,150,6|8,0:0|0:0,0:0:0:0:
432,152,30667,1,0,0:0:0:0:
432,152,30849,2,0,L|268:156,1,150,2|8,0:0|0:0,0:0:0:0:
200,192,31398,1,0,0:0:0:0:
204,280,31581,6,0,P|200:316|216:364,1,75,2|0,0:0|0:0,0:0:0:0:
300,352,31947,2,0,P|309:316|305:278,1,75,8|0,0:0|0:0,0:0:0:0:
256,204,32313,1,2,0:0:0:0:
168,192,32496,2,0,L|68:192,2,75,0|8|0,0:0|0:0|0:0,0:0:0:0:
256,204,33045,6,0,P|320:192|352:108,1,150,2|8,0:0|0:0,0:0:0:0:
348,32,33593,1,2,0:0:0:0:
260,20,33776,2,0,L|176:20,2,75,0|0|8,0:0|0:0|0:0,0:0:0:0:
256,204,34508,6,0,L|172:204,1,75,2|0,0:0|0:0,0:0:0:0:
92,184,34874,2,0,P|100:248|172:296,1,150,12|2,0:0|0:0,0:0:0:0:
256,300,35423,1,0,0:0:0:0:
348,300,35606,2,0,L|424:300,1,75,8|0,0:0|0:0,0:0:0:0:
480,192,35971,5,6,0:0:0:0:
480,192,36154,2,0,P|484:152|476:112,1,75,0|8,0:0|0:0,0:0:0:0:
416,52,36520,1,0,0:0:0:0:
356,120,36703,2,0,P|349:156|353:194,1,75,2|0,0:0|0:0,0:0:0:0:
416,260,37069,1,8,0:0:0:0:
356,328,37252,2,0,L|276:328,1,75,2|0,0:0|0:0,0:0:0:0:
192,328,37618,5,0,0:0:0:0:
168,240,37801,1,8,0:0:0:0:
96,296,37984,1,0,0:0:0:0:
168,240,38167,1,2,0:0:0:0:
88,204,38349,2,0,P|80:164|88:124,2,75,2|8|0,0:0|0:0|0:0,0:0:0:0:
176,160,38898,6,0,P|216:92|204:24,1,150,6|8,0:0|0:0,0:0:0:0:
308,28,39447,1,0,0:0:0:0:
308,28,39630,2,0,P|297:100|336:163,1,150,2|8,0:0|0:0,0:0:0:0:
384,240,40179,2,0,L|304:240,1,75,2|0,0:0|0:0,0:0:0:0:
256,316,40545,5,0,0:0:0:0:
203,240,40728,1,8,0:0:0:0:
203,240,40910,2,0,P|200:200|204:164,1,75,2|0,0:0|0:0,0:0:0:0:
308,165,41276,1,0,1:0:0:0:
308,165,41368,1,0,1:0:0:0:
308,165,41459,2,0,P|312:202|309:240,1,75,8|0,0:0|0:0,0:0:0:0:
272,324,41825,6,0,L|364:324,1,75,6|0,0:0|0:0,0:0:0:0:
436,324,42191,2,0,P|456:252|428:180,1,150,8|8,0:0|0:0,0:0:0:0:
256,140,42923,2,0,P|248:96|256:64,2,75,8|2|0,0:0|0:0|0:0,0:0:0:0:
260,232,43471,5,0,0:0:0:0:
260,232,43654,2,0,P|268:276|260:308,2,75,8|0|8,0:0|0:0|0:0,0:0:0:0:
180,188,44203,1,0,0:0:0:0:
96,152,44386,6,0,P|88:120|92:76,1,75,8|0,0:0|0:0,0:0:0:0:
172,40,44752,2,0,L|252:32,1,75,2|0,0:0|0:0,0:0:0:0:
336,24,45118,1,8,0:0:0:0:
300,108,45301,2,0,P|296:144|312:184,1,75,2|0,0:0|0:0,0:0:0:0:
392,212,45667,2,0,P|396:176|380:136,1,75,0|8,0:0|0:0,0:0:0:0:
300,108,46032,6,0,L|224:104,1,75,4|0,0:0|0:0,0:0:0:0:
136,104,46398,1,0,0:0:0:0:
80,176,46581,1,8,0:0:0:0:
88,264,46764,1,2,0:0:0:0:
156,324,46947,2,0,P|192:332|232:324,1,75,8|0,0:0|0:0,0:0:0:0:
268,244,47313,2,0,P|232:236|192:244,1,75,8|0,0:0|0:0,0:0:0:0:
316,316,47679,6,0,P|352:256|324:180,1,150,6|8,0:0|0:0,0:0:0:0:
244,152,48228,1,0,0:0:0:0:
244,152,48410,2,0,P|208:92|236:16,1,150,2|8,0:0|0:0,0:0:0:0:
448,24,49142,6,0,P|471:92|435:155,1,150,2|8,0:0|0:0,0:0:0:0:
344,160,49691,1,0,0:0:0:0:
344,160,49874,2,0,L|256:160,1,75,2|0,0:0|0:0,0:0:0:0:
300,244,50240,2,0,L|212:244,1,75,8|0,0:0|0:0,0:0:0:0:
136,240,50606,6,0,P|100:164|116:100,2,150,6|0|0,0:0|3:0|0:0,0:0:0:0:
225,244,51520,1,0,0:0:0:0:
225,244,51703,1,8,0:0:0:0:
408,188,52069,6,0,B|428:160|428:160|416:132|416:132|440:96|416:40,1,150,2|8,0:0|0:0,0:0:0:0:
237,106,52801,2,0,B|217:134|217:134|229:162|229:162|205:198|229:254,1,150,2|8,0:0|0:0,0:0:0:0:
260,328,53349,1,4,0:0:0:0:
344,356,53532,6,0,L|428:356,1,75,6|0,0:0|0:0,0:0:0:0:
488,296,53898,1,8,0:0:0:0:
500,208,54081,2,0,P|504:168|488:120,2,75,0|8|0,0:0|0:0|0:0,0:0:0:0:
488,296,54630,1,8,0:0:0:0:
268,360,54996,6,0,P|244:288|264:216,1,150,2|8,0:0|0:0,0:0:0:0:
400,104,55728,2,0,P|408:64|400:24,1,75,2|0,0:0|0:0,0:0:0:0:
312,36,56093,2,0,P|304:76|312:116,1,75,8|0,0:0|0:0,0:0:0:0:
368,236,56459,6,0,L|300:272,1,75,6|0,0:0|0:0,0:0:0:0:
256,192,56825,1,8,0:0:0:0:
256,192,57008,2,0,L|188:156,1,75,2|0,0:0|1:0,0:0:0:0:
152,240,57374,2,0,L|84:276,1,75,0|0,1:0|0:0,0:0:0:0:
224,328,57740,6,0,L|292:292,1,75,12|0,0:0|0:0,0:0:0:0:
396,256,58106,2,0,P|404:292|396:336,1,75,0|12,0:0|0:0,0:0:0:0:
308,216,58471,2,0,P|299:179|305:142,1,75,2|8,0:0|0:0,0:0:0:0:
336,56,58837,1,0,0:0:0:0:
392,124,59020,1,2,0:0:0:0:
305,142,59203,1,8,0:0:0:0:
212,36,59386,6,0,P|136:16|60:40,1,150,6|8,0:0|0:0,0:0:0:0:
68,124,59935,2,0,P|144:144|220:120,1,150,6|2,0:0|0:0,0:0:0:0:
288,80,60484,1,8,0:0:0:0:
340,192,60667,6,0,P|360:268|336:344,1,150,6|0,0:0|0:0,0:0:0:0:
256,364,61215,1,8,0:0:0:0:
170,335,61398,2,0,P|151:263|172:192,1,150,6|8,0:0|0:0,0:0:0:0:
256,156,61947,1,8,0:0:0:0:
352,248,62130,5,0,1:0:0:0:
352,248,62221,1,0,1:0:0:0:
352,248,62313,2,0,B|392:272|392:272|504:244,1,150,6|8,0:0|0:0,0:0:0:0:
492,137,62862,2,0,B|392:112|392:112|352:136,1,150,6|4,0:0|0:0,0:0:0:0:
280,192,63410,1,8,0:0:0:0:
204,240,63593,2,0,P|168:248|128:240,1,75,12|0,0:0|0:0,0:0:0:0:
130,142,63959,6,0,P|167:135|204:144,1,75,12|8,0:0|0:0,0:0:0:0:
280,192,64325,2,0,P|352:216|420:192,1,150,4|8,0:0|0:0,0:0:0:0:
460,112,64874,2,0,L|460:64,2,37.5,8|0|0,0:0|1:0|1:0,0:0:0:0:
460,264,65240,6,0,P|392:296|308:292,1,150,6|8,0:0|0:0,0:0:0:0:
193,294,65789,2,0,P|119:295|51:264,1,150,6|8,0:0|0:0,0:0:0:0:
12,184,66337,1,8,0:0:0:0:
136,168,66520,6,0,B|204:120|216:52|200:20|152:16|116:48|132:76|172:68,1,225,6|8,0:0|0:0,0:0:0:0:
264,112,67252,2,0,P|328:144|408:100,1,150,2|2,0:0|0:0,0:0:0:0:
332,52,67801,1,10,0:0:0:0:
336,308,68167,6,0,P|268:320|208:264,1,150,6|8,0:0|0:0,0:0:0:0:
196,180,68715,1,0,1:0:0:0:
124,236,68898,2,0,P|84:244|40:232,2,75,8|0|8,0:0|1:0|0:0,0:0:0:0:
196,180,69447,2,0,P|236:172|280:184,1,75,6|0,0:0|0:0,0:0:0:0:
364,268,69813,5,2,0:0:0:0:
364,268,69996,2,0,L|376:84,1,179.999994506836,2|2,0:0|0:0,0:0:0:0:
464,28,70545,1,2,0:0:0:0:
464,28,70728,2,0,L|460:128,1,89.9999972534181,2|0,0:0|0:0,0:0:0:0:
456,240,71093,6,0,B|448:344|448:344|400:328,1,150,6|8,0:0|0:0,0:0:0:0:
256,192,71825,1,2,0:0:0:0:
172,228,72008,1,0,0:0:0:0:
192,140,72191,2,0,P|184:100|192:56,1,75,8|0,0:0|0:0,0:0:0:0:
323,66,72557,6,0,P|327:103|320:140,1,75,2|0,0:0|0:0,0:0:0:0:
256,204,72923,1,8,0:0:0:0:
172,236,73106,2,0,L|84:236,1,75,6|0,0:0|1:0,0:0:0:0:
20,192,73471,1,0,1:0:0:0:
20,100,73654,1,8,0:0:0:0:
100,144,73837,1,2,0:0:0:0:
20,192,74020,6,0,P|12:228|20:272,1,75,2|0,0:0|0:0,0:0:0:0:
96,352,74386,2,0,P|104:316|96:272,1,75,8|0,0:0|0:0,0:0:0:0:
96,352,74752,2,0,L|184:352,1,75,2|0,0:0|0:0,0:0:0:0:
224,280,75118,2,0,L|312:280,1,75,8|0,0:0|0:0,0:0:0:0:
380,320,75484,5,2,0:0:0:0:
380,320,75667,2,0,P|388:276|376:232,1,75,2|8,0:0|0:0,0:0:0:0:
316,184,76032,2,0,P|384:156|456:196,1,150,2|0,0:0|0:0,0:0:0:0:
382,246,76581,1,8,0:0:0:0:
272,304,76764,5,2,0:0:0:0:
272,304,76856,1,2,0:0:0:0:
272,304,76947,2,0,P|208:328|124:296,1,150,6|8,0:0|0:0,0:0:0:0:
212,140,77679,1,2,0:0:0:0:
293,101,77862,1,0,0:0:0:0:
255,20,78045,1,8,0:0:0:0:
173,58,78228,2,0,L|88:60,1,75,2|0,0:0|0:0,0:0:0:0:
212,140,78593,6,0,L|297:138,1,75,2|8,0:0|0:0,0:0:0:0:
356,196,78959,2,0,P|376:128|328:60,1,150,2|0,0:0|0:0,0:0:0:0:
286,138,79508,1,8,0:0:0:0:
200,224,79691,5,2,0:0:0:0:
200,224,79782,1,2,0:0:0:0:
200,223,79874,2,0,P|192:260|200:308,1,75,2|0,0:0|0:0,0:0:0:0:
256,364,80240,1,2,0:0:0:0:
315,296,80423,2,0,P|319:259|312:223,1,75,0|8,1:0|0:0,0:0:0:0:
256,152,80789,1,2,0:0:0:0:
256,152,80971,1,10,0:0:0:0:
191,87,81154,6,0,P|258:60|324:92,1,150,6|0,0:0|0:0,0:0:0:0:
372,168,81703,2,0,L|392:212,3,37.5,8|0|0|0,0:0|1:0|1:0|1:0,0:0:0:0:
356,236,82069,2,0,L|376:280,3,37.5,0|0|0|0,1:0|1:0|1:0|1:0,0:0:0:0:
340,304,82435,1,12,0:0:0:0:
280,372,82618,1,2,0:0:0:0:
256,284,82801,6,0,P|232:208|256:136,1,150,6|8,0:0|0:0,0:0:0:0:
412,24,83532,1,2,0:0:0:0:
464,96,83715,1,0,0:0:0:0:
496,180,83899,2,0,P|456:188|412:168,1,75,8|0,0:0|0:0,0:0:0:0:
288,108,84264,6,0,P|328:100|372:120,1,75,2|0,0:0|0:0,0:0:0:0:
424,177,84631,1,8,0:0:0:0:
444,264,84813,2,0,L|444:344,1,75,2|0,0:0|0:0,0:0:0:0:
360,376,85179,1,2,0:0:0:0:
272,356,85362,1,8,0:0:0:0:
232,276,85545,1,0,0:0:0:0:
256,188,85728,6,0,L|336:160,1,75,2|0,0:0|0:0,0:0:0:0:
312,256,86093,2,0,L|392:228,1,75,8|0,0:0|0:0,0:0:0:0:
368,324,86459,2,0,L|288:352,1,75,2|0,0:0|0:0,0:0:0:0:
312,256,86825,2,0,L|232:284,1,75,8|0,0:0|0:0,0:0:0:0:
164,192,87191,6,0,B|200:144|176:76|176:76|216:60,1,150,2|8,0:0|0:0,0:0:0:0:
309,65,87740,2,0,B|336:76|336:76|312:144|348:192,1,150,2|0,0:0|0:0,0:0:0:0:
412,128,88289,1,8,0:0:0:0:
424,220,88472,5,2,0:0:0:0:
422,218,88564,1,2,0:0:0:0:
420,216,88655,2,0,P|372:264|296:244,1,150,6|8,0:0|0:0,0:0:0:0:
256,72,89386,1,2,0:0:0:0:
212,152,89570,1,0,0:0:0:0:
300,152,89751,1,8,0:0:0:0:
256,72,89935,2,0,L|244:-4,1,75,2|0,0:0|0:0,0:0:0:0:
212,152,90301,6,0,L|224:228,1,75,2|8,0:0|0:0,0:0:0:0:
244,316,90667,2,0,P|284:316|324:296,1,75,6|0,0:0|0:0,0:0:0:0:
223,226,91032,2,0,P|183:226|143:246,1,75,2|8,0:0|0:0,0:0:0:0:
88,304,91398,6,0,P|68:272|64:228,1,75,2|2,0:0|0:0,0:0:0:0:
52,144,91764,1,0,0:0:0:0:
120,84,91947,1,8,0:0:0:0:
204,116,92130,2,0,P|210:152|204:196,1,75,2|0,0:0|0:0,0:0:0:0:
306,189,92496,2,0,P|301:152|308:116,1,75,0|8,0:0|0:0,0:0:0:0:
284,28,92862,6,0,P|352:36|396:100,1,150,6|0,0:0|0:0,0:0:0:0:
416,188,93411,1,8,0:0:0:0:
372,264,93593,1,6,0:0:0:0:
172,332,93959,1,8,0:0:0:0:
220,128,94325,1,6,0:0:0:0:
256,192,94508,12,6,97435,0:0:0:0:
185,115,99447,5,4,3:0:0:0:
256,280,99813,2,0,L|257:362,1,75,8|0,3:0|3:0,0:0:0:0:
432,252,100362,5,6,0:0:0:0:
432,252,100545,2,0,L|432:87,1,150,2|2,0:0|0:0,0:0:0:0:
352,144,101093,2,0,P|316:152|264:140,1,75,8|0,0:0|0:0,0:0:0:0:
204,92,101459,2,0,L|204:-4,2,75,8|2|0,0:0|0:0|0:0,0:0:0:0:
204,184,102008,5,2,0:0:0:0:
164,264,102191,2,0,P|200:272|244:264,2,75,8|0|2,0:0|0:0|0:0,0:0:0:0:
116,188,102740,2,0,P|80:180|36:188,2,75,0|8|0,0:0|0:0|0:0,0:0:0:0:
204,184,103289,6,0,L|292:180,1,75,6|0,0:0|0:0,0:0:0:0:
368,172,103655,1,8,0:0:0:0:
436,112,103837,2,0,P|440:72|432:36,1,75,2|10,0:0|0:0,0:0:0:0:
348,8,104204,1,2,0:0:0:0:
264,44,104386,2,0,P|256:80|260:117,1,75,8|0,0:0|0:0,0:0:0:0:
320,184,104752,5,2,0:0:0:0:
320,184,104935,2,0,L|240:204,1,75,0|8,0:0|0:0,0:0:0:0:
240,292,105301,1,0,0:0:0:0:
240,292,105484,2,0,L|320:272,1,75,2|0,0:0|0:0,0:0:0:0:
372,344,105849,2,0,L|292:364,1,75,10|2,0:0|0:0,0:0:0:0:
240,292,106215,6,0,P|204:224|208:144,1,150,6|8,0:0|0:0,0:0:0:0:
308,4,106947,2,0,P|344:72|340:152,1,150,10|8,0:0|0:0,0:0:0:0:
240,292,107679,6,0,P|172:324|108:296,1,150,2|8,0:0|0:0,0:0:0:0:
172,128,108410,2,0,L|172:53,2,75,2|0|8,0:0|0:0|0:0,0:0:0:0:
240,292,109142,6,0,P|308:324|372:296,1,150,6|8,0:0|0:0,0:0:0:0:
304,131,109874,2,0,P|236:99|172:127,1,150,8|8,0:0|0:0,0:0:0:0:
108,192,110423,1,0,0:0:0:0:
171,256,110606,6,0,P|238:284|304:253,1,150,2|8,0:0|0:0,0:0:0:0:
372,196,111154,2,0,P|306:164|240:193,1,150,2|2,0:0|0:0,0:0:0:0:
171,256,111703,2,0,P|132:264|96:256,1,75,8|0,0:0|0:0,0:0:0:0:
32,196,112069,5,6,0:0:0:0:
44,108,112252,2,0,P|88:56|168:60,1,150,2|0,0:0|0:0,0:0:0:0:
252,88,112801,2,0,P|208:140|128:136,1,150,2|8,0:0|0:0,0:0:0:0:
164,58,113349,2,0,L|236:208,1,150,2|2,0:0|0:0,0:0:0:0:
276,272,113898,5,8,0:0:0:0:
316,192,114081,1,0,0:0:0:0:
228,193,114264,1,2,0:0:0:0:
180,268,114447,2,0,P|148:292|104:300,1,75,2|8,0:0|0:0,0:0:0:0:
28,280,114813,1,0,0:0:0:0:
80,204,114996,6,0,L|76:108,1,75,2|0,0:0|0:0,0:0:0:0:
164,112,115362,2,0,L|160:37,2,75,8|2|0,0:0|0:0|0:0,0:0:0:0:
172,200,115910,2,0,P|224:228|304:196,1,150,2|2,0:0|0:0,0:0:0:0:
468,88,116642,6,0,L|488:168,1,75,0|8,0:0|0:0,0:0:0:0:
396,172,117008,2,0,L|376:252,1,75,2|0,0:0|0:0,0:0:0:0:
352,332,117374,1,2,0:0:0:0:
440,308,117557,1,8,0:0:0:0:
377,244,117740,1,2,0:0:0:0:
292,272,117923,6,0,P|256:280|212:268,1,75,2|0,0:0|0:0,0:0:0:0:
256,188,118289,2,0,L|256:32,2,150,8|2|8,0:0|0:0|0:0,0:0:0:0:
344,192,119203,6,0,P|384:200|416:192,2,75,2|0|0,0:0|0:0|0:0,0:0:0:0:
256,188,119752,2,0,P|216:180|184:188,1,75,8|0,0:0|0:0,0:0:0:0:
136,264,120118,2,0,P|176:272|208:264,1,75,2|0,0:0|0:0,0:0:0:0:
256,188,120484,6,0,L|272:100,1,75,8|0,0:0|0:0,0:0:0:0:
196,60,120849,2,0,L|180:148,1,75,2|0,0:0|0:0,0:0:0:0:
160,224,121216,1,8,0:0:0:0:
208,300,121399,2,0,P|156:316|76:252,1,150,2|0,0:0|0:0,0:0:0:0:
128,72,122130,6,0,P|180:56|260:120,1,150,2|0,0:0|0:0,0:0:0:0:
288,188,122679,1,8,0:0:0:0:
200,172,122862,1,0,0:0:0:0:
254,105,123045,2,0,L|336:92,1,75,2|0,0:0|0:0,0:0:0:0:
288,188,123410,2,0,L|372:216,1,75,8|0,0:0|0:0,0:0:0:0:
364,304,123776,6,0,L|280:276,1,75,6|0,0:0|0:0,0:0:0:0:
288,188,124142,2,0,P|284:148|304:104,1,75,2|0,0:0|0:0,0:0:0:0:
368,64,124508,2,0,P|304:28|232:56,1,150,8|0,0:0|0:0,0:0:0:0:
196,132,125057,1,0,0:0:0:0:
216,220,125240,6,0,P|212:288|132:332,1,150,2|0,0:0|0:0,0:0:0:0:
140,248,125789,1,0,1:0:0:0:
140,248,125971,2,0,L|265:330,1,150,8|2,0:0|0:0,0:0:0:0:
480,352,126703,6,0,P|500:312|480:212,1,150,6|0,0:0|0:0,0:0:0:0:
344,52,127435,2,0,P|324:92|344:192,1,150,8|0,0:0|0:0,0:0:0:0:
392,272,127984,6,0,L|308:276,1,75,2|0,0:0|0:0,0:0:0:0:
216,276,128349,2,0,B|176:276|176:276|160:224|188:168,1,150,2|0,0:0|0:0,0:0:0:0:
208,96,128898,2,0,P|216:56|204:8,1,75,8|0,0:0|0:0,0:0:0:0:
301,22,129264,2,0,P|296:59|304:96,1,75,2|0,0:0|0:0,0:0:0:0:
320,228,129630,6,0,P|256:260|184:216,1,150,6|0,0:0|0:0,0:0:0:0:
256,168,130179,2,0,L|256:328,1,150,2|0,0:0|0:0,0:0:0:0:
172,356,130728,2,0,P|132:364|88:352,1,75,2|0,0:0|0:0,0:0:0:0:
68,272,131093,6,0,P|92:200|64:124,1,150,2|2,0:0|0:0,0:0:0:0:
24,56,131642,1,8,0:0:0:0:
24,56,131825,2,0,P|66:44|112:56,1,75,8|0,0:0|0:0,0:0:0:0:
168,108,132191,2,0,P|204:112|240:100,1,75,8|0,0:0|0:0,0:0:0:0:
360,24,132557,6,0,B|368:100,1,75,6|0,0:0|0:0,0:0:0:0:
376,188,132923,1,2,0:0:0:0:
388,276,133106,2,0,P|424:280|464:264,1,75,0|8,1:0|0:0,0:0:0:0:
376,188,133471,2,0,P|340:184|300:200,1,75,2|0,0:0|0:0,0:0:0:0:
212,296,133837,6,0,P|248:300|288:284,1,75,10|0,0:0|0:0,0:0:0:0:
304,197,134203,2,0,L|316:105,1,75,0|8,0:0|0:0,0:0:0:0:
256,52,134569,1,2,0:0:0:0:
198,122,134752,2,0,L|208:197,1,75,8|0,0:0|0:0,0:0:0:0:
260,272,135118,1,2,0:0:0:0:
172,276,135301,1,0,0:0:0:0:
304,197,135484,6,0,L|452:176,1,150,6|8,0:0|0:0,0:0:0:0:
476,88,136032,2,0,L|392:100,1,75,6|0,0:0|0:0,0:0:0:0:
312,108,136398,1,2,0:0:0:0:
256,36,136582,1,8,0:0:0:0:
200,108,136764,6,0,P|180:176|200:252,1,150,6|0,0:0|0:0,0:0:0:0:
256,320,137313,1,8,0:0:0:0:
312,250,137496,2,0,P|332:179|312:108,1,150,6|0,0:0|0:0,0:0:0:0:
256,36,138045,1,8,0:0:0:0:
168,28,138228,5,2,0:0:0:0:
168,28,138319,1,2,0:0:0:0:
168,28,138410,2,0,P|96:40|60:108,1,150,6|8,0:0|0:0,0:0:0:0:
112,176,138959,2,0,P|184:164|220:96,1,150,6|2,0:0|0:0,0:0:0:0:
256,16,139508,1,8,0:0:0:0:
312,88,139691,2,0,P|348:92|392:80,1,75,6|0,0:0|0:0,0:0:0:0:
464,152,140057,6,0,L|464:232,1,75,8|8,0:0|0:0,0:0:0:0:
464,316,140423,2,0,P|400:332|332:280,1,150,4|0,0:0|1:0,0:0:0:0:
256,244,140971,2,0,L|256:192,2,37.5,8|0|0,0:0|1:0|0:0,0:0:0:0:
176,286,141337,6,0,P|119:330|48:316,1,150,6|8,0:0|0:0,0:0:0:0:
104,244,141886,2,0,P|136:176|104:104,1,150,6|2,0:0|0:0,0:0:0:0:
44,172,142435,1,8,0:0:0:0:
212,176,142618,6,0,L|364:176,1,150,6|0,0:0|0:0,0:0:0:0:
436,124,143167,1,8,0:0:0:0:
444,212,143349,2,0,L|444:300,1,75,2|0,0:0|0:0,0:0:0:0:
364,328,143716,1,2,0:0:0:0:
364,328,143807,1,2,0:0:0:0:
364,328,143898,2,0,L|364:240,1,75,2|0,0:0|0:0,0:0:0:0:
364,164,144264,6,0,P|292:200|280:268,1,150,6|8,0:0|0:0,0:0:0:0:
364,253,144813,1,0,1:0:0:0:
444,212,144996,2,0,P|452:168|436:116,2,75,8|0|8,0:0|1:0|0:0,0:0:0:0:
364,253,145545,2,0,P|356:297|372:349,1,75,6|0,0:0|0:0,0:0:0:0:
256,344,145910,5,2,0:0:0:0:
256,344,146093,2,0,L|64:320,1,179.999994506836,2|2,0:0|0:0,0:0:0:0:
120,220,146642,1,2,0:0:0:0:
120,220,146826,2,0,P|132:176|120:128,1,89.9999972534181,2|0,0:0|0:0,0:0:0:0:
32,72,147191,6,0,P|88:28|172:40,1,150,6|8,0:0|0:0,0:0:0:0:
256,192,147923,1,0,0:0:0:0:
212,272,148106,1,2,0:0:0:0:
300,268,148289,2,0,P|336:260|380:272,1,75,8|0,0:0|0:0,0:0:0:0:
484,352,148654,6,0,L|492:184,1,150,2|8,0:0|0:0,0:0:0:0:
492,112,149203,2,0,P|452:116|416:152,1,75,2|0,0:0|0:0,0:0:0:0:
404,224,149569,1,0,1:0:0:0:
340,160,149752,1,8,0:0:0:0:
368,76,149935,1,0,0:0:0:0:
340,160,150118,6,0,L|264:192,1,75,2|0,0:0|0:0,0:0:0:0:
320,268,150484,2,0,L|244:300,1,75,8|0,0:0|0:0,0:0:0:0:
196,224,150849,2,0,L|120:256,1,75,2|0,0:0|0:0,0:0:0:0:
176,328,151215,2,0,L|100:360,1,75,8|0,0:0|0:0,0:0:0:0:
24,248,151581,6,0,P|8:172|32:96,1,150,2|8,0:0|0:0,0:0:0:0:
116,100,152130,2,0,P|135:171|119:244,1,150,2|0,0:0|0:0,0:0:0:0:
72,320,152679,1,8,0:0:0:0:
188,352,152862,5,2,0:0:0:0:
188,352,152953,1,2,0:0:0:0:
188,352,153045,2,0,P|256:364|336:348,1,150,6|8,0:0|0:0,0:0:0:0:
424,192,153777,1,2,0:0:0:0:
372,120,153960,1,0,0:0:0:0:
336,204,154143,1,8,0:0:0:0:
424,192,154325,2,0,L|516:188,1,75,2|0,0:0|0:0,0:0:0:0:
372,120,154691,6,0,L|280:124,1,75,0|8,0:0|0:0,0:0:0:0:
232,184,155057,2,0,P|208:112|256:44,1,150,2|0,0:0|0:0,0:0:0:0:
297,123,155606,1,8,0:0:0:0:
312,232,155789,5,2,0:0:0:0:
312,232,155880,1,2,0:0:0:0:
312,232,155972,2,0,P|320:268|312:316,1,75,2|0,0:0|0:0,0:0:0:0:
256,376,156338,1,8,0:0:0:0:
196,305,156520,2,0,P|191:268|200:232,1,75,0|8,1:0|0:0,0:0:0:0:
256,164,156886,2,0,L|256:100,2,37.5,2|2|10,0:0|0:0|0:0,0:0:0:0:
312,232,157252,6,0,P|384:256|460:216,1,150,6|0,0:0|0:0,0:0:0:0:
488,144,157801,2,0,L|500:88,3,37.5,8|0|0|0,0:0|1:0|1:0|0:0,0:0:0:0:
452,92,158167,2,0,L|464:36,3,37.5,0|0|0|0,1:0|0:0|1:0|0:0,0:0:0:0:
424,28,158532,2,0,P|388:24|344:32,1,75,0|0,1:0|1:0,0:0:0:0:
256,80,158898,6,0,L|256:236,1,150,6|8,0:0|0:0,0:0:0:0:
108,348,159630,1,2,0:0:0:0:
200,348,159813,1,0,0:0:0:0:
152,272,159997,2,0,P|144:232|152:184,1,75,8|0,0:0|0:0,0:0:0:0:
228,156,160362,6,0,P|236:196|228:244,1,75,2|0,0:0|0:0,0:0:0:0:
152,272,160729,1,8,0:0:0:0:
72,232,160910,2,0,P|68:194|76:158,1,75,2|0,0:0|0:0,0:0:0:0:
152,108,161277,1,2,0:0:0:0:
72,68,161460,1,8,0:0:0:0:
76,158,161643,1,0,0:0:0:0:
152,272,161826,6,0,P|188:284|224:264,1,75,6|0,0:0|0:0,0:0:0:0:
295,176,162191,2,0,P|260:164|228:180,1,75,8|0,0:0|0:0,0:0:0:0:
316,264,162557,2,0,P|350:276|383:260,1,75,2|0,0:0|0:0,0:0:0:0:
487,176,162923,2,0,P|452:164|420:180,1,75,8|0,0:0|0:0,0:0:0:0:
420,180,163289,6,0,L|404:24,1,150,2|8,0:0|0:0,0:0:0:0:
332,84,163838,2,0,P|256:112|200:80,1,150,4|0,0:0|0:0,0:0:0:0:
268,24,164387,1,8,0:0:0:0:
240,192,164570,5,2,0:0:0:0:
240,192,164660,1,2,0:0:0:0:
240,192,164753,2,0,L|208:352,1,150,6|8,0:0|0:0,0:0:0:0:
60,216,165485,1,2,0:0:0:0:
124,152,165668,1,0,0:0:0:0:
60,88,165849,1,8,0:0:0:0:
144,60,166033,2,0,P|180:52|224:64,1,75,2|0,0:0|0:0,0:0:0:0:
328,136,166398,6,0,P|292:144|248:132,1,75,2|8,0:0|0:0,0:0:0:0:
204,212,166764,2,0,P|196:248|204:300,1,75,6|0,0:0|0:0,0:0:0:0:
312,285,167130,2,0,P|316:248|308:212,1,75,0|8,0:0|0:0,0:0:0:0:
204,212,167496,6,0,P|132:240|56:200,1,150,6|0,0:0|0:0,0:0:0:0:
40,128,168045,1,8,0:0:0:0:
108,68,168228,2,0,L|180:28,1,75,2|0,0:0|0:0,0:0:0:0:
176,120,168593,2,0,L|252:120,1,75,0|8,0:0|0:0,0:0:0:0:
416,120,168959,6,0,P|448:80|372:68,1,150,6|8,0:0|0:0,0:0:0:0:
336,136,169509,1,10,0:0:0:0:
320,224,169691,1,10,0:0:0:0:
456,340,170057,1,10,0:0:0:0:
276,324,170423,2,0,B|200:296|144:348|144:348|160:264,1,225,6|8,0:0|0:0,0:0:0:0:
192,136,179386,6,0,P|168:67|209:8,1,150,6|8,0:0|0:0,0:0:0:0:
302,8,179935,2,0,P|343:67|319:135,1,150,6|0,0:0|0:0,0:0:0:0:
256,192,180484,1,8,0:0:0:0:
296,272,180667,6,0,B|328:300|364:304|364:304|364:264|348:232,1,150,6|0,0:0|0:0,0:0:0:0:
256,192,181215,1,8,0:0:0:0:
164,152,181398,2,0,B|148:120|148:80|148:80|184:84|216:112,1,150,6|0,0:0|0:0,0:0:0:0:
256,192,181947,1,8,0:0:0:0:
216,272,182130,6,0,B|184:300|148:304|148:304|148:264|164:232,1,150,6|8,0:0|0:0,0:0:0:0:
256,192,182679,1,8,0:0:0:0:
348,152,182862,2,0,B|364:120|364:80|364:80|328:84|296:112,1,150,2|0,0:0|0:0,0:0:0:0:
256,192,183410,1,8,0:0:0:0:
196,112,183593,6,0,P|128:84|52:120,1,150,6|0,0:0|0:0,0:0:0:0:
8,192,184142,1,8,0:0:0:0:
64,272,184325,2,0,P|132:298|200:271,1,150,6|0,0:0|0:0,0:0:0:0:
256,192,184874,1,8,0:0:0:0:
316,112,185057,6,0,P|384:84|460:120,1,150,6|2,0:0|0:0,0:0:0:0:
504,192,185606,1,8,0:0:0:0:
448,272,185789,2,0,P|380:298|312:271,1,150,6|0,0:0|0:0,0:0:0:0:
256,192,186338,1,8,0:0:0:0:
187,132,186520,6,0,P|253:99|320:128,1,150,6|0,0:0|0:0,0:0:0:0:
336,216,187069,2,0,P|332:252|344:292,1,75,8|2,0:0|0:0,0:0:0:0:
420,244,187435,2,0,L|504:244,2,75,0|0|8,0:0|0:0|0:0,0:0:0:0:
256,248,187984,6,0,P|180:240|144:176,1,150,6|0,0:0|0:0,0:0:0:0:
232,160,188532,1,8,0:0:0:0:
328,216,188715,2,0,P|320:292|256:328,1,150,2|0,0:0|0:0,0:0:0:0:
172,324,189264,1,8,0:0:0:0:
100,272,189447,6,0,B|72:244|72:244|96:192|68:132,1,150,6|2,0:0|0:0,0:0:0:0:
136,72,189996,1,8,0:0:0:0:
224,56,190179,2,0,B|252:109|308:121|308:121|313:160,1,150,6|0,0:0|0:0,0:0:0:0:
312,252,190728,1,8,0:0:0:0:
240,200,190910,1,6,0:0:0:0:
256,192,191002,12,0,193289,0:0:0:0:
212,148,193654,5,2,0:0:0:0:
292,168,193837,1,0,0:0:0:0:
236,224,194020,2,0,P|160:216|132:168,1,134.999995880127,2|0,0:0|0:0,0:0:0:0:
256,28,194752,1,2,0:0:0:0:
336,48,194935,1,0,0:0:0:0:
364,124,195118,1,2,0:0:0:0:
236,224,195484,6,0,P|172:248|104:224,1,134.999995880127,2|2,0:0|0:0,0:0:0:0:
100,148,196032,2,0,L|100:72,1,67.4999979400635,0|0,0:0|0:0,0:0:0:0:
180,92,196398,2,0,L|180:16,2,67.4999979400635,0|2|0,0:0|0:0|0:0,0:0:0:0:
256,148,196947,6,0,P|320:164|384:136,2,134.999995880127,2|2|2,0:0|0:0|0:0,0:0:0:0:
100,40,198045,1,2,0:0:0:0:
40,220,198410,2,0,P|32:300|124:228,1,269.999991760254,2|0,0:0|0:0,0:0:0:0:
100,40,199508,5,2,0:0:0:0:
100,40,199691,1,0,0:0:0:0:
100,40,199874,2,0,P|164:24|236:40,1,134.999995880127,2|0,0:0|0:0,0:0:0:0:
344,192,200606,5,2,0:0:0:0:
372,268,200789,1,0,0:0:0:0:
296,296,200971,1,2,0:0:0:0:
268,219,201154,2,0,L|184:240,1,67.4999979400635,0|0,0:0|0:0,0:0:0:0:
192,144,201520,6,0,L|126:160,1,67.4999979400635,2|0,0:0|0:0,0:0:0:0:
80,228,201886,2,0,P|44:160|72:96,1,134.999995880127,2|0,0:0|0:0,0:0:0:0:
132,68,202435,2,0,L|197:51,1,67.4999979400635,2|2,0:0|0:0,0:0:0:0:
280,120,202801,6,0,L|368:100,2,75,6|0|8,0:0|1:0|0:0,0:0:0:0:
208,176,203349,2,0,P|200:208|212:256,1,75,0|8,1:0|0:0,0:0:0:0:
256,328,203715,1,0,1:0:0:0:
256,328,203898,1,0,1:0:0:0:
303,248,204081,2,0,P|312:212|304:176,1,75,6|0,0:0|0:0,0:0:0:0:
260,76,204447,5,2,0:0:0:0:
260,76,204630,2,0,L|172:48,1,89.9999972534181,2|0,0:0|0:0,0:0:0:0:
208,152,204996,2,0,L|122:180,1,89.9999972534181,2|2,0:0|0:0,0:0:0:0:
208,248,205362,2,0,L|152:336,1,89.9999972534181,2|0,0:0|0:0,0:0:0:0:
256,344,205728,6,0,L|328:204,1,150,6|8,0:0|0:0,0:0:0:0:
400,48,206460,1,2,0:0:0:0:
444,124,206643,1,0,0:0:0:0:
356,124,206825,2,0,P|320:132|276:120,1,75,8|0,0:0|0:0,0:0:0:0:
220,60,207191,6,0,P|192:120|244:204,1,150,2|8,0:0|0:0,0:0:0:0:
308,224,207740,2,0,P|316:260|308:300,1,75,2|0,0:0|0:0,0:0:0:0:
260,372,208106,1,0,1:0:0:0:
220,292,208289,1,8,0:0:0:0:
309,297,208472,1,0,0:0:0:0:
428,348,208654,6,0,L|460:268,1,75,2|0,0:0|0:0,0:0:0:0:
384,224,209020,2,0,L|416:144,1,75,8|0,0:0|0:0,0:0:0:0:
340,100,209386,2,0,L|308:180,1,75,2|0,0:0|0:0,0:0:0:0:
384,224,209752,2,0,L|352:304,1,75,8|0,0:0|0:0,0:0:0:0:
256,352,210118,6,0,P|176:364|124:316,1,150,2|8,0:0|0:0,0:0:0:0:
76,248,210667,2,0,P|156:236|208:284,1,150,2|0,0:0|0:0,0:0:0:0:
256,352,211215,1,8,0:0:0:0:
304,276,211399,5,2,0:0:0:0:
304,276,211491,1,2,0:0:0:0:
304,276,211582,2,0,P|328:200|316:128,1,150,6|8,0:0|0:0,0:0:0:0:
172,24,212314,1,2,0:0:0:0:
104,84,212497,1,0,0:0:0:0:
188,112,212680,1,8,0:0:0:0:
260,56,212862,6,0,L|340:48,1,75,2|0,0:0|0:0,0:0:0:0:
392,120,213228,2,0,L|317:127,1,75,2|8,0:0|0:0,0:0:0:0:
292,212,213593,2,0,L|372:204,1,75,6|0,0:0|0:0,0:0:0:0:
424,276,213959,2,0,L|349:283,1,75,0|8,0:0|0:0,0:0:0:0:
224,260,214325,6,0,P|212:224|216:180,1,75,6|0,0:0|0:0,0:0:0:0:
256,108,214691,1,0,0:0:0:0:
256,108,214875,1,8,0:0:0:0:
328,56,215057,2,0,P|340:92|336:136,1,75,2|0,0:0|0:0,0:0:0:0:
304,212,215423,2,0,L|384:208,1,75,0|8,0:0|0:0,0:0:0:0:
432,288,215789,6,0,L|280:296,1,150,6|0,0:0|0:0,0:0:0:0:
196,276,216337,1,8,0:0:0:0:
180,188,216520,1,12,0:0:0:0:
256,20,216886,1,6,0:0:0:0:
332,188,217252,6,0,P|340:224|332:268,1,75,6|0,0:0|0:0,0:0:0:0:
260,312,217618,1,0,0:0:0:0:
176,340,217801,1,0,0:0:0:0:
88,364,217984,2,0,P|79:327|85:290,1,75,6|8,0:0|0:0,0:0:0:0:
136,216,218349,2,0,P|101:202|64:204,1,75,2|0,0:0|0:0,0:0:0:0:
160,328,218715,6,0,P|232:340|288:292,1,150,6|0,0:0|1:0,0:0:0:0:
296,204,219264,1,8,0:0:0:0:
284,116,219447,2,0,P|248:108|200:120,1,75,8|8,0:0|0:0,0:0:0:0:
296,204,219813,2,0,P|332:212|380:200,1,75,10|0,0:0|0:0,0:0:0:0:
436,144,220179,1,6,0:0:0:0:
256,192,220270,12,0,221825,0:0:0:0:
