osu file format v14

[General]
AudioFilename: 132.mp3
AudioLeadIn: 0
PreviewTime: 176207
Countdown: 0
SampleSet: Soft
StackLeniency: 0.7
Mode: 0
LetterboxInBreaks: 0
WidescreenStoryboard: 0

[Editor]
DistanceSpacing: 0.5
BeatDivisor: 8
GridSize: 4
TimelineZoom: 2.1

[Metadata]
Title:Puppet in the Dark
TitleUnicode:Puppet in the Dark
Artist:FELT
ArtistUnicode:FELT
Creator:Mackenzie
Version:Out Of Place ARTifactS
Source:東方Project
Tags:touhou 東方神霊廟 ~ Ten Desires 豊聡耳 神子 聖徳伝説 ~ True Administrator Shoutoku Legend Toyosatomimi no Miko New Horizon Buried Away Vivenne Maurits"禅"Cornelis Renko Sevens Head Reitaisai12 例大祭12
BeatmapID:725198
BeatmapSetID:326636

[Difficulty]
HPDrainRate:6
CircleSize:4
OverallDifficulty:8
ApproachRate:9
SliderMultiplier:2
SliderTickRate:1

[Events]
//Background and Video events
0,0,"687474703a2f2f7075752e73682f694778786d2e6a7067.jpg",0,0
//Break Periods
2,93710,96654
2,307020,317097
//Storyboard Layer 0 (Background)
//Storyboard Layer 1 (Fail)
//Storyboard Layer 2 (Pass)
//Storyboard Layer 3 (Foreground)
//Storyboard Sound Samples

[TimingPoints]
1932,451.127819548872,7,2,1,40,1,0
5089,-200,7,2,1,50,0,0
55616,-111.111111111111,7,2,1,60,0,0
93510,-111.111111111111,7,2,1,5,0,0
98402,350.877192982456,7,2,1,70,1,0
98402,-125,7,2,1,70,0,0
117700,-200,7,2,1,70,0,0
118051,-100,7,2,1,80,0,0
137700,-125,7,2,1,70,0,0
157349,-200,7,2,1,70,0,0
161208,-200,7,2,2,70,0,0
161559,-200,7,2,1,70,0,0
162612,-200,7,2,2,70,0,0
164717,-200,7,2,1,70,0,0
165068,-200,7,2,2,70,0,0
166822,-200,7,2,1,70,0,0
168226,-200,7,2,2,70,0,0
168577,-200,7,2,1,70,0,0
172085,-100,7,2,1,80,0,0
174541,350.877192982456,4,2,1,80,1,0
176295,-100,4,2,1,60,0,0
177348,-100,4,2,1,90,0,1
199453,-66.6666666666667,4,2,1,90,0,1
199804,-100,4,2,1,90,0,1
222260,350.877192982456,7,2,1,70,1,0
222260,-125,7,2,1,70,0,0
222435,-125,7,2,2,70,0,0
222523,-125,7,2,1,70,0,0
222698,-125,7,2,2,70,0,0
222786,-125,7,2,1,70,0,0
226470,-125,7,2,2,70,0,0
226646,-125,7,2,1,70,0,0
241909,-200,7,2,1,70,0,0
247172,-200,7,2,2,70,0,0
249277,-200,7,2,1,70,0,0
249628,-200,7,2,2,70,0,0
251382,-200,7,2,1,70,0,0
256645,-100,7,2,1,80,0,0
259101,350.877192982456,4,2,1,80,1,0
260679,-100,4,2,1,60,0,0
261908,-100,4,2,1,90,0,1
284013,-66.6666666666667,4,2,1,90,0,1
284364,-125,4,2,1,90,0,0
292785,-100,4,2,1,90,0,0
317697,-200,4,2,1,50,0,0
317872,-125,4,2,1,70,0,0
326469,-125,4,2,1,80,0,0
326644,-125,4,2,1,30,0,0
326820,-125,4,2,1,40,0,0
326995,-125,4,2,1,50,0,0
327171,-125,4,2,1,60,0,0
327346,-125,4,2,1,70,0,0
327522,-125,4,2,1,80,0,0
327697,-125,4,2,1,90,0,0
328574,-125,4,2,1,60,0,0
329276,-100,4,2,1,90,0,1
340153,-66.6666666666667,4,2,1,90,0,1
340504,-100,4,2,1,90,0,1
362960,350.877192982456,7,2,1,60,1,0
363310,-100,7,2,2,60,0,0
372433,-100,7,2,1,70,0,0
372784,-125,7,2,1,70,0,0
380854,-125,7,2,1,80,0,0
381556,-125,7,2,1,90,0,0
382609,-125,7,2,1,50,0,0
385065,-125,7,2,1,30,0,0
392433,-125,7,2,1,10,0,0
397345,-125,7,2,1,5,0,0

[Colours]
Combo1 : 255,253,189
Combo2 : 255,214,87
Combo3 : 255,69,15
Combo4 : 189,15,189
Combo5 : 167,145,255
Combo6 : 204,204,204

[HitObjects]
320,252,5089,6,0,L|368:247,1,50
264,168,5541,2,0,L|323:164,1,50
264,335,5992,1,2,0:0:0:0:
268,340,6443,1,0,0:0:0:0:
131,196,6668,2,0,B|124:240|124:240|127:307,1,100
127,295,7345,1,0,0:0:0:0:
264,176,7571,2,0,B|268:131|268:131|252:71,1,100,2|0,0:0|0:0,0:0:0:0:
159,40,8247,6,0,B|124:40|124:40|96:43|96:43|55:35,2,100,0|0|2,0:0|0:0|0:0,0:0:0:0:
248,84,9375,1,0,0:0:0:0:
248,84,9601,1,0,0:0:0:0:
143,55,9826,2,0,B|143:96|143:96|147:120|147:120|152:164,1,100
146,254,10503,1,0,0:0:0:0:
146,253,10728,2,0,B|187:259|187:259|203:267|203:267|247:263,1,100,2|0,0:0|0:0,0:0:0:0:
331,215,11405,6,0,L|340:265,1,50
420,105,11856,2,0,L|412:155,1,50
416,164,12307,1,2,0:0:0:0:
311,45,12533,2,0,P|312:64|320:96,1,50
420,172,12984,2,0,B|379:168|379:168|360:179|360:179|308:176,1,100
232,136,13661,1,0,0:0:0:0:
327,0,13886,2,0,L|323:99,1,100,2|0,0:0|0:0,0:0:0:0:
219,103,14563,6,0,B|224:139|224:139|219:168|219:168|219:208,2,100,0|0|2,0:0|0:0|0:0,0:0:0:0:
124,131,15691,2,0,L|131:184,1,50
208,244,16142,2,0,P|248:264|308:228,1,100
390,209,16819,1,0,0:0:0:0:
390,209,17044,2,0,B|382:249|382:249|390:272|390:272|397:317,1,100,2|0,0:0|0:0,0:0:0:0:
257,283,17721,6,0,L|306:290,1,50
192,208,18172,2,0,L|242:198,1,50
117,140,18623,2,0,L|161:115,1,50,2|0,0:0|0:0,0:0:0:0:
164,107,19074,1,0,0:0:0:0:
208,307,19300,2,0,B|168:312|168:312|100:296,1,100
109,298,20202,2,0,P|139:266|130:212,1,100,2|0,0:0|0:0,0:0:0:0:
57,146,20879,6,0,B|45:122|45:122|49:79|49:79|37:46,2,100,0|0|2,0:0|0:0|0:0,0:0:0:0:
143,96,22007,2,0,B|168:108|168:108|203:111,1,50
243,24,22458,2,0,B|275:35|275:35|360:19,1,100
439,33,23135,1,0,0:0:0:0:
439,33,23360,2,0,B|427:70|427:70|430:101|430:101|459:137,1,100,2|0,0:0|0:0,0:0:0:0:
358,144,24037,6,0,L|316:118,1,50
321,237,24488,2,0,L|272:249,1,50
381,341,24939,2,0,L|333:329,1,50,2|0,0:0|0:0,0:0:0:0:
326,321,25390,1,0,0:0:0:0:
232,335,25616,2,0,B|224:300|224:300|236:220,1,100
133,243,26292,1,0,0:0:0:0:
132,243,26518,2,0,P|111:274|46:253,1,100,2|0,0:0|0:0,0:0:0:0:
175,160,27195,6,0,B|208:152|208:152|243:160|243:160|284:152,2,100,0|0|2,0:0|0:0|0:0,0:0:0:0:
79,139,28322,2,0,B|76:168|76:168|76:189,1,50
156,71,28774,2,0,B|116:48|116:48|51:31,1,100
79,139,29450,1,0,0:0:0:0:
79,139,29676,2,0,P|127:164|182:150,1,100,2|0,0:0|0:0,0:0:0:0:
236,60,30353,6,0,L|300:55,1,50
316,152,30804,2,0,L|379:148,1,50
392,244,31142,1,0,0:0:0:0:
399,236,31255,2,0,L|449:232,1,50
344,332,31593,1,0,0:0:0:0:
340,320,31706,2,0,L|290:315,1,50
232,252,32044,1,0,0:0:0:0:
224,244,32157,2,0,L|171:264,1,50
131,352,32495,1,0,0:0:0:0:
120,352,32608,2,0,L|83:312,1,50
3,284,32947,1,0,0:0:0:0:
0,272,33059,2,0,L|23:208,1,50
112,192,33398,1,0,0:0:0:0:
116,179,33510,6,0,L|92:111,1,50
39,68,33849,1,0,0:0:0:0:
31,75,33962,2,0,B|72:80|72:80|143:68,1,100,0|2,0:0|0:0,0:0:0:0:
125,66,34638,1,0,0:0:0:0:
212,15,34864,2,0,B|210:52|210:52|216:84,1,50
212,65,35541,2,0,P|260:55|284:111,1,100,0|2,0:0|0:0,0:0:0:0:
286,94,36443,1,0,0:0:0:0:
240,179,36668,6,0,B|272:172|272:172|320:179|320:179|344:172,2,100,0|0|2,0:0|0:0|0:0,0:0:0:0:
284,268,37796,2,0,B|268:292|268:292|240:320,1,50
159,264,38247,2,0,B|164:224|164:224|143:155,2,100,0|0|2,0:0|0:0|0:0,0:0:0:0:
159,264,39601,1,0,0:0:0:0:
100,344,39826,6,0,L|53:324,1,50
208,249,40277,2,0,L|159:264,1,50
308,353,40728,2,0,L|264:332,1,50,2|0,0:0|0:0,0:0:0:0:
260,335,41180,1,0,0:0:0:0:
448,276,41405,2,0,B|412:268|412:268|384:276|384:276|344:272,1,100
350,272,42082,1,0,0:0:0:0:
288,196,42307,2,0,P|328:208|364:155,1,100,2|0,0:0|0:0,0:0:0:0:
367,68,42984,6,0,L|312:75,1,50
268,164,43435,2,0,L|212:155,1,50
140,91,43774,1,0,0:0:0:0:
136,80,43886,2,0,L|108:148,1,50
23,164,44225,1,0,0:0:0:0:
27,152,44338,2,0,L|39:208,1,50
131,232,44676,1,0,0:0:0:0:
127,220,44789,2,0,L|124:284,1,50
43,340,45127,1,0,0:0:0:0:
43,328,45240,2,0,L|100:364,1,50
184,348,45578,1,0,0:0:0:0:
195,356,45691,2,0,L|264:348,1,50
296,264,46029,1,0,0:0:0:0:
284,268,46142,6,0,L|340:284,1,50
392,356,46480,1,0,0:0:0:0:
408,356,46593,2,0,B|440:328|440:328|475:276,1,100,0|2,0:0|0:0,0:0:0:0:
472,280,47495,1,0,0:0:0:0:
396,212,47721,2,0,B|428:212|428:212|459:200|459:200|508:196,1,100
493,197,48623,2,0,P|436:160|444:124,1,100,2|0,0:0|0:0,0:0:0:0:
484,48,49300,6,0,B|448:28|448:28|392:12,2,100,0|0|2,0:0|0:0|0:0,0:0:0:0:
484,48,50653,1,0,0:0:0:0:
420,124,50879,2,0,B|384:120|384:120|360:127|360:127|320:120,1,100
321,120,51781,2,0,P|376:99|379:60,1,100,2|0,0:0|0:0,0:0:0:0:
288,24,52458,6,0,L|228:48,1,50
143,28,52909,2,0,L|147:91,1,50
96,164,53360,2,0,L|152:188,1,50,2|0,0:0|0:0,0:0:0:0:
147,179,53811,1,0,0:0:0:0:
7,35,54037,2,0,B|15:96|15:96|12:155,1,100
12,135,54939,2,0,P|67:144|76:200,1,100,2|0,0:0|0:0,0:0:0:0:
81,181,55616,6,0,B|112:177|112:177|136:181|136:181|180:173,1,89.9999972534181,4|0,0:0|0:0,0:0:0:0:
92,320,56067,2,0,B|60:315|60:315|36:320|36:320|-8:312,1,89.9999972534181,0|0,1:0|0:0,0:0:0:0:
2,314,56518,1,8,0:0:0:0:
180,160,56744,2,0,B|188:192|188:192|192:256,1,89.9999972534181,8|2,0:0|0:0,0:0:0:0:
19,196,57195,2,0,L|31:48,1,134.999995880127,0|0,1:0|0:0,0:0:0:0:
29,60,57646,1,0,1:0:0:0:
108,312,57871,1,0,1:0:0:0:
87,165,58097,1,0,0:0:0:0:
85,173,58210,1,0,0:0:0:0:
81,181,58322,2,0,L|87:240,1,44.999998626709,8|0,0:0|0:0,0:0:0:0:
188,99,58548,2,0,L|185:161,1,44.999998626709
182,153,58774,5,0,1:0:0:0:
180,160,59225,2,0,B|214:164|214:164|284:148,1,89.9999972534181,0|0,1:0|0:0,0:0:0:0:
272,144,59676,1,8,0:0:0:0:
316,15,59901,1,8,0:0:0:0:
344,240,60127,1,2,0:0:0:0:
248,80,60353,2,0,B|243:118|243:118|252:204,1,89.9999972534181,0|0,1:0|0:0,0:0:0:0:
424,268,60804,2,0,P|424:212|384:164,1,89.9999972534181,0|0,1:0|1:0,0:0:0:0:
268,151,61255,1,2,0:0:0:0:
136,305,61480,2,0,P|184:348|252:328,1,134.999995880127,8|0,0:0|0:0,0:0:0:0:
260,340,61931,6,0,B|300:340|300:340|367:332,1,89.9999972534181,4|0,0:0|0:0,0:0:0:0:
124,312,62383,2,0,B|152:272|152:272|168:232,1,89.9999972534181,0|0,1:0|0:0,0:0:0:0:
15,136,62834,1,8,0:0:0:0:
180,240,63059,2,0,B|224:244|224:244|288:232,1,89.9999972534181,8|2,0:0|0:0,0:0:0:0:
379,91,63510,2,0,L|367:256,1,134.999995880127,0|0,1:0|0:0,0:0:0:0:
369,225,63962,1,0,1:0:0:0:
288,40,64187,1,0,1:0:0:0:
428,152,64413,1,2,0:0:0:0:
272,335,64638,2,0,L|260:236,1,89.9999972534181,8|0,0:0|0:0,0:0:0:0:
436,292,65089,6,0,L|425:381,1,89.9999972534181,0|0,1:0|0:0,0:0:0:0:
269,235,65541,1,0,1:0:0:0:
444,284,65766,1,0,0:0:0:0:
260,348,65992,2,0,B|224:352|224:352|164:348,1,89.9999972534181,8|8,0:0|0:0,0:0:0:0:
275,224,66443,1,2,0:0:0:0:
440,141,66668,2,0,B|448:200|448:200|452:276,1,134.999995880127,0|0,1:0|0:0,0:0:0:0:
452,276,67119,1,0,1:0:0:0:
480,52,67345,1,0,1:0:0:0:
284,212,67571,2,0,B|323:215|323:215|373:212,1,89.9999972534181,2|8,0:0|0:0,0:0:0:0:
224,40,68022,2,0,L|212:82,1,44.999998626709
208,96,68247,6,0,B|195:55|195:55|203:0,1,89.9999972534181,6|0,0:0|0:0,0:0:0:0:
292,204,68698,2,0,B|296:247|296:247|292:315,1,89.9999972534181,4|0,0:0|0:0,0:0:0:0:
131,164,69150,1,8,0:0:0:0:
131,164,69375,1,8,0:0:0:0:
336,108,69601,1,2,0:0:0:0:
171,296,69826,2,0,L|55:284,1,89.9999972534181,0|0,1:0|0:0,0:0:0:0:
356,192,70277,2,0,L|344:240,1,44.999998626709,0|0,1:0|0:0,0:0:0:0:
336,335,70503,1,0,1:0:0:0:
245,220,70728,2,0,L|255:263,1,44.999998626709,2|0,0:0|0:0,0:0:0:0:
236,120,70954,1,8,0:0:0:0:
360,200,71180,1,0,0:0:0:0:
328,344,71405,6,0,B|288:348|288:348|228:340,1,89.9999972534181,0|0,1:0|0:0,0:0:0:0:
159,208,71856,2,0,L|268:212,1,89.9999972534181,0|0,1:0|0:0,0:0:0:0:
96,360,72307,1,8,0:0:0:0:
7,204,72533,2,0,B|3:160|3:160|3:91,1,89.9999972534181,8|2,0:0|0:0,0:0:0:0:
260,204,72984,2,0,L|100:215,1,134.999995880127,0|0,1:0|0:0,0:0:0:0:
125,214,73435,1,0,1:0:0:0:
300,127,73661,1,0,1:0:0:0:
200,340,73886,2,0,B|195:303|195:303|200:240,1,89.9999972534181,2|8,0:0|0:0,0:0:0:0:
147,75,74338,1,0,0:0:0:0:
296,240,74563,6,0,L|412:232,1,89.9999972534181,4|0,0:0|0:0,0:0:0:0:
147,75,75014,2,0,L|264:68,1,89.9999972534181,0|0,1:0|0:0,0:0:0:0:
34,220,75465,2,0,L|151:212,1,89.9999972534181,8|8,0:0|0:0,0:0:0:0:
308,131,75916,1,2,0:0:0:0:
116,298,76142,2,0,L|131:164,1,134.999995880127,0|0,1:0|0:0,0:0:0:0:
131,164,76593,1,0,1:0:0:0:
208,332,76819,1,0,1:0:0:0:
34,220,77044,1,2,0:0:0:0:
192,348,77270,2,0,L|288:332,1,89.9999972534181,8|0,0:0|0:0,0:0:0:0:
491,326,77721,6,0,B|462:291|462:291|440:236,1,89.9999972534181,0|0,1:0|0:0,0:0:0:0:
336,108,78172,2,0,B|318:150|318:150|293:187,1,89.9999972534181,0|0,1:0|0:0,0:0:0:0:
124,215,78623,1,8,0:0:0:0:
360,344,78849,1,8,0:0:0:0:
224,103,79074,1,0,0:0:0:0:
224,103,79300,2,0,L|240:247,1,134.999995880127,0|0,1:0|0:0,0:0:0:0:
238,238,79751,1,8,0:0:0:0:
352,99,79977,1,0,1:0:0:0:
127,188,80202,1,2,0:0:0:0:
270,353,80428,2,0,B|310:353|310:353|374:341,1,89.9999972534181,8|0,0:0|0:0,0:0:0:0:
364,340,80766,1,0,0:0:0:0:
367,335,80879,5,4,0:0:0:0:
224,131,81104,1,0,0:0:0:0:
136,368,81330,1,4,0:0:0:0:
256,192,81443,12,0,93510,0:0:0:0:
216,215,98402,6,0,L|200:303,1,80,4|0,0:0|0:0,0:0:0:0:
376,144,98752,2,0,P|383:183|389:222,1,80,0|0,1:0|0:0,0:0:0:0:
224,96,99103,1,0,1:0:0:0:
376,144,99279,1,0,0:0:0:0:
331,31,99454,1,0,1:0:0:0:
420,256,99630,1,0,0:0:0:0:
228,208,99805,2,0,B|168:208|168:208|67:221,2,160,0|0|0,1:0|1:0|1:0,0:0:0:0:
200,324,100682,1,0,0:0:0:0:
140,176,100858,6,0,B|140:146|140:146|151:97,1,80,4|0,0:0|0:0,0:0:0:0:
326,215,101209,2,0,L|248:232,1,80,0|0,1:0|0:0,0:0:0:0:
409,111,101559,2,0,P|369:105|331:96,1,80,0|0,1:0|0:0,0:0:0:0:
472,215,101910,1,0,1:0:0:0:
331,96,102086,1,0,0:0:0:0:
392,284,102261,2,0,B|392:315|392:315|385:363,1,80,0|0,1:0|0:0,0:0:0:0:
232,276,102612,2,0,B|232:244|232:244|238:196,1,80,0|0,1:0|0:0,0:0:0:0:
356,380,102963,1,0,1:0:0:0:
171,360,103138,1,0,0:0:0:0:
404,176,103314,6,0,B|356:172|356:172|296:192|296:192|219:184,1,160,4|0,0:0|1:0,0:0:0:0:
124,84,103840,1,0,0:0:0:0:
216,303,104016,2,0,B|245:298|245:298|296:296,1,80,0|0,1:0|0:0,0:0:0:0:
131,212,104366,2,0,B|101:206|101:206|51:204,1,80,0|0,1:0|0:0,0:0:0:0:
256,179,104717,1,0,1:0:0:0:
96,332,104893,1,0,0:0:0:0:
164,196,105068,1,0,1:0:0:0:
320,307,105244,1,0,0:0:0:0:
67,244,105419,2,0,B|68:197|68:197|76:99,1,120,0|0,1:0|0:0,0:0:0:0:
73,124,105770,5,4,0:0:0:0:
96,332,105945,1,0,0:0:0:0:
224,292,106121,2,0,L|216:208,1,80,0|0,1:0|0:0,0:0:0:0:
83,103,106472,2,0,L|92:184,1,80,0|0,1:0|0:0,0:0:0:0:
208,315,106823,2,0,B|252:307|252:307|320:315|320:315|367:307,1,160,0|0,1:0|1:0,0:0:0:0:
275,220,107349,1,0,0:0:0:0:
448,348,107524,2,0,B|452:307|452:307|444:244,1,80,0|0,1:0|0:0,0:0:0:0:
323,148,107875,2,0,B|319:188|319:188|323:228,1,80,0|0,1:0|0:0,0:0:0:0:
428,75,108226,6,0,B|340:75|340:75|260:64,2,160,4|0|0,0:0|1:0|1:0,0:0:0:0:
264,215,109103,1,0,0:0:0:0:
455,260,109279,2,0,B|416:268|416:268|344:272,1,80,0|0,1:0|0:0,0:0:0:0:
288,60,109630,1,0,1:0:0:0:
252,212,109805,1,0,0:0:0:0:
444,52,109980,2,0,P|444:96|452:155,1,80,0|0,1:0|0:0,0:0:0:0:
252,80,110331,2,0,P|252:40|243:-24,1,80,0|0,1:0|0:0,0:0:0:0:
367,179,110682,5,4,0:0:0:0:
352,24,110858,1,0,0:0:0:0:
275,164,111033,2,0,L|143:160,1,120,0|0,1:0|0:0,0:0:0:0:
156,160,111384,1,0,1:0:0:0:
384,99,111559,1,0,0:0:0:0:
352,256,111735,2,0,B|308:260|308:260|272:266,1,80,0|0,1:0|0:0,0:0:0:0:
468,312,112086,2,0,B|485:271|485:271|498:238,1,80,0|0,1:0|0:0,0:0:0:0:
316,120,112437,2,0,L|340:252,1,120,0|0,1:0|0:0,0:0:0:0:
336,238,112787,1,0,1:0:0:0:
452,124,112963,1,0,0:0:0:0:
240,48,113138,6,0,P|232:88|224:148,1,80,4|0,0:0|0:0,0:0:0:0:
81,218,113489,2,0,P|74:178|67:139,1,80,0|0,1:0|0:0,0:0:0:0:
216,352,113840,1,0,1:0:0:0:
60,315,114016,1,0,0:0:0:0:
243,224,114191,2,0,B|272:228|272:228|331:220,1,80,0|0,1:0|0:0,0:0:0:0:
188,108,114542,1,0,1:0:0:0:
200,340,114717,1,0,0:0:0:0:
272,196,114893,1,0,1:0:0:0:
36,244,115068,1,0,0:0:0:0:
184,328,115244,2,0,L|328:312,1,120,0|0,1:0|0:0,0:0:0:0:
303,314,115594,5,4,0:0:0:0:
87,376,115770,1,0,0:0:0:0:
117,145,115945,2,0,B|127:188|127:188|131:224,1,80,0|0,1:0|0:0,0:0:0:0:
15,332,116296,2,0,B|4:289|4:289|0:253,1,80,0|0,1:0|0:0,0:0:0:0:
67,71,116647,1,0,1:0:0:0:
296,103,116823,1,2,0:0:0:0:
156,257,116998,1,2,0:0:0:0:
156,257,117700,6,0,P|147:292|159:326,1,75,8|0,0:0|0:0,0:0:0:0:
159,328,118051,6,0,B|194:326|194:326|280:320,1,100,4|0,1:0|1:0,0:0:0:0:
348,144,118401,1,8,0:0:0:0:
371,303,118577,1,0,0:0:0:0:
371,303,118665,1,8,0:0:0:0:
371,303,118752,1,0,0:0:0:0:
228,232,118928,1,0,1:0:0:0:
428,220,119103,1,0,0:0:0:0:
171,315,119279,2,0,L|175:164,1,150,10|0,0:0|0:0,0:0:0:0:
175,166,119629,1,0,1:0:0:0:
268,344,119805,1,8,0:0:0:0:
87,244,119980,1,0,1:0:0:0:
272,164,120156,2,0,B|264:103|264:103|264:64,1,100,10|8,0:0|0:0,0:0:0:0:
455,240,120507,6,0,B|420:240|420:240|388:252|388:252|340:247,1,100,0|0,1:0|1:0,0:0:0:0:
175,166,120858,1,8,0:0:0:0:
371,148,121033,1,0,1:0:0:0:
371,148,121121,1,8,0:0:0:0:
371,148,121208,1,0,0:0:0:0:
268,344,121384,1,0,1:0:0:0:
288,115,121559,1,8,0:0:0:0:
219,260,121735,2,0,B|184:264|184:264|112:252|112:252|39:264,1,150,2|0,1:0|0:0,0:0:0:0:
71,258,122086,1,0,1:0:0:0:
51,23,122261,5,8,0:0:0:0:
50,43,122349,1,0,1:0:0:0:
49,63,122437,1,0,1:0:0:0:
48,82,122524,1,0,1:0:0:0:
48,102,122612,1,8,0:0:0:0:
154,174,122787,1,8,0:0:0:0:
154,174,122875,1,8,0:0:0:0:
154,174,122963,6,0,B|191:164|191:164|260:155,1,100,2|0,1:0|1:0,0:0:0:0:
424,264,123314,1,8,0:0:0:0:
208,372,123489,1,2,1:0:0:0:
208,372,123577,1,8,0:0:0:0:
208,372,123665,2,0,L|212:260,1,100
331,48,124015,1,8,0:0:0:0:
331,48,124191,2,0,L|348:212,1,150,2|0,1:0|0:0,0:0:0:0:
346,197,124542,1,0,1:0:0:0:
136,111,124717,2,0,B|175:120|175:120|252:127,1,100,10|0,0:0|1:0,0:0:0:0:
409,297,125068,2,0,B|369:305|369:305|312:312,1,100,10|8,0:0|0:0,0:0:0:0:
463,148,125419,5,2,1:0:0:0:
472,352,125594,1,2,1:0:0:0:
346,197,125770,1,10,0:0:0:0:
256,376,125945,2,0,L|240:303,1,50,0|8,1:0|0:0,0:0:0:0:
248,224,126121,1,0,0:0:0:0:
371,348,126296,1,2,1:0:0:0:
143,312,126472,1,10,0:0:0:0:
320,280,126647,2,0,B|328:215|328:215|320:124,1,150,2|0,0:0|0:0,0:0:0:0:
320,130,126998,1,0,1:0:0:0:
168,208,127173,1,2,0:0:0:0:
424,264,127349,1,0,1:0:0:0:
232,91,127524,2,0,B|228:120|228:120|236:160,1,50,10|0,0:0|0:0,0:0:0:0:
336,152,127700,2,0,B|340:127|340:127|331:80,1,50,0|8,0:0|0:0,0:0:0:0:
280,15,127875,6,0,B|224:19|224:19|171:31,1,100,4|0,0:0|1:0,0:0:0:0:
68,221,128226,2,0,B|125:217|125:217|177:205,1,100,8|0,0:0|0:0,0:0:0:0:
175,200,128489,2,0,L|168:248,1,50,8|0,0:0|1:0,0:0:0:0:
72,28,128752,1,0,1:0:0:0:
184,192,128928,1,10,0:0:0:0:
23,328,129103,2,0,B|96:340|96:340|184:340,1,150,10|0,0:0|0:0,0:0:0:0:
172,340,129454,1,2,1:0:0:0:
103,152,129629,1,8,0:0:0:0:
256,288,129805,1,0,1:0:0:0:
202,84,129980,2,0,L|192:184,1,100,10|8,0:0|0:0,0:0:0:0:
336,335,130331,5,2,1:0:0:0:
152,260,130507,1,0,1:0:0:0:
350,139,130682,2,0,L|340:240,1,100,8|0,0:0|0:0,0:0:0:0:
340,240,130945,1,8,0:0:0:0:
340,240,131033,1,0,1:0:0:0:
212,88,131208,1,0,1:0:0:0:
424,75,131384,1,10,0:0:0:0:
260,192,131559,2,0,B|208:192|208:192|67:176,1,150,2|0,1:0|0:0,0:0:0:0:
110,179,131910,1,0,1:0:0:0:
7,124,132086,6,0,L|19:192,1,50,8|8,0:0|0:0,0:0:0:0:
15,272,132261,2,0,L|3:340,1,50,0|0,1:0|1:0,0:0:0:0:
100,364,132436,1,10,0:0:0:0:
108,360,132524,1,0,1:0:0:0:
116,356,132612,1,8,0:0:0:0:
124,352,132700,1,8,0:0:0:0:
131,348,132787,6,0,B|184:348|184:348|240:356,1,100,6|0,0:0|1:0,0:0:0:0:
120,168,133138,2,0,B|67:168|67:168|12:160,1,100,10|0,0:0|0:0,0:0:0:0:
27,155,133401,2,0,L|34:205,1,50,8|0,0:0|1:0,0:0:0:0:
171,15,133665,1,2,1:0:0:0:
203,212,133840,1,8,0:0:0:0:
36,152,134015,2,0,L|195:127,1,150,10|0,0:0|0:0,0:0:0:0:
184,129,134366,1,0,1:0:0:0:
311,338,134542,2,0,L|212:328,1,100,8|0,0:0|1:0,0:0:0:0:
388,155,134893,1,10,0:0:0:0:
416,324,135068,1,8,0:0:0:0:
275,228,135243,6,0,B|272:192|272:192|280:103,1,100,2|0,1:0|1:0,0:0:0:0:
452,31,135594,1,8,0:0:0:0:
459,228,135770,1,2,1:0:0:0:
459,228,135858,1,8,0:0:0:0:
459,228,135945,2,0,L|360:252,1,100,0|0,1:0|1:0,0:0:0:0:
348,52,136296,1,10,0:0:0:0:
195,184,136472,2,0,L|188:372,1,150,4|0,0:0|0:0,0:0:0:0:
189,333,136822,1,0,1:0:0:0:
277,127,136998,1,2,0:0:0:0:
67,260,137173,1,0,0:0:0:0:
311,338,137349,2,0,B|350:343|350:343|416:340,1,100,10|0,0:0|0:0,0:0:0:0:
277,127,137700,6,0,L|289:272,1,120,6|0,0:0|0:0,0:0:0:0:
286,247,138050,1,8,0:0:0:0:
286,247,138138,1,8,0:0:0:0:
286,247,138226,1,0,1:0:0:0:
396,131,138401,2,0,L|475:141,1,80,8|0,0:0|0:0,0:0:0:0:
288,12,138752,2,0,L|208:21,1,80,0|0,0:0|1:0,0:0:0:0:
376,224,139103,5,0,0:0:0:0:
382,215,139366,5,0,0:0:0:0:
382,215,139454,2,0,L|378:315,1,80,8|0,0:0|0:0,0:0:0:0:
500,204,139805,1,8,0:0:0:0:
277,127,139980,1,0,1:0:0:0:
428,99,140156,5,0,0:0:0:0:
378,294,140331,1,0,0:0:0:0:
277,127,140507,1,0,0:0:0:0:
277,127,140594,1,8,0:0:0:0:
277,127,140682,1,0,0:0:0:0:
188,271,140857,2,0,L|268:280,1,80,8|0,0:0|0:0,0:0:0:0:
77,135,141208,2,0,B|120:131|120:131|156:124,1,80
76,24,141559,1,0,0:0:0:0:
76,244,141735,1,0,0:0:0:0:
76,244,141822,1,0,0:0:0:0:
76,244,141910,2,0,L|72:335,1,80,0|0,1:0|0:0,0:0:0:0:
273,207,142261,2,0,L|277:115,1,80,8|0,0:0|1:0,0:0:0:0:
152,75,142612,6,0,L|168:228,1,120,4|0,0:0|0:0,0:0:0:0:
164,195,142963,1,8,0:0:0:0:
164,195,143050,1,8,0:0:0:0:
164,195,143138,1,0,1:0:0:0:
292,296,143314,2,0,L|388:276,1,80,8|0,0:0|0:0,0:0:0:0:
152,303,143664,1,0,0:0:0:0:
284,196,143840,1,0,1:0:0:0:
236,376,144015,1,0,0:0:0:0:
284,196,144191,1,0,0:0:0:0:
280,200,144278,1,0,0:0:0:0:
275,204,144366,1,0,1:0:0:0:
371,296,144542,1,0,0:0:0:0:
367,300,144629,1,0,0:0:0:0:
364,303,144717,2,0,L|373:386,1,80,8|0,0:0|1:0,0:0:0:0:
416,164,145068,5,0,0:0:0:0:
475,356,145243,1,0,0:0:0:0:
275,204,145419,1,8,0:0:0:0:
280,200,145507,1,8,0:0:0:0:
284,196,145594,2,0,L|275:115,1,80,0|8,1:0|0:0,0:0:0:0:
208,320,145945,1,0,0:0:0:0:
208,320,146296,2,0,L|120:312,1,80,0|0,1:0|0:0,0:0:0:0:
273,207,146647,2,0,L|352:199,1,80,0|0,1:0|0:0,0:0:0:0:
362,211,146910,2,0,L|354:276,1,40,0|0,1:0|0:0,0:0:0:0:
184,176,147173,1,8,0:0:0:0:
308,12,147349,1,8,0:0:0:0:
308,12,147436,1,8,0:0:0:0:
308,12,147524,6,0,L|312:103,1,80,4|0,0:0|0:0,0:0:0:0:
152,71,147875,2,0,L|156:164,1,80,8|0,0:0|1:0,0:0:0:0:
352,199,148226,1,0,0:0:0:0:
352,199,148314,1,8,0:0:0:0:
352,199,148401,1,0,0:0:0:0:
171,168,148577,1,0,0:0:0:0:
463,55,148752,2,0,L|459:148,1,80,8|0,0:0|0:0,0:0:0:0:
307,259,149103,2,0,L|303:179,1,80,0|8,1:0|0:0,0:0:0:0:
444,344,149454,1,0,1:0:0:0:
208,256,149629,1,8,0:0:0:0:
408,256,149805,1,8,0:0:0:0:
272,360,149980,6,0,B|216:364|216:364|168:348|168:348|112:352,1,160,0|8,1:0|0:0,0:0:0:0:
28,154,150507,1,0,0:0:0:0:
28,154,150594,1,8,0:0:0:0:
28,154,150682,2,0,L|7:232,1,80,0|0,0:0|1:0,0:0:0:0:
166,90,151033,2,0,B|179:129|179:129|188:168,1,80,0|8,0:0|0:0,0:0:0:0:
60,40,151384,1,0,0:0:0:0:
260,88,151559,1,0,1:0:0:0:
103,256,151735,1,8,0:0:0:0:
143,99,151910,1,0,1:0:0:0:
260,212,152085,2,0,L|396:196,1,120,8|8,0:0|0:0,0:0:0:0:
379,197,152437,6,0,P|384:155|364:108,1,80,4|0,0:0|0:0,0:0:0:0:
316,272,152787,2,0,P|311:313|331:361,1,80,8|0,0:0|0:0,0:0:0:0:
321,348,153050,1,8,0:0:0:0:
321,348,153138,2,0,L|416:352,1,80,0|0,0:0|1:0,0:0:0:0:
260,212,153489,1,0,0:0:0:0:
424,276,153664,1,8,0:0:0:0:
288,127,153840,1,0,0:0:0:0:
228,296,154015,2,0,L|147:288,1,80,0|8,1:0|0:0,0:0:0:0:
67,148,154366,1,0,0:0:0:0:
83,356,154542,1,8,0:0:0:0:
156,200,154717,1,8,0:0:0:0:
7,256,154892,6,0,B|2:295|2:295|3:352,1,80,0|0,1:0|0:0,0:0:0:0:
156,99,155243,1,8,0:0:0:0:
7,35,155419,1,0,0:0:0:0:
7,35,155507,1,8,0:0:0:0:
7,35,155594,2,0,L|96:31,1,80,0|0,0:0|2:0,0:0:0:0:
243,71,155945,1,8,0:0:0:0:
156,200,156121,2,0,B|96:200|96:200|31:179,1,120,4|0,0:0|0:0,0:0:0:0:
37,182,156471,1,0,1:0:0:0:
275,160,156647,1,8,0:0:0:0:
96,288,156822,1,0,1:0:0:0:
308,247,156998,2,0,L|296:312,1,40,8|0,0:0|0:0,0:0:0:0:
243,344,157173,1,0,1:0:0:0:
243,344,157261,1,0,0:0:0:0:
243,344,157349,5,6,0:0:0:0:
216,263,157524,1,0,0:0:0:0:
296,235,157699,1,0,0:0:0:0:
320,365,157875,2,0,L|323:315,1,50,10|0,0:0|0:0,0:0:0:0:
216,263,158226,1,0,0:0:0:0:
216,263,158313,1,0,0:0:0:0:
216,263,158401,2,0,L|218:312,1,50,10|0,0:0|0:0,0:0:0:0:
218,312,158752,1,10,0:0:0:0:
264,80,158927,1,0,0:0:0:0:
96,212,159103,2,0,B|76:200|76:200|152:190,1,100,10|8,0:0|3:0,0:0:0:0:
152,190,159629,1,0,0:0:0:0:
79,378,159805,6,0,P|43:347|48:300,1,100,14|0,0:0|0:0,0:0:0:0:
147,292,160331,2,0,P|185:322|180:370,1,100,10|0,0:0|0:0,0:0:0:0:
180,370,160770,1,8,0:0:0:0:
180,370,160857,2,0,L|252:356,1,50,10|0,0:0|0:0,0:0:0:0:
280,300,161208,1,10,0:0:0:0:
188,264,161384,1,0,0:0:0:0:
216,188,161559,2,0,L|287:173,1,50,0|2,1:0|1:0,0:0:0:0:
376,217,161910,2,0,L|328:228,1,50,0|2,0:0|0:0,0:0:0:0:
264,177,162261,6,0,B|243:127|243:127|252:68,1,100,4|10,0:0|0:0,0:0:0:0:
252,84,162787,2,0,L|301:78,1,50,0|8,0:0|0:0,0:0:0:0:
188,40,163138,1,0,0:0:0:0:
118,143,163313,2,0,L|168:136,1,50,10|0,0:0|0:0,0:0:0:0:
55,100,163664,1,10,0:0:0:0:
202,220,163840,2,0,L|152:212,1,50,0|8,0:0|0:0,0:0:0:0:
264,177,164191,1,0,0:0:0:0:
344,279,164366,2,0,L|296:272,1,50,10|0,0:0|0:0,0:0:0:0:
157,349,164717,6,0,L|256:335,1,100,2|10,1:0|0:0,0:0:0:0:
256,335,165243,2,0,L|252:286,1,50,0|10,0:0|0:0,0:0:0:0:
323,368,165594,1,0,0:0:0:0:
89,318,165770,2,0,L|85:268,1,50,10|0,0:0|0:0,0:0:0:0:
157,349,166120,1,10,0:0:0:0:
152,236,166296,2,0,L|156:185,1,50,0|10,0:0|0:0,0:0:0:0:
85,268,166647,1,0,0:0:0:0:
85,268,166734,1,0,0:0:0:0:
85,268,166822,2,0,L|89:318,1,50,2|8,1:0|0:0,0:0:0:0:
157,349,167173,5,6,0:0:0:0:
152,236,167349,1,0,0:0:0:0:
219,272,167524,2,0,L|224:322,1,50,0|10,1:0|0:0,0:0:0:0:
223,321,168050,1,2,0:0:0:0:
280,368,168226,2,0,B|331:376|331:376|384:360,1,100,10|0,0:0|1:0,0:0:0:0:
404,264,168752,2,0,L|396:196,1,50,10|0,0:0|0:0,0:0:0:0:
377,362,169103,1,2,0:0:0:0:
472,335,169278,1,8,0:0:0:0:
404,264,169454,1,0,0:0:0:0:
320,212,169629,6,0,L|323:264,1,50,6|0,0:0|0:0,0:0:0:0:
377,362,169980,1,2,1:0:0:0:
404,264,170156,2,0,L|408:152,1,100,8|0,0:0|0:0,0:0:0:0:
356,111,170682,2,0,P|328:108|300:115,1,50,2|0,0:0|0:0,0:0:0:0:
307,111,170945,1,0,0:0:0:0:
307,111,171033,2,0,L|314:162,1,50,8|8,0:0|0:0,0:0:0:0:
236,88,171384,2,0,L|228:137,1,50,0|2,1:0|0:0,0:0:0:0:
156,124,171734,2,0,L|163:173,1,50,8|0,0:0|1:0,0:0:0:0:
163,173,172085,6,0,L|39:168,1,100,4|0,0:0|1:0,0:0:0:0:
240,71,172436,1,8,0:0:0:0:
208,303,172612,1,0,1:0:0:0:
15,256,172787,2,0,L|138:249,1,100,8|0,0:0|1:0,0:0:0:0:
292,352,173138,1,8,0:0:0:0:
163,173,173313,1,0,1:0:0:0:
392,208,173489,2,0,B|388:247|388:247|384:320,1,100,8|0,0:0|1:0,0:0:0:0:
384,307,173752,1,0,1:0:0:0:
384,307,173840,1,8,0:0:0:0:
475,71,174015,1,0,1:0:0:0:
475,71,174103,1,0,1:0:0:0:
475,71,174191,1,8,0:0:0:0:
288,224,174366,1,0,0:0:0:0:
288,224,174454,1,0,0:0:0:0:
288,224,174541,5,8,0:0:0:0:
484,268,174716,1,8,0:0:0:0:
344,103,174891,1,8,0:0:0:0:
163,173,175067,2,0,L|171:232,1,50,8|0,0:0|0:0,0:0:0:0:
219,307,175242,1,8,0:0:0:0:
203,312,175330,1,8,0:0:0:0:
188,315,175418,1,8,0:0:0:0:
175,320,175505,1,8,0:0:0:0:
164,324,175593,6,0,B|161:381,3,50,10|2|2|2,0:0|0:0|0:0|0:0,0:0:0:0:
67,228,175944,1,4,1:0:0:0:
67,228,176295,5,0,0:0:0:0:
100,314,176470,1,0,0:0:0:0:
164,236,176646,1,0,0:0:0:0:
7,303,176821,1,0,0:0:0:0:
159,376,176997,1,0,0:0:0:0:
256,244,177172,1,0,0:0:0:0:
67,228,177348,6,0,L|76:340,1,100,6|0,0:0|0:0,0:0:0:0:
168,152,177698,1,8,0:0:0:0:
27,99,177874,1,0,1:0:0:0:
164,236,178049,1,0,0:0:0:0:
164,236,178137,1,8,0:0:0:0:
164,236,178225,2,0,B|208:240|208:240|263:229,1,100,0|8,1:0|0:0,0:0:0:0:
340,48,178576,1,0,1:0:0:0:
168,152,178751,5,0,0:0:0:0:
168,152,178839,1,8,0:0:0:0:
168,152,178926,2,0,B|124:148|124:148|68:158,1,100,0|8,1:0|0:0,0:0:0:0:
208,356,179277,1,0,1:0:0:0:
384,200,179453,1,0,0:0:0:0:
384,200,179541,1,8,0:0:0:0:
384,200,179628,1,0,1:0:0:0:
164,236,179804,1,8,0:0:0:0:
336,332,179979,1,0,0:0:0:0:
336,332,180067,1,8,0:0:0:0:
336,332,180155,6,0,L|455:348,1,100,0|0,1:0|0:0,0:0:0:0:
164,236,180505,2,0,B|216:228|216:228|284:212,1,100,8|0,0:0|0:0,0:0:0:0:
72,284,180856,1,0,0:0:0:0:
72,284,180944,1,8,0:0:0:0:
72,284,181032,1,0,1:0:0:0:
208,356,181207,1,8,0:0:0:0:
103,155,181383,1,0,1:0:0:0:
15,344,181558,5,0,0:0:0:0:
15,344,181646,1,8,0:0:0:0:
15,344,181733,2,0,L|131:348,1,100,0|8,1:0|0:0,0:0:0:0:
232,160,182084,1,0,1:0:0:0:
208,356,182260,2,0,L|280:335,1,50,0|8,1:0|0:0,0:0:0:0:
300,252,182435,2,0,L|371:272,1,50,0|0,1:0|1:0,0:0:0:0:
412,344,182611,1,8,0:0:0:0:
424,335,182698,1,0,1:0:0:0:
436,328,182786,1,0,1:0:0:0:
448,320,182874,1,8,0:0:0:0:
459,312,182962,6,0,L|463:200,1,100,4|0,0:0|0:0,0:0:0:0:
371,12,183312,1,8,0:0:0:0:
512,127,183488,1,0,1:0:0:0:
312,144,183663,1,0,0:0:0:0:
312,144,183751,1,8,0:0:0:0:
312,144,183839,1,0,1:0:0:0:
440,71,184014,1,8,0:0:0:0:
300,252,184190,1,0,1:0:0:0:
127,152,184365,5,0,0:0:0:0:
127,152,184453,1,8,0:0:0:0:
127,152,184541,2,0,L|232:139,1,100,0|8,1:0|0:0,0:0:0:0:
288,364,184891,1,0,1:0:0:0:
124,249,185067,1,0,1:0:0:0:
120,258,185155,1,8,0:0:0:0:
116,267,185242,1,0,1:0:0:0:
112,276,185330,1,0,1:0:0:0:
108,287,185418,2,0,L|0:303,1,100,8|0,0:0|0:0,0:0:0:0:
19,292,185681,1,8,0:0:0:0:
27,280,185769,6,0,B|14:229|14:229|18:177,1,100,0|0,1:0|0:0,0:0:0:0:
186,73,186119,2,0,B|199:124|199:124|195:172,1,100,8|0,0:0|0:0,0:0:0:0:
12,91,186470,1,0,0:0:0:0:
164,280,186646,1,0,1:0:0:0:
0,202,186821,2,0,L|116:192,1,100,8|0,0:0|0:0,0:0:0:0:
272,320,187172,5,0,0:0:0:0:
269,334,187260,1,8,0:0:0:0:
266,348,187348,1,0,1:0:0:0:
202,200,187523,1,8,0:0:0:0:
199,185,187611,1,0,0:0:0:0:
195,171,187699,1,0,1:0:0:0:
252,40,187874,2,0,L|320:48,1,50,0|8,0:0|0:0,0:0:0:0:
344,136,188049,2,0,L|412:127,1,50,0|0,1:0|1:0,0:0:0:0:
468,64,188225,1,8,0:0:0:0:
472,80,188312,1,8,0:0:0:0:
475,96,188400,1,0,1:0:0:0:
480,111,188488,1,0,1:0:0:0:
484,127,188576,6,0,L|480:240,1,100,4|0,0:0|0:0,0:0:0:0:
272,320,188926,2,0,L|275:208,1,100,8|0,0:0|1:0,0:0:0:0:
452,344,189277,1,0,0:0:0:0:
452,344,189365,1,8,0:0:0:0:
452,344,189453,1,0,1:0:0:0:
275,220,189628,1,8,0:0:0:0:
480,227,189804,1,0,1:0:0:0:
264,352,189979,5,0,0:0:0:0:
268,335,190067,1,8,0:0:0:0:
272,320,190155,2,0,L|275:208,1,100,0|8,1:0|0:0,0:0:0:0:
252,40,190505,1,0,1:0:0:0:
90,139,190680,1,0,1:0:0:0:
90,139,190768,1,8,0:0:0:0:
90,139,190856,2,0,L|203:131,1,100,0|8,1:0|0:0,0:0:0:0:
367,268,191207,1,0,0:0:0:0:
367,268,191295,1,8,0:0:0:0:
367,268,191383,5,0,1:0:0:0:
171,224,191558,1,0,1:0:0:0:
331,108,191733,2,0,L|318:7,1,100,8|0,0:0|1:0,0:0:0:0:
180,266,192084,2,0,B|191:215|191:215|195:168,1,100,0|0,0:0|1:0,0:0:0:0:
143,40,192435,1,8,0:0:0:0:
292,196,192611,1,0,1:0:0:0:
90,139,192786,5,0,0:0:0:0:
90,139,192874,1,8,0:0:0:0:
90,139,192962,1,0,1:0:0:0:
280,84,193137,1,8,0:0:0:0:
180,266,193312,1,0,1:0:0:0:
143,40,193488,1,0,0:0:0:0:
143,40,193576,1,8,0:0:0:0:
143,40,193663,1,0,1:0:0:0:
292,196,193839,2,0,L|284:256,1,50,8|0,0:0|1:0,0:0:0:0:
232,332,194014,2,0,L|238:381,1,50,0|8,1:0|0:0,0:0:0:0:
331,332,194190,6,0,L|448:320,1,100,4|0,0:0|0:0,0:0:0:0:
180,266,194541,2,0,L|81:276,1,100,8|0,0:0|1:0,0:0:0:0:
331,332,194891,1,0,0:0:0:0:
260,144,195067,1,0,1:0:0:0:
232,332,195242,1,8,0:0:0:0:
336,196,195418,1,0,1:0:0:0:
171,160,195593,5,0,0:0:0:0:
171,160,195681,1,8,0:0:0:0:
171,160,195769,1,0,1:0:0:0:
331,332,195944,1,8,0:0:0:0:
180,266,196119,1,0,1:0:0:0:
336,196,196295,1,0,0:0:0:0:
336,196,196383,1,8,0:0:0:0:
336,196,196470,1,0,1:0:0:0:
232,332,196646,2,0,L|180:324,1,50,8|0,0:0|1:0,0:0:0:0:
140,232,196821,2,0,L|87:240,1,50,0|8,1:0|0:0,0:0:0:0:
19,315,196997,6,0,B|7:272|7:272|12:200,1,100,4|0,0:0|0:0,0:0:0:0:
96,12,197348,1,8,0:0:0:0:
140,232,197523,1,0,1:0:0:0:
0,111,197698,2,0,L|108:103,1,100,0|0,0:0|1:0,0:0:0:0:
239,224,198049,2,0,L|131:232,1,100,8|0,0:0|1:0,0:0:0:0:
264,31,198400,6,0,L|256:96,1,50,10|0,0:0|0:0,0:0:0:0:
194,177,198576,2,0,L|243:184,1,50,10|0,0:0|0:0,0:0:0:0:
336,248,198752,2,0,L|344:200,1,50,10|0,0:0|0:0,0:0:0:0:
405,105,198927,2,0,L|356:99,1,50,10|0,0:0|0:0,0:0:0:0:
252,272,199102,1,0,1:0:0:0:
260,296,199190,1,0,1:0:0:0:
268,320,199277,1,0,1:0:0:0:
275,344,199365,1,0,1:0:0:0:
284,368,199453,6,0,B|216:368|216:368|143:340|143:340|63:340,1,225.000008583069,10|0,0:0|0:0,0:0:0:0:
63,340,199804,6,0,B|51:284|51:284|60:179,1,150,4|0,0:0|0:0,0:0:0:0:
58,191,200155,1,8,0:0:0:0:
159,19,200330,1,0,1:0:0:0:
164,264,200505,1,8,0:0:0:0:
60,91,200681,1,0,1:0:0:0:
236,184,200856,1,8,0:0:0:0:
58,191,201032,1,0,1:0:0:0:
240,80,201207,6,0,L|344:96,1,100,8|0,0:0|1:0,0:0:0:0:
175,244,201558,2,0,L|72:228,1,100,8|0,0:0|1:0,0:0:0:0:
63,208,201821,1,0,1:0:0:0:
48,188,201909,1,8,0:0:0:0:
188,224,202084,1,0,1:0:0:0:
175,244,202172,1,0,1:0:0:0:
164,264,202260,1,8,0:0:0:0:
159,19,202435,1,0,1:0:0:0:
147,40,202523,1,0,1:0:0:0:
136,60,202611,6,0,L|143:168,1,100,8|0,0:0|1:0,0:0:0:0:
252,328,202962,1,8,0:0:0:0:
236,184,203137,1,0,1:0:0:0:
124,348,203312,1,8,0:0:0:0:
236,184,203488,1,0,1:0:0:0:
31,256,203663,1,8,0:0:0:0:
252,328,203839,1,0,1:0:0:0:
143,159,204014,6,0,L|136:60,1,100,8|0,0:0|1:0,0:0:0:0:
340,208,204365,2,0,L|346:307,1,100,8|0,0:0|1:0,0:0:0:0:
331,320,204628,1,0,1:0:0:0:
316,332,204716,1,8,0:0:0:0:
424,232,204892,1,0,1:0:0:0:
421,212,204979,1,0,1:0:0:0:
417,192,205067,1,8,0:0:0:0:
459,356,205243,1,0,1:0:0:0:
478,363,205330,1,0,1:0:0:0:
497,370,205418,6,0,L|388:364,1,100,0|0,0:0|1:0,0:0:0:0:
243,200,205769,1,8,0:0:0:0:
424,232,205944,1,0,1:0:0:0:
208,360,206119,1,8,0:0:0:0:
340,179,206295,1,0,1:0:0:0:
397,364,206470,1,8,0:0:0:0:
164,264,206646,1,0,1:0:0:0:
247,99,206821,6,0,L|243:200,1,100,8|0,0:0|1:0,0:0:0:0:
51,144,207172,2,0,L|54:43,1,100,8|0,0:0|1:0,0:0:0:0:
76,35,207435,1,0,1:0:0:0:
96,28,207523,1,8,0:0:0:0:
200,220,207698,1,0,1:0:0:0:
179,228,207786,1,0,1:0:0:0:
159,236,207874,1,8,0:0:0:0:
231,59,208049,1,0,1:0:0:0:
239,80,208137,1,0,1:0:0:0:
247,99,208225,6,0,L|147:96,1,100,8|0,0:0|1:0,0:0:0:0:
367,260,208576,1,8,0:0:0:0:
200,220,208751,1,0,1:0:0:0:
371,115,208926,1,8,0:0:0:0:
367,260,209102,1,0,1:0:0:0:
247,99,209277,1,8,0:0:0:0:
472,200,209453,1,0,1:0:0:0:
268,332,209628,6,0,L|143:324,1,100,4|0,0:0|1:0,0:0:0:0:
147,94,209979,2,0,L|246:99,1,100,4|0,0:0|1:0,0:0:0:0:
72,348,210330,1,8,0:0:0:0:
67,328,210418,1,8,0:0:0:0:
63,307,210505,1,0,1:0:0:0:
60,288,210593,1,0,1:0:0:0:
55,268,210681,2,0,L|60:204,1,50,8|8,0:0|0:0,0:0:0:0:
147,96,210856,2,0,L|156:168,1,50,8|8,0:0|0:0,0:0:0:0:
203,252,211032,6,0,B|256:256|256:256|320:236,1,100,4|0,0:0|1:0,0:0:0:0:
364,52,211383,1,8,0:0:0:0:
424,280,211558,1,0,1:0:0:0:
275,144,211733,1,8,0:0:0:0:
472,176,211909,1,0,1:0:0:0:
300,241,212084,1,8,0:0:0:0:
463,71,212260,1,0,1:0:0:0:
424,280,212435,6,0,L|416:380,1,100,8|0,0:0|1:0,0:0:0:0:
275,144,212786,2,0,L|284:244,1,100,8|0,0:0|1:0,0:0:0:0:
275,264,213049,1,0,1:0:0:0:
268,284,213137,1,8,0:0:0:0:
136,332,213312,1,0,1:0:0:0:
127,312,213400,1,0,1:0:0:0:
120,292,213488,1,8,0:0:0:0:
216,192,213663,1,0,1:0:0:0:
208,212,213751,1,0,1:0:0:0:
200,232,213839,6,0,L|87:228,1,100,8|0,0:0|1:0,0:0:0:0:
212,60,214190,1,8,0:0:0:0:
275,264,214365,1,0,1:0:0:0:
31,155,214541,1,8,0:0:0:0:
275,144,214716,1,0,1:0:0:0:
120,292,214891,1,8,0:0:0:0:
124,111,215067,1,0,1:0:0:0:
312,179,215242,6,0,L|308:300,1,100,8|0,0:0|1:0,0:0:0:0:
127,192,215593,2,0,L|131:71,1,100,8|0,0:0|1:0,0:0:0:0:
138,73,215856,1,0,1:0:0:0:
146,55,215944,1,8,0:0:0:0:
216,192,216119,1,0,1:0:0:0:
219,212,216207,1,0,1:0:0:0:
224,232,216295,1,8,0:0:0:0:
112,332,216470,1,0,1:0:0:0:
116,312,216558,1,0,1:0:0:0:
120,292,216646,6,0,L|236:284,1,100,12|0,0:0|1:0,0:0:0:0:
312,376,216997,1,8,0:0:0:0:
216,192,217172,1,0,1:0:0:0:
416,296,217348,1,8,0:0:0:0:
218,284,217523,1,0,1:0:0:0:
344,131,217698,1,8,0:0:0:0:
312,376,217874,1,0,1:0:0:0:
216,192,218049,6,0,L|208:75,1,100,8|0,0:0|1:0,0:0:0:0:
409,196,218400,2,0,L|417:312,1,100,8|0,0:0|1:0,0:0:0:0:
404,312,218663,1,0,1:0:0:0:
392,328,218751,2,0,L|336:324,1,50,8|0,0:0|0:0,0:0:0:0:
272,252,218926,1,0,1:0:0:0:
252,260,219014,1,0,1:0:0:0:
232,268,219102,2,0,L|233:317,1,50,8|0,0:0|0:0,0:0:0:0:
140,228,219277,2,0,L|136:160,1,50,0|0,1:0|1:0,0:0:0:0:
175,84,219453,5,8,0:0:0:0:
180,91,219540,1,0,0:0:0:0:
184,99,219628,1,0,1:0:0:0:
188,108,219716,1,0,1:0:0:0:
192,115,219804,5,8,0:0:0:0:
205,95,219891,1,0,0:0:0:0:
226,80,219979,1,0,1:0:0:0:
249,71,220067,1,0,1:0:0:0:
273,71,220154,1,8,0:0:0:0:
298,79,220242,1,0,0:0:0:0:
318,94,220330,1,0,1:0:0:0:
331,113,220418,1,0,1:0:0:0:
340,137,220505,1,8,0:0:0:0:
340,162,220593,1,0,0:0:0:0:
331,185,220681,1,0,1:0:0:0:
317,206,220768,1,0,1:0:0:0:
297,220,220856,6,0,L|232:215,1,50,10|0,0:0|0:0,0:0:0:0:
236,315,221032,2,0,L|186:312,1,50,10|0,0:0|0:0,0:0:0:0:
342,354,221207,2,0,L|391:350,1,50,10|0,0:0|0:0,0:0:0:0:
393,266,221383,2,0,L|443:262,1,50,10|0,0:0|0:0,0:0:0:0:
311,150,221558,6,0,P|308:203|308:300,1,133.333333333333,0|0,1:0|1:0,0:0:0:0:
308,284,221909,6,0,P|364:315|432:244,1,150,0|0,1:0|0:0,0:0:0:0:
427,272,222260,6,0,L|420:184,1,80,4|8,0:0|0:0,0:0:0:0:
352,155,222523,2,0,L|360:71,1,80,0|8,1:0|0:0,0:0:0:0:
420,24,222786,1,0,1:0:0:0:
308,284,222962,2,0,L|195:276,1,80,0|8,0:0|0:0,0:0:0:0:
352,155,223312,1,0,0:0:0:0:
379,352,223488,1,0,1:0:0:0:
379,352,223576,1,0,1:0:0:0:
379,352,223663,2,0,L|328:368,2,40,8|0|0,0:0|1:0|1:0,0:0:0:0:
308,284,223926,2,0,L|256:268,2,40,8|0|0,0:0|1:0|1:0,0:0:0:0:
268,352,224190,2,0,L|216:368,1,40,8|0,0:0|1:0,0:0:0:0:
229,363,224540,6,0,P|175:335|184:240,1,160,4|0,0:0|0:0,0:0:0:0:
275,172,225067,1,8,0:0:0:0:
275,172,225155,1,8,0:0:0:0:
275,172,225242,2,0,B|280:215|280:215|275:268,1,80,0|8,1:0|0:0,0:0:0:0:
136,172,225593,2,0,B|131:127|131:127|136:75,1,80
275,19,225944,2,0,L|388:24,1,80,0|0,1:0|0:0,0:0:0:0:
364,40,226207,1,0,0:0:0:0:
371,60,226295,1,0,0:0:0:0:
379,80,226383,1,0,0:0:0:0:
388,99,226470,2,0,L|379:204,1,80,8|12,0:0|0:0,0:0:0:0:
444,232,226821,6,0,L|456:308,2,53.3333333333333,0|0|0,1:0|1:0|1:0,0:0:0:0:
381,178,227172,6,0,B|336:184|336:184|269:187,1,80,4|0,0:0|0:0,0:0:0:0:
200,60,227523,1,8,0:0:0:0:
200,60,227611,1,8,0:0:0:0:
200,60,227698,1,0,1:0:0:0:
300,268,227874,1,8,0:0:0:0:
300,103,228049,1,0,1:0:0:0:
180,212,228225,2,0,L|192:320,1,80,0|0,0:0|1:0,0:0:0:0:
328,372,228576,1,0,0:0:0:0:
264,184,228751,1,0,0:0:0:0:
264,184,228839,1,0,0:0:0:0:
264,184,228926,6,0,L|268:117,2,53.3333333333333,0|0|8,1:0|1:0|0:0,0:0:0:0:
180,212,229277,2,0,L|188:278,2,53.3333333333333,0|0|8,1:0|1:0|0:0,0:0:0:0:
124,148,229628,6,0,P|83:136|19:155,1,80,4|0,0:0|0:0,0:0:0:0:
200,60,229979,1,8,0:0:0:0:
200,60,230067,1,8,0:0:0:0:
200,60,230155,1,0,1:0:0:0:
264,184,230330,2,0,L|371:179,1,80,8|0,0:0|1:0,0:0:0:0:
404,236,230681,6,0,L|398:303,1,53.3333333333333,8|0,0:0|1:0,0:0:0:0:
424,160,230915,1,0,1:0:0:0:
480,264,231032,2,0,L|473:342,1,53.3333333333333,8|0,0:0|1:0,0:0:0:0:
500,188,231266,1,0,1:0:0:0:
424,160,231383,1,0,1:0:0:0:
424,160,231499,2,0,B|365:167|365:167|319:157,1,106.666666666667,0|8,1:0|0:0,0:0:0:0:
200,60,231909,1,8,0:0:0:0:
200,60,231997,1,8,0:0:0:0:
200,60,232084,6,0,L|203:152,1,80,4|0,0:0|1:0,0:0:0:0:
355,282,232435,2,8,L|352:204,1,80,8|0,0:0|1:0,0:0:0:0:
195,244,232786,1,8,0:0:0:0:
195,244,232874,1,8,0:0:0:0:
195,244,232962,1,0,1:0:0:0:
355,282,233137,1,0,0:0:0:0:
212,148,233312,1,8,0:0:0:0:
272,360,233488,1,0,0:0:0:0:
352,204,233663,1,0,1:0:0:0:
219,155,233839,1,8,0:0:0:0:
284,324,234014,1,0,1:0:0:0:
116,247,234190,2,0,L|200:243,1,80,8|8,0:0|0:0,0:0:0:0:
100,372,234540,6,0,L|19:368,1,80,0|0,1:0|1:0,0:0:0:0:
96,148,234891,1,8,0:0:0:0:
195,272,235067,1,0,1:0:0:0:
195,272,235155,1,8,0:0:0:0:
195,272,235242,2,0,L|212:368,1,80,0|0,0:0|1:0,0:0:0:0:
15,200,235593,2,0,B|7:240|7:240|0:296,1,80,0|8,0:0|0:0,0:0:0:0:
192,148,235944,1,0,0:0:0:0:
55,64,236119,1,0,1:0:0:0:
195,272,236295,1,8,0:0:0:0:
284,108,236470,1,0,1:0:0:0:
96,148,236646,2,0,L|103:288,1,120,12|8,0:0|0:0,0:0:0:0:
101,267,236997,5,4,0:0:0:0:
152,60,237172,1,0,1:0:0:0:
15,200,237348,1,8,0:0:0:0:
195,272,237523,1,0,1:0:0:0:
195,272,237611,1,8,0:0:0:0:
195,272,237698,2,0,L|288:264,1,80,0|0,1:0|1:0,0:0:0:0:
79,368,238049,2,0,L|-12:360,1,80,0|8,0:0|0:0,0:0:0:0:
143,192,238400,1,8,0:0:0:0:
143,192,238488,1,8,0:0:0:0:
143,192,238576,1,0,1:0:0:0:
256,352,238751,1,8,0:0:0:0:
101,267,238926,1,0,1:0:0:0:
260,136,239102,1,8,0:0:0:0:
195,272,239277,1,8,0:0:0:0:
60,188,239453,6,0,L|63:96,1,80,0|0,1:0|0:0,0:0:0:0:
175,7,239804,1,8,0:0:0:0:
143,192,239979,1,0,1:0:0:0:
143,192,240067,1,8,0:0:0:0:
143,192,240155,1,0,0:0:0:0:
63,24,240330,1,0,1:0:0:0:
260,136,240505,1,8,0:0:0:0:
12,108,240681,2,0,L|143:96,1,120,4|0,0:0|0:0,0:0:0:0:
131,97,241032,1,0,1:0:0:0:
100,324,241207,1,8,0:0:0:0:
7,204,241383,1,0,1:0:0:0:
143,192,241558,2,0,L|195:200,1,40,8|8,0:0|0:0,0:0:0:0:
240,256,241733,1,8,0:0:0:0:
241,259,241821,1,8,0:0:0:0:
245,262,241909,5,6,0:0:0:0:
216,352,242084,1,0,0:0:0:0:
312,328,242259,1,0,1:0:0:0:
170,332,242435,2,0,L|216:352,1,50,8|0,0:0|0:0,0:0:0:0:
312,328,242786,1,0,0:0:0:0:
312,328,242873,1,0,0:0:0:0:
312,328,242961,2,0,L|352:298,1,50,2|8,1:0|0:0,0:0:0:0:
240,256,243312,1,8,0:0:0:0:
312,328,243487,1,2,1:0:0:0:
316,228,243663,2,0,L|308:155,1,50,8|0,0:0|0:0,0:0:0:0:
228,124,244014,2,0,L|236:196,1,50,8|0,3:0|0:0,0:0:0:0:
316,228,244365,6,0,B|356:224|356:224|384:232|384:232|424:228,1,100,6|0,0:0|0:0,0:0:0:0:
472,179,244891,1,10,0:0:0:0:
419,82,245066,2,0,L|416:131,1,50,0|8,0:0|0:0,0:0:0:0:
413,136,245330,1,8,0:0:0:0:
411,139,245417,1,0,1:0:0:0:
475,31,245593,1,8,0:0:0:0:
419,82,245768,6,0,L|360:75,1,50,8|2,0:0|1:0,0:0:0:0:
266,29,246119,2,0,L|316:24,1,50,8|2,0:0|1:0,0:0:0:0:
348,148,246470,2,0,L|289:141,1,50,8|2,0:0|0:0,0:0:0:0:
240,96,246821,6,0,B|219:139|219:139|240:204,1,100,6|10,0:0|0:0,0:0:0:0:
296,236,247347,2,0,L|288:288,1,50,0|8,0:0|0:0,0:0:0:0:
235,189,247698,1,0,0:0:0:0:
409,195,247873,2,0,L|401:247,1,50,10|0,0:0|0:0,0:0:0:0:
348,148,248224,1,10,0:0:0:0:
512,152,248400,2,0,L|504:204,1,50,0|8,0:0|0:0,0:0:0:0:
451,105,248751,1,0,0:0:0:0:
340,97,248926,2,0,L|348:150,1,50,10|0,0:0|0:0,0:0:0:0:
401,50,249277,6,0,L|296:48,1,100,2|10,1:0|0:0,0:0:0:0:
228,43,249803,1,0,0:0:0:0:
152,40,249979,2,0,L|83:52,1,50,10|0,0:0|0:0,0:0:0:0:
48,99,250330,2,0,L|60:168,1,50,10|0,0:0|0:0,0:0:0:0:
127,176,250680,1,10,0:0:0:0:
96,272,250856,1,0,0:0:0:0:
164,300,251031,2,0,L|175:368,1,50,8|0,0:0|0:0,0:0:0:0:
177,351,251294,1,0,0:0:0:0:
182,353,251382,2,0,L|241:361,1,50,2|8,1:0|0:0,0:0:0:0:
275,301,251733,6,0,P|316:333|360:313,1,100,6|2,0:0|1:0,0:0:0:0:
356,315,252259,2,0,L|348:267,1,50,8|0,0:0|0:0,0:0:0:0:
371,199,252610,1,2,0:0:0:0:
432,324,252786,2,0,L|424:372,1,50,2|8,1:0|0:0,0:0:0:0:
448,224,253137,1,0,1:0:0:0:
371,199,253312,1,8,0:0:0:0:
388,99,253487,2,0,L|448:96,1,50,2|0,0:0|1:0,0:0:0:0:
296,176,253838,2,0,L|236:179,1,50,8|0,3:0|0:0,0:0:0:0:
246,178,254189,6,0,L|256:288,1,100,6|2,0:0|1:0,0:0:0:0:
192,320,254716,2,0,L|188:372,1,50,8|0,0:0|0:0,0:0:0:0:
112,372,255066,1,8,0:0:0:0:
112,372,255154,1,8,0:0:0:0:
112,372,255242,2,0,L|108:322,1,50,2|8,1:0|0:0,0:0:0:0:
51,272,255593,1,0,1:0:0:0:
140,224,255768,2,0,L|143:174,1,50,8|0,0:0|1:0,0:0:0:0:
87,124,256119,1,0,1:0:0:0:
180,88,256294,2,0,L|175:37,1,50,8|0,0:0|0:0,0:0:0:0:
175,37,256645,6,0,L|292:40,1,100,12|0,0:0|1:0,0:0:0:0:
352,224,256996,1,8,0:0:0:0:
288,48,257172,1,0,1:0:0:0:
87,124,257347,2,0,L|203:125,1,100,8|0,0:0|1:0,0:0:0:0:
260,312,257698,1,8,0:0:0:0:
288,122,257873,1,0,1:0:0:0:
124,252,258049,1,8,0:0:0:0:
384,120,258224,1,0,1:0:0:0:
384,120,258312,1,0,1:0:0:0:
384,120,258400,1,8,0:0:0:0:
175,37,258575,1,0,1:0:0:0:
175,37,258663,1,0,1:0:0:0:
175,37,258751,1,8,0:0:0:0:
399,303,258926,1,0,1:0:0:0:
399,303,259014,1,0,1:0:0:0:
399,303,259101,6,8,L|331:296,3,50
296,215,259451,2,8,L|246:221,3,50
164,276,259802,1,8,0:0:0:0:
143,268,259890,1,8,0:0:0:0:
124,260,259978,1,8,0:0:0:0:
103,252,260065,1,8,0:0:0:0:
83,244,260153,6,0,L|90:322,3,50,10|2|2|2,0:0|0:0|0:0|0:0,0:0:0:0:
120,152,260504,5,4,1:0:0:0:
164,276,260679,1,0,0:0:0:0:
3,155,260855,1,0,0:0:0:0:
200,196,261030,1,0,0:0:0:0:
27,296,261206,1,0,0:0:0:0:
120,152,261381,1,0,0:0:0:0:
140,320,261557,1,0,0:0:0:0:
0,299,261732,1,0,0:0:0:0:
3,155,261908,6,0,L|19:35,1,100,4|0,0:0|0:0,0:0:0:0:
140,320,262258,1,8,0:0:0:0:
27,296,262434,1,0,1:0:0:0:
120,152,262609,1,0,0:0:0:0:
120,152,262697,1,8,0:0:0:0:
120,152,262785,2,0,L|106:251,1,100,0|8,1:0|0:0,0:0:0:0:
3,155,263136,1,0,1:0:0:0:
203,71,263311,5,0,0:0:0:0:
203,71,263399,1,8,0:0:0:0:
203,71,263486,2,0,L|218:171,1,100,0|8,1:0|0:0,0:0:0:0:
140,320,263837,1,0,1:0:0:0:
312,192,264013,1,0,0:0:0:0:
312,192,264101,1,8,0:0:0:0:
312,192,264188,1,0,1:0:0:0:
120,152,264364,1,8,0:0:0:0:
256,300,264539,1,0,0:0:0:0:
256,300,264627,1,8,0:0:0:0:
256,300,264715,6,0,L|364:296,1,100
219,148,265065,1,8,0:0:0:0:
140,320,265241,1,0,1:0:0:0:
312,192,265416,2,0,P|308:144|303:88,1,100,0|0,0:0|1:0,0:0:0:0:
168,240,265767,2,0,P|170:287|175:344,1,100,8|0,0:0|1:0,0:0:0:0:
219,148,266118,5,0,0:0:0:0:
219,148,266206,1,8,0:0:0:0:
219,148,266293,1,0,1:0:0:0:
48,252,266469,1,8,0:0:0:0:
256,300,266644,1,0,1:0:0:0:
120,152,266820,1,0,0:0:0:0:
120,152,266908,1,8,0:0:0:0:
120,152,266995,1,0,1:0:0:0:
125,347,267171,2,0,L|202:335,1,50,8|0,0:0|1:0,0:0:0:0:
240,264,267346,2,0,L|289:271,1,50,0|8,1:0|0:0,0:0:0:0:
364,340,267522,6,0,L|475:328,1,100,4|0,0:0|0:0,0:0:0:0:
328,144,267872,1,8,0:0:0:0:
280,360,268048,1,0,1:0:0:0:
424,212,268223,1,0,0:0:0:0:
424,212,268311,1,8,0:0:0:0:
424,212,268399,1,0,1:0:0:0:
240,264,268574,1,8,0:0:0:0:
462,329,268750,1,0,1:0:0:0:
203,184,268925,5,0,0:0:0:0:
203,184,269013,1,8,0:0:0:0:
203,184,269101,2,0,L|200:312,1,100,0|8,1:0|0:0,0:0:0:0:
31,363,269451,1,0,1:0:0:0:
116,204,269627,1,0,0:0:0:0:
116,204,269715,1,8,0:0:0:0:
116,204,269802,1,0,1:0:0:0:
260,344,269978,1,8,0:0:0:0:
36,276,270153,1,0,0:0:0:0:
36,276,270241,1,8,0:0:0:0:
36,276,270329,6,0,B|27:236|27:236|31:160,1,100,0|0,0:0|1:0,0:0:0:0:
131,3,270679,1,8,0:0:0:0:
116,204,270855,1,0,1:0:0:0:
0,84,271030,2,0,L|112:91,1,100,0|0,0:0|1:0,0:0:0:0:
315,244,271381,2,0,B|266:247|266:247|216:256,1,100,8|0,0:0|1:0,0:0:0:0:
55,380,271732,5,0,0:0:0:0:
55,380,271820,1,8,0:0:0:0:
55,380,271908,1,0,1:0:0:0:
116,204,272083,1,8,0:0:0:0:
260,344,272258,1,0,1:0:0:0:
36,276,272434,2,0,L|27:224,1,50,0|8,0:0|0:0,0:0:0:0:
108,154,272609,2,0,L|115:202,1,50,0|0,1:0|1:0,0:0:0:0:
7,127,272785,1,8,0:0:0:0:
15,111,272872,1,8,0:0:0:0:
23,91,272960,1,0,1:0:0:0:
31,75,273048,1,0,1:0:0:0:
39,60,273136,6,0,L|143:43,1,100,4|0,0:0|0:0,0:0:0:0:
288,176,273486,1,8,0:0:0:0:
108,154,273662,1,0,1:0:0:0:
272,31,273837,1,0,0:0:0:0:
272,31,273925,1,8,0:0:0:0:
272,31,274013,1,0,1:0:0:0:
192,312,274188,2,0,L|180:200,1,100,8|0,0:0|1:0,0:0:0:0:
364,96,274539,5,0,0:0:0:0:
364,96,274627,1,8,0:0:0:0:
364,96,274715,1,0,1:0:0:0:
288,280,274890,1,8,0:0:0:0:
108,154,275065,1,0,1:0:0:0:
288,176,275241,1,0,0:0:0:0:
288,176,275329,1,8,0:0:0:0:
288,176,275416,2,0,L|280:292,1,100,0|8,1:0|0:0,0:0:0:0:
96,352,275767,1,0,0:0:0:0:
96,352,275855,1,8,0:0:0:0:
96,352,275943,6,0,L|101:252,1,100,0|0,1:0|1:0,0:0:0:0:
212,84,276293,1,8,0:0:0:0:
275,272,276469,1,0,1:0:0:0:
27,196,276644,1,0,0:0:0:0:
27,196,276732,1,8,0:0:0:0:
27,196,276820,1,0,1:0:0:0:
288,176,276995,1,8,0:0:0:0:
101,252,277171,1,0,1:0:0:0:
120,35,277346,5,0,0:0:0:0:
120,35,277434,1,8,0:0:0:0:
120,35,277522,2,0,L|131:155,1,100,0|8,1:0|0:0,0:0:0:0:
96,352,277872,1,0,1:0:0:0:
27,196,278048,2,0,L|87:204,1,50,0|8,0:0|0:0,0:0:0:0:
164,252,278223,2,0,L|224:244,1,50,0|0,1:0|1:0,0:0:0:0:
288,176,278399,1,8,0:0:0:0:
288,176,278486,1,8,0:0:0:0:
288,176,278574,1,0,1:0:0:0:
288,176,278662,1,0,1:0:0:0:
288,176,278750,6,0,L|412:179,1,100,4|0,0:0|1:0,0:0:0:0:
300,352,279101,2,0,L|200:348,1,100,8|0,0:0|1:0,0:0:0:0:
452,260,279451,1,0,0:0:0:0:
452,260,279539,1,8,0:0:0:0:
452,260,279627,1,0,1:0:0:0:
164,252,279802,1,8,0:0:0:0:
392,103,279978,1,0,1:0:0:0:
300,352,280153,5,0,0:0:0:0:
300,352,280241,1,8,0:0:0:0:
300,352,280329,1,0,1:0:0:0:
312,152,280504,1,8,0:0:0:0:
408,356,280679,1,0,1:0:0:0:
243,244,280855,1,0,0:0:0:0:
243,244,280943,1,8,0:0:0:0:
243,244,281030,1,0,1:0:0:0:
452,260,281206,1,8,0:0:0:0:
300,352,281381,1,0,1:0:0:0:
300,352,281469,1,8,0:0:0:0:
300,352,281557,6,0,B|260:360|260:360|192:356,1,100,0|0,0:0|1:0,0:0:0:0:
63,184,281908,1,8,0:0:0:0:
72,368,282083,1,0,1:0:0:0:
243,244,282258,1,0,0:0:0:0:
243,244,282346,1,8,0:0:0:0:
243,244,282434,1,0,1:0:0:0:
140,52,282609,2,0,L|152:176,1,100,8|0,0:0|1:0,0:0:0:0:
340,220,282960,6,0,L|389:210,1,50,10|0,0:0|0:0,0:0:0:0:
243,244,283136,2,0,L|233:194,1,50,10|0,0:0|0:0,0:0:0:0:
264,340,283311,2,0,L|214:348,1,50,10|0,0:0|0:0,0:0:0:0:
360,315,283486,2,0,L|368:365,1,50,10|0,0:0|0:0,0:0:0:0:
214,348,283662,1,0,1:0:0:0:
194,341,283750,1,0,1:0:0:0:
173,333,283837,1,0,1:0:0:0:
154,325,283925,1,0,1:0:0:0:
134,317,284013,6,0,B|133:239|133:239|159:160|159:160|159:88,1,225.000008583069,10|0,0:0|0:0,0:0:0:0:
159,96,284364,5,14,0:0:0:0:
55,131,284539,1,0,1:0:0:0:
60,152,284627,1,0,1:0:0:0:
63,172,284715,1,0,1:0:0:0:
67,192,284802,1,0,1:0:0:0:
72,212,284890,1,14,0:0:0:0:
72,212,285592,5,0,1:0:0:0:
127,224,285679,1,0,1:0:0:0:
188,240,285767,2,0,B|219:236|219:236|243:236|243:236|268:228,1,80,10|0,0:0|0:0,0:0:0:0:
336,80,286030,2,0,B|323:109|323:109|311:130|311:130|306:154,1,80,10|0,0:0|0:0,0:0:0:0:
399,288,286293,2,0,B|379:262|379:262|367:241|367:241|348:224,1,80,14|0,0:0|0:0,0:0:0:0:
224,155,286644,1,0,1:0:0:0:
280,271,286820,5,0,0:0:0:0:
279,287,286908,1,0,0:0:0:0:
277,303,286996,1,0,0:0:0:0:
275,319,287083,1,0,0:0:0:0:
273,335,287171,5,8,0:0:0:0:
240,315,287258,1,0,0:0:0:0:
200,311,287346,1,0,1:0:0:0:
164,330,287434,1,0,0:0:0:0:
147,367,287522,5,0,1:0:0:0:
87,351,287609,1,0,0:0:0:0:
23,338,287697,1,10,0:0:0:0:
23,338,288048,2,0,L|12:223,1,80,8|0,0:0|1:0,0:0:0:0:
103,124,288399,6,0,B|184:144|184:144|256:111,1,160,4|0,0:0|1:0,0:0:0:0:
252,91,288837,1,0,1:0:0:0:
248,71,288925,1,8,0:0:0:0:
354,131,289100,5,0,1:0:0:0:
352,111,289188,1,0,1:0:0:0:
348,91,289276,1,8,0:0:0:0:
459,152,289451,5,0,1:0:0:0:
458,131,289539,1,0,1:0:0:0:
454,111,289627,5,10,0:0:0:0:
404,120,289715,1,0,1:0:0:0:
379,164,289802,1,0,1:0:0:0:
392,215,289890,1,0,1:0:0:0:
436,247,289978,6,0,B|444:288|444:288|436:328,1,80,14|0,0:0|1:0,0:0:0:0:
416,332,290241,1,0,1:0:0:0:
396,335,290329,1,0,1:0:0:0:
376,340,290416,1,0,1:0:0:0:
356,344,290504,1,14,0:0:0:0:
356,344,290855,6,0,L|272:328,2,80,2|2|2,0:0|0:0|0:0,0:0:0:0:
212,240,291381,6,0,L|208:298,2,53.3333333333333,0|0|0,1:0|1:0|1:0,0:0:0:0:
308,256,291732,2,0,L|303:189,1,53.3333333333333,0|0,1:0|1:0,0:0:0:0:
200,131,291966,1,0,1:0:0:0:
156,192,292083,6,0,L|55:200,1,80,10|0,0:0|1:0,0:0:0:0:
116,40,292434,2,0,L|195:32,1,80,10|0,0:0|0:0,0:0:0:0:
360,144,292785,5,8,0:0:0:0:
356,160,292872,1,0,0:0:0:0:
352,176,292960,1,0,1:0:0:0:
348,192,293048,1,0,1:0:0:0:
344,208,293136,1,8,0:0:0:0:
421,272,293311,2,0,L|427:323,3,33.3333333333333,10|2|2|2,0:0|1:0|1:0|1:0,0:0:0:0:
272,271,293662,1,8,0:0:0:0:
324,381,293837,2,0,L|327:347,3,33.3333333333333,10|2|2|2,0:0|1:0|1:0|1:0,0:0:0:0:
328,348,294188,6,0,L|208:340,1,100,14|0,0:0|1:0,0:0:0:0:
228,341,294451,1,0,1:0:0:0:
228,341,294539,1,8,0:0:0:0:
100,300,294715,1,0,1:0:0:0:
100,300,294802,1,0,1:0:0:0:
100,300,294890,2,0,L|108:372,3,50,8|8|0|0,0:0|0:0|1:0|1:0,0:0:0:0:
203,247,295241,2,0,L|195:176,1,50,8|8,0:0|0:0,0:0:0:0:
39,196,295416,2,0,L|34:245,1,50,8|8,0:0|0:0,0:0:0:0:
124,174,295592,6,0,B|135:125|135:125|128:26,1,150,4|0,0:0|0:0,0:0:0:0:
126,26,295943,1,8,0:0:0:0:
39,196,296118,1,0,1:0:0:0:
232,124,296293,1,8,0:0:0:0:
43,88,296469,1,0,1:0:0:0:
203,247,296644,2,0,L|320:228,1,100,8|0,0:0|1:0,0:0:0:0:
232,124,296995,5,8,0:0:0:0:
212,340,297171,1,0,1:0:0:0:
124,174,297346,1,8,0:0:0:0:
303,288,297522,1,0,1:0:0:0:
303,288,297609,1,0,1:0:0:0:
303,288,297697,1,8,0:0:0:0:
119,266,297872,1,0,1:0:0:0:
119,266,297960,1,0,1:0:0:0:
119,266,298048,1,8,0:0:0:0:
208,64,298223,1,0,1:0:0:0:
208,64,298311,1,0,1:0:0:0:
208,64,298399,6,0,L|203:168,1,100,8|0,0:0|1:0,0:0:0:0:
303,288,298750,1,8,0:0:0:0:
119,266,298925,1,0,1:0:0:0:
367,172,299101,1,8,0:0:0:0:
396,372,299276,1,0,1:0:0:0:
212,340,299451,1,8,0:0:0:0:
268,184,299627,1,0,1:0:0:0:
404,280,299802,6,0,L|303:288,1,100,8|0,0:0|1:0,0:0:0:0:
264,91,300153,1,8,0:0:0:0:
119,266,300329,1,0,1:0:0:0:
119,266,300416,1,0,1:0:0:0:
119,266,300504,1,8,0:0:0:0:
367,172,300679,1,0,1:0:0:0:
367,172,300767,1,0,1:0:0:0:
367,172,300855,5,8,0:0:0:0:
364,224,300943,1,0,1:0:0:0:
360,272,301030,1,0,1:0:0:0:
356,320,301118,1,0,1:0:0:0:
352,368,301206,6,0,B|408:364|408:364|444:344|444:344|504:340,1,150,14|0,0:0|0:0,0:0:0:0:
495,340,301557,1,8,0:0:0:0:
364,224,301732,1,0,1:0:0:0:
243,364,301908,1,8,0:0:0:0:
428,284,302083,1,0,1:0:0:0:
256,184,302258,2,0,L|275:288,1,100,8|0,0:0|1:0,0:0:0:0:
424,55,302609,6,0,B|408:103|408:103|399:164,1,100,8|0,0:0|1:0,0:0:0:0:
428,284,302960,1,8,0:0:0:0:
504,139,303136,1,0,1:0:0:0:
504,139,303223,1,0,1:0:0:0:
504,139,303311,1,8,0:0:0:0:
312,91,303486,1,0,1:0:0:0:
312,91,303574,1,0,1:0:0:0:
312,91,303662,5,8,0:0:0:0:
252,80,303750,1,0,1:0:0:0:
192,68,303837,1,0,1:0:0:0:
131,55,303925,1,0,1:0:0:0:
72,43,304013,5,0,1:0:0:0:
76,52,304101,1,0,1:0:0:0:
79,60,304188,1,0,1:0:0:0:
83,68,304276,2,0,L|79:155,1,50,0|8,1:0|0:0,0:0:0:0:
24,229,304539,6,8,L|34:274,3,33.3333333333333,8|8|8|0,0:0|0:0|0:0|1:0,0:0:0:0:
63,296,304802,1,0,1:0:0:0:
112,300,304890,1,0,0:0:0:0:
156,276,304978,1,0,0:0:0:0:
180,232,305065,5,8,0:0:0:0:
188,260,305153,1,0,1:0:0:0:
195,288,305241,1,0,1:0:0:0:
203,315,305329,1,0,1:0:0:0:
212,344,305416,6,0,L|280:352,1,50,10|0,0:0|0:0,0:0:0:0:
333,257,305592,2,10,L|284:252,1,50,10|0,0:0|0:0,0:0:0:0:
388,340,305767,2,0,L|436:334,1,50,10|0,0:0|0:0,0:0:0:0:
501,225,305943,2,0,L|452:232,1,50,10|0,0:0|0:0,0:0:0:0:
451,232,306118,6,0,P|474:169|444:82,1,133.333333333333,0|0,1:0|1:0,0:0:0:0:
460,105,306469,6,0,L|349:116,1,100,0|0,1:0|1:0,0:0:0:0:
512,308,306820,1,4,0:0:0:0:
143,91,317697,6,0,L|152:148,1,50,0|8,0:0|0:0,0:0:0:0:
151,141,318048,6,0,B|195:144|195:144|268:127|268:127|312:131,2,160,4|0|0,0:0|1:0|1:0,0:0:0:0:
252,15,318925,1,0,0:0:0:0:
321,210,319101,2,0,L|308:131,1,80,0|0,1:0|0:0,0:0:0:0:
152,108,319451,6,0,L|164:187,1,80,0|0,1:0|0:0,0:0:0:0:
272,328,319802,1,0,1:0:0:0:
321,210,319978,1,0,0:0:0:0:
164,187,320153,1,0,1:0:0:0:
379,296,320329,1,0,0:0:0:0:
268,127,320504,1,0,1:0:0:0:
195,272,320679,1,0,0:0:0:0:
195,272,320767,1,0,0:0:0:0:
195,272,320855,6,0,B|136:280|136:280|31:276,2,160,0|0|0,1:0|1:0|1:0,0:0:0:0:
321,210,321732,1,0,0:0:0:0:
164,187,321908,2,0,B|165:225|165:225|171:271,1,80,0|0,1:0|0:0,0:0:0:0:
328,289,322258,6,0,B|326:248|326:248|320:209,1,80,0|0,1:0|0:0,0:0:0:0:
87,136,322609,2,0,B|82:176|82:176|79:215,1,80,0|0,1:0|0:0,0:0:0:0:
212,307,322960,1,0,1:0:0:0:
164,188,323136,1,0,0:0:0:0:
87,344,323311,1,0,1:0:0:0:
260,215,323486,1,0,0:0:0:0:
260,215,323574,1,0,0:0:0:0:
260,215,323662,6,0,P|252:136|240:40,1,160,0|0,1:0|1:0,0:0:0:0:
164,188,324188,1,0,0:0:0:0:
212,307,324364,2,0,L|292:296,1,80,0|0,1:0|0:0,0:0:0:0:
399,168,324715,2,0,L|320:155,1,80,0|0,1:0|0:0,0:0:0:0:
376,332,325065,5,0,1:0:0:0:
399,168,325241,1,0,0:0:0:0:
260,215,325416,1,0,1:0:0:0:
452,244,325592,1,0,0:0:0:0:
316,103,325767,2,0,L|224:127,1,80,0|0,1:0|0:0,0:0:0:0:
200,276,326118,2,0,P|268:296|328:256,1,120,8|0,0:0|0:0,0:0:0:0:
310,276,326469,5,8,0:0:0:0:
152,168,326644,1,0,1:0:0:0:
136,352,326820,1,8,0:0:0:0:
260,215,326995,1,8,0:0:0:0:
43,288,327171,1,8,0:0:0:0:
252,352,327346,1,8,0:0:0:0:
156,71,327522,1,8,0:0:0:0:
124,264,327697,1,0,1:0:0:0:
336,24,327872,5,10,0:0:0:0:
36,131,328048,1,0,1:0:0:0:
333,159,328223,1,0,1:0:0:0:
100,31,328399,1,12,0:0:0:0:
100,31,328574,6,0,L|112:111,2,80
213,130,329101,1,0,0:0:0:0:
67,215,329276,6,0,B|108:220|108:220|180:212,1,100,4|0,0:0|0:0,0:0:0:0:
260,35,329627,1,8,0:0:0:0:
272,236,329802,1,0,1:0:0:0:
111,111,329978,1,0,0:0:0:0:
111,111,330065,1,8,0:0:0:0:
111,111,330153,1,0,1:0:0:0:
364,120,330329,2,0,L|376:220,1,100,8|0,0:0|1:0,0:0:0:0:
180,344,330679,5,0,0:0:0:0:
180,344,330767,1,8,0:0:0:0:
180,344,330855,1,0,1:0:0:0:
432,284,331030,1,8,0:0:0:0:
275,144,331206,1,0,1:0:0:0:
272,360,331381,1,0,0:0:0:0:
272,360,331469,1,8,0:0:0:0:
272,360,331557,1,0,1:0:0:0:
280,160,331732,1,8,0:0:0:0:
87,332,331908,1,0,1:0:0:0:
87,332,331995,1,8,0:0:0:0:
87,332,332083,6,0,L|203:320,1,100,0|0,0:0|1:0,0:0:0:0:
284,176,332434,1,8,0:0:0:0:
272,360,332609,1,0,1:0:0:0:
168,124,332785,1,0,0:0:0:0:
168,124,332872,1,8,0:0:0:0:
168,124,332960,1,0,1:0:0:0:
364,164,333136,1,8,0:0:0:0:
136,247,333311,1,0,1:0:0:0:
108,52,333486,5,0,0:0:0:0:
108,52,333574,1,8,0:0:0:0:
108,52,333662,1,0,1:0:0:0:
252,240,333837,2,0,P|243:292|236:352,1,100,8|0,0:0|1:0,0:0:0:0:
79,172,334188,1,0,0:0:0:0:
79,172,334276,1,8,0:0:0:0:
79,172,334364,1,0,1:0:0:0:
256,44,334539,1,8,0:0:0:0:
265,48,334627,1,0,1:0:0:0:
274,52,334715,1,0,1:0:0:0:
283,56,334802,1,8,0:0:0:0:
292,60,334890,6,0,L|416:52,1,100,4|0,0:0|1:0,0:0:0:0:
256,240,335241,1,8,0:0:0:0:
448,160,335416,1,0,1:0:0:0:
224,139,335592,1,0,0:0:0:0:
224,139,335679,1,8,0:0:0:0:
224,139,335767,1,0,1:0:0:0:
344,300,335943,2,0,L|468:291,1,100,8|0,0:0|1:0,0:0:0:0:
168,288,336293,5,0,0:0:0:0:
168,288,336381,1,8,0:0:0:0:
168,288,336469,1,0,1:0:0:0:
328,172,336644,1,8,0:0:0:0:
260,360,336820,1,0,1:0:0:0:
136,192,336995,1,0,0:0:0:0:
136,192,337083,1,8,0:0:0:0:
136,192,337171,1,0,1:0:0:0:
399,240,337346,2,0,L|388:348,1,100,8|0,0:0|1:0,0:0:0:0:
388,338,337609,1,8,0:0:0:0:
388,338,337697,5,4,0:0:0:0:
288,88,337872,1,0,1:0:0:0:
472,168,338048,1,8,0:0:0:0:
288,268,338223,1,0,1:0:0:0:
404,55,338399,2,0,L|508:60,1,100,0|0,1:0|1:0,0:0:0:0:
235,195,338750,2,0,L|135:191,1,100,8|0,0:0|1:0,0:0:0:0:
288,88,339101,6,0,L|300:148,1,50,10|0,0:0|0:0,0:0:0:0:
396,148,339276,2,0,L|408:208,1,50,10|0,0:0|0:0,0:0:0:0:
316,240,339451,2,0,L|303:300,1,50,10|0,0:0|0:0,0:0:0:0:
399,324,339627,2,0,L|388:384,1,50,10|0,0:0|0:0,0:0:0:0:
200,303,339803,1,0,1:0:0:0:
159,272,339890,1,0,1:0:0:0:
111,265,339978,1,0,1:0:0:0:
63,279,340066,1,0,1:0:0:0:
28,314,340153,6,0,B|27:224|27:224|48:168|48:168|43:88,1,225.000008583069,10|0,0:0|0:0,0:0:0:0:
43,92,340504,6,0,B|92:71|92:71|208:75,1,150,12|0,0:0|0:0,0:0:0:0:
189,75,340855,1,8,0:0:0:0:
200,303,341030,1,0,1:0:0:0:
116,160,341206,1,8,0:0:0:0:
344,224,341381,1,0,1:0:0:0:
103,360,341557,2,0,L|-20:344,1,100,8|0,0:0|1:0,0:0:0:0:
256,172,341908,5,8,0:0:0:0:
312,364,342083,1,0,1:0:0:0:
112,260,342258,1,8,0:0:0:0:
352,264,342434,1,0,1:0:0:0:
348,244,342521,1,0,1:0:0:0:
344,224,342609,1,8,0:0:0:0:
220,255,342785,1,0,1:0:0:0:
240,262,342872,1,0,1:0:0:0:
260,268,342960,1,8,0:0:0:0:
286,145,343136,1,0,1:0:0:0:
271,158,343223,1,0,1:0:0:0:
256,172,343311,5,8,0:0:0:0:
440,224,343486,1,0,1:0:0:0:
312,364,343662,1,8,0:0:0:0:
284,144,343837,1,0,1:0:0:0:
352,264,344013,1,8,0:0:0:0:
220,255,344188,1,0,1:0:0:0:
447,323,344364,2,0,L|439:215,1,100,8|0,0:0|1:0,0:0:0:0:
308,60,344715,5,8,0:0:0:0:
352,264,344890,1,0,1:0:0:0:
416,103,345065,1,8,0:0:0:0:
284,144,345241,1,0,1:0:0:0:
288,164,345329,1,0,1:0:0:0:
292,184,345416,1,8,0:0:0:0:
200,88,345592,1,0,1:0:0:0:
195,108,345680,1,0,1:0:0:0:
193,127,345767,1,8,0:0:0:0:
143,3,345943,1,0,1:3:0:0:
133,20,346031,1,0,1:3:0:0:
122,39,346118,5,8,0:0:0:0:
203,220,346293,1,0,1:0:0:0:
280,43,346469,1,8,0:0:0:0:
72,172,346644,1,0,1:0:0:0:
264,303,346820,1,8,0:0:0:0:
193,127,346995,1,0,1:0:0:0:
79,352,347171,2,0,L|188:356,1,100,8|0,0:0|1:0,0:0:0:0:
396,232,347522,5,8,0:0:0:0:
303,384,347697,1,0,1:0:0:0:
203,220,347872,1,8,0:0:0:0:
416,324,348048,1,0,1:0:0:0:
420,344,348136,1,0,1:0:0:0:
424,364,348223,1,8,0:0:0:0:
264,303,348399,1,0,1:0:0:0:
280,292,348486,1,0,1:0:0:0:
296,280,348574,1,8,0:0:0:0:
455,324,348749,1,0,1:0:0:0:
436,324,348837,1,0,1:0:0:0:
416,324,348925,5,8,0:0:0:0:
320,96,349100,1,0,1:0:0:0:
396,232,349276,1,8,0:0:0:0:
203,220,349451,1,0,1:0:0:0:
463,71,349627,2,0,L|459:179,1,100,8|0,0:0|1:0,0:0:0:0:
264,160,349978,2,0,L|267:60,1,100,8|0,0:0|1:0,0:0:0:0:
396,232,350329,5,12,0:0:0:0:
203,220,350504,1,0,1:0:0:0:
424,152,350679,1,12,0:0:0:0:
164,300,350855,1,0,1:0:0:0:
87,64,351030,1,8,0:0:0:0:
108,71,351118,1,8,0:0:0:0:
127,80,351206,1,0,1:0:0:0:
147,88,351293,1,0,1:0:0:0:
168,96,351381,2,0,L|240:88,1,50,8|8,0:0|0:0,0:0:0:0:
116,176,351557,2,0,L|43:168,1,50,8|8,0:0|0:0,0:0:0:0:
203,220,351732,6,0,P|248:288|212:368,1,150,12|0,0:0|0:0,0:0:0:0:
230,348,352083,1,8,0:0:0:0:
55,252,352258,1,0,1:0:0:0:
320,208,352434,1,8,0:0:0:0:
164,300,352609,1,0,1:0:0:0:
187,107,352785,2,0,L|178:7,1,100,8|0,0:0|1:0,0:0:0:0:
203,220,353136,5,8,0:0:0:0:
63,75,353311,1,0,1:0:0:0:
275,152,353486,1,8,0:0:0:0:
48,212,353662,1,0,1:0:0:0:
51,232,353749,1,0,1:0:0:0:
55,252,353837,1,8,0:0:0:0:
212,260,354013,1,0,1:0:0:0:
208,240,354101,1,0,1:0:0:0:
203,220,354188,1,8,0:0:0:0:
60,276,354364,1,0,1:0:0:0:
63,296,354451,1,0,1:0:0:0:
67,315,354539,5,8,0:0:0:0:
159,127,354715,1,0,1:0:0:0:
212,260,354890,1,8,0:0:0:0:
63,96,355065,1,0,1:0:0:0:
275,152,355241,1,8,0:0:0:0:
48,212,355416,1,0,1:0:0:0:
232,43,355592,2,0,L|348:35,1,100,8|0,0:0|1:0,0:0:0:0:
212,260,355943,5,8,0:0:0:0:
159,127,356118,1,0,1:0:0:0:
275,152,356293,1,8,0:0:0:0:
236,348,356469,1,0,1:0:0:0:
216,352,356557,1,0,1:0:0:0:
195,356,356644,1,8,0:0:0:0:
340,256,356820,1,0,1:0:0:0:
320,260,356908,1,0,1:0:0:0:
300,264,356995,1,8,0:0:0:0:
428,344,357171,1,0,1:0:0:0:
408,348,357259,1,0,1:0:0:0:
388,352,357346,5,12,0:0:0:0:
444,160,357522,1,0,1:0:0:0:
504,348,357697,1,8,0:0:0:0:
340,256,357872,1,0,1:0:0:0:
428,75,358048,1,8,0:0:0:0:
428,344,358223,1,0,1:0:0:0:
331,168,358399,2,0,L|336:60,1,100,8|0,0:0|1:0,0:0:0:0:
340,256,358750,5,8,0:0:0:0:
335,68,358925,1,0,1:0:0:0:
428,344,359100,1,8,0:0:0:0:
224,208,359276,1,0,1:0:0:0:
228,184,359364,1,0,1:0:0:0:
232,160,359451,2,0,L|232:99,1,50,8|0,0:0|0:0,0:0:0:0:
340,256,359627,1,0,1:0:0:0:
336,280,359714,1,0,1:0:0:0:
331,303,359802,2,0,L|331:353,1,50,8|0,0:0|0:0,0:0:0:0:
240,296,359978,2,0,L|240:345,1,50,0|0,1:0|1:0,0:0:0:0:
143,280,360153,5,8,0:0:0:0:
147,296,360241,1,0,0:0:0:0:
152,312,360329,1,0,1:0:0:0:
156,328,360416,1,0,1:0:0:0:
159,344,360504,5,8,0:0:0:0:
127,360,360592,1,0,0:0:0:0:
92,356,360679,1,0,1:0:0:0:
67,332,360767,1,0,1:0:0:0:
60,296,360855,5,8,0:0:0:0:
67,247,360943,1,0,0:0:0:0:
76,200,361030,1,0,1:0:0:0:
83,152,361118,1,0,1:0:0:0:
92,103,361206,2,0,L|83:28,3,50,8|0|0|0,0:0|0:0|1:0|1:0,0:0:0:0:
171,192,361557,6,0,L|243:179,1,50,10|0,0:0|0:0,0:0:0:0:
92,103,361732,2,0,L|41:111,1,50,10|0,0:0|0:0,0:0:0:0:
203,172,361908,2,0,L|272:160,1,50,10|0,0:0|0:0,0:0:0:0:
60,124,362083,2,0,L|9:131,1,50,10|0,0:0|0:0,0:0:0:0:
159,28,362258,5,0,1:0:0:0:
67,247,362434,1,8,0:0:0:0:
308,215,362609,1,8,0:0:0:0:
308,215,362697,1,8,0:0:0:0:
308,215,362785,1,8,0:0:0:0:
308,215,362872,1,8,0:0:0:0:
308,215,362960,5,4,1:0:0:0:
376,260,363310,1,8,0:0:0:0:
376,179,363661,1,8,0:0:0:0:
308,136,364012,1,8,0:0:0:0:
340,64,364363,1,8,0:0:0:0:
420,68,364714,1,8,0:0:0:0:
500,68,365065,5,8,0:0:0:0:
376,179,365240,1,0,0:0:0:0:
260,71,365416,5,8,0:0:0:0:
308,136,365767,1,8,0:0:0:0:
260,200,366117,1,8,0:0:0:0:
275,280,366468,1,8,0:0:0:0:
219,340,366819,1,8,0:0:0:0:
143,315,367170,1,8,0:0:0:0:
67,335,367521,5,8,0:0:0:0:
192,240,367696,1,0,0:0:0:0:
303,356,367872,5,12,0:0:0:0:
275,280,368223,1,8,0:0:0:0:
200,260,368574,1,8,0:0:0:0:
143,315,368924,1,8,0:0:0:0:
67,335,369275,1,8,0:0:0:0:
87,260,369626,1,8,0:0:0:0:
39,196,369977,5,8,0:0:0:0:
48,35,370152,1,0,0:0:0:0:
120,179,370328,5,8,0:0:0:0:
195,200,370679,1,8,0:0:0:0:
168,276,371030,1,8,0:0:0:0:
228,328,371381,1,8,0:0:0:0:
292,284,371731,1,8,0:0:0:0:
367,312,372082,1,8,0:0:0:0:
444,284,372433,5,0,1:0:0:0:
388,131,372609,1,8,0:0:0:0:
455,364,372784,6,0,P|475:312|463:200,1,160,4|0,0:0|1:0,0:0:0:0:
352,152,373310,1,0,0:0:0:0:
252,288,373486,2,0,L|331:280,1,80,0|0,1:0|0:0,0:0:0:0:
468,209,373837,1,2,1:0:0:0:
352,152,374012,1,2,0:0:0:0:
408,300,374188,1,0,1:0:0:0:
436,111,374363,1,2,0:0:0:0:
264,192,374538,2,0,L|184:183,1,80,2|0,1:0|0:0,0:0:0:0:
79,60,374889,2,0,L|219:28,1,120,2|0,1:0|0:0,0:0:0:0:
195,32,375240,5,2,1:0:0:0:
120,244,375416,1,0,0:0:0:0:
19,136,375591,2,0,L|112:144,1,80,0|0,1:0|0:0,0:0:0:0:
171,284,375942,2,0,L|92:277,1,80,0|0,1:0|0:0,0:0:0:0:
136,124,376293,1,2,1:0:0:0:
171,284,376468,1,2,0:0:0:0:
7,307,376644,2,0,P|7:264|15:200,1,80,0|0,1:0|0:0,0:0:0:0:
152,303,376995,2,0,P|152:343|147:383,1,80,0|0,1:0|0:0,0:0:0:0:
19,136,377345,1,0,1:0:0:0:
100,232,377521,1,8,0:0:0:0:
100,232,377608,1,8,0:0:0:0:
100,232,377696,6,0,L|240:208,1,120,2|0,1:0|0:0,0:0:0:0:
218,210,378047,1,2,1:0:0:0:
19,136,378223,1,0,0:0:0:0:
152,303,378398,1,0,1:0:0:0:
108,148,378574,1,2,0:0:0:0:
23,284,378749,1,0,1:0:0:0:
192,136,378924,2,0,L|180:55,1,80,2|0,0:0|1:0,0:0:0:0:
76,179,379275,2,0,L|85:259,1,80,0|0,0:0|1:0,0:0:0:0:
303,268,379626,1,2,0:0:0:0:
168,356,379802,2,0,L|180:212,1,120,0|0,1:0|0:0,0:0:0:0:
177,236,380152,5,2,1:0:0:0:
316,160,380328,1,0,0:0:0:0:
303,268,380503,1,0,1:0:0:0:
192,136,380679,1,2,0:0:0:0:
240,328,380854,5,8,0:0:0:0:
208,152,381030,1,8,0:0:0:0:
87,284,381205,1,8,0:0:0:0:
224,168,381381,1,10,0:0:0:0:
48,172,381556,5,8,0:0:0:0:
240,328,381731,1,8,0:0:0:0:
140,48,381907,1,10,0:0:0:0:
87,284,382082,1,8,0:0:0:0:
316,160,382258,2,0,B|328:200|328:200|320:280,1,120
320,277,382609,5,0,0:0:0:0:
256,192,382696,12,0,397345,0:0:0:0:
