osu file format v14

[General]
AudioFilename: 08 - Little Nova.mp3
AudioLeadIn: 0
PreviewTime: 221241
Countdown: 0
SampleSet: Soft
StackLeniency: 0.7
Mode: 0
LetterboxInBreaks: 0
WidescreenStoryboard: 0

[Editor]
Bookmarks: 302641,316068
DistanceSpacing: 1.4
BeatDivisor: 4
GridSize: 16
TimelineZoom: 2.5

[Metadata]
Title:Little Nova
TitleUnicode:Little Nova
Artist:FELT
ArtistUnicode:FELT
Creator:Hakurei Yoru
Version:Opening
Source:東方Project
Tags:ZUN 舞花 東方妖々梦 太田順也 上海アリス幻樂団 Maika NAGI 妖々梦~Snow or Cherry Petal Little Planet Rebirth StoryⅡ Touhou Youyoumu Perfect Cherry Blossom
BeatmapID:761541
BeatmapSetID:344776

[Difficulty]
HPDrainRate:6
CircleSize:4.5
OverallDifficulty:7
ApproachRate:8.7
SliderMultiplier:1.7
SliderTickRate:1

[Events]
//Background and Video events
0,0,"BGA.jpg",0,0
//Break Periods
//Storyboard Layer 0 (Background)
//Storyboard Layer 1 (Fail)
//Storyboard Layer 2 (Pass)
//Storyboard Layer 3 (Foreground)
//Storyboard Sound Samples

[TimingPoints]
544,419.58041958042,4,2,1,25,1,0
8935,-100,4,2,1,25,0,0
22362,-100,4,2,1,35,0,0
34739,-100,4,2,1,40,0,0
35369,-100,4,2,1,50,0,0
69774,-83.3333333333333,4,2,1,35,0,0
71033,-83.3333333333333,4,2,1,90,0,1
82571,-100,4,2,1,90,0,1
83201,-83.3333333333333,4,2,1,90,0,1
97886,-83.3333333333333,4,2,1,75,0,0
100404,-100,4,2,1,75,0,0
102711,-100,4,2,1,60,0,0
104390,-100,4,2,1,5,0,0
104599,-200,4,2,1,35,0,0
118026,-100,4,2,1,75,0,0
143620,-80,4,2,1,75,0,0
144040,-100,4,2,1,75,0,0
145509,-80,4,2,1,75,0,0
145718,-100,4,2,1,75,0,0
153271,-83.3333333333333,4,2,1,90,0,1
180124,-200,4,2,1,10,0,0
186208,-200,4,2,1,25,0,0
191662,-200,4,2,1,15,0,0
193341,-100,4,2,1,60,0,0
200578,-83.3333333333333,4,2,1,60,0,0
201208,-100,4,2,1,60,0,0
206977,-100,4,2,1,75,0,0
213690,-133.333333333333,4,2,1,75,0,0
214530,-100,4,2,1,75,0,0
215369,-83.3333333333333,4,2,1,75,0,0
215683,-100,4,2,1,75,0,0
215998,-125,4,2,1,75,0,0
216208,-100,4,2,1,75,0,0
217886,-100,4,2,1,5,0,0
218096,-100,4,2,1,75,0,0
218306,-100,4,2,1,5,0,0
218516,-100,4,2,1,65,0,0
221243,-100,4,2,1,5,0,0
222082,-133.333333333333,4,2,1,25,0,0
235509,-133.333333333333,4,2,1,55,0,0
242222,-100,4,2,1,75,0,0
248935,-83.3333333333333,4,2,1,90,0,1
260474,-100,4,2,1,90,0,1
261103,-83.3333333333333,4,2,1,90,0,1
275788,-100,4,2,1,75,0,0
281767,-100,4,2,1,75,0,0
302641,-133.333333333333,4,2,1,25,0,0
308306,-200,4,2,1,25,0,0
308411,-200,4,2,1,5,0,0

[Colours]
Combo1 : 255,203,47
Combo2 : 255,70,70
Combo3 : 40,137,255
Combo4 : 40,255,255

[HitObjects]
175,164,8935,6,0,P|217:160|264:142,2,85,2|0|0,0:0|0:0|0:0,0:0:0:0:
87,148,9564,1,2,0:0:0:0:
139,77,9774,1,0,0:0:0:0:
121,232,9984,2,0,P|163:248|216:246,1,85,2|0,0:0|0:0,0:0:0:0:
420,265,10404,6,0,P|328:258|274:311,1,170,2|0,0:0|0:0,0:0:0:0:
121,232,11033,1,0,0:0:0:0:
164,307,11243,2,0,B|126:326|79:307|79:307|24:289|0:309,1,170,0|2,0:0|0:0,0:0:0:0:
37,377,11872,1,0,0:0:0:0:
57,130,12082,1,0,0:0:0:0:
0,229,12292,6,0,P|42:220|112:243,1,85,2|0,0:0|0:0,0:0:0:0:
301,306,12711,1,0,0:0:0:0:
200,303,12921,2,0,P|194:245|199:210,1,85,2|0,0:0|0:0,0:0:0:0:
316,144,13341,2,0,P|339:179|354:218,1,85,2|0,0:0|0:0,0:0:0:0:
390,355,13760,6,0,P|437:320|470:307,1,85,2|0,0:0|0:0,0:0:0:0:
338,274,14180,1,0,0:0:0:0:
457,305,14390,1,2,0:0:0:0:
316,144,14599,1,0,0:0:0:0:
434,181,14809,1,2,0:0:0:0:
457,305,15019,1,0,0:0:0:0:
338,274,15229,2,0,P|278:272|250:267,1,85,2|0,0:0|0:0,0:0:0:0:
130,246,15648,5,2,0:0:0:0:
150,346,15858,1,0,0:0:0:0:
34,266,16068,1,0,0:0:0:0:
54,366,16278,1,2,0:0:0:0:
130,246,16488,1,0,0:0:0:0:
23,281,16697,2,0,L|21:171,1,85,2|0,0:0|0:0,0:0:0:0:
136,76,17117,6,0,L|129:257,1,170,2|2,0:0|0:0,0:0:0:0:
207,280,17746,1,0,0:0:0:0:
292,277,17956,1,2,0:0:0:0:
363,230,18166,1,0,0:0:0:0:
307,18,18376,1,2,0:0:0:0:
244,69,18585,1,0,0:0:0:0:
253,148,18795,1,0,0:0:0:0:
310,197,19005,6,0,B|354:171|395:196|395:196|441:224|487:189,1,170,2|0,0:0|0:0,0:0:0:0:
182,274,19634,2,0,P|114:229|126:150,1,170,2|2,0:0|0:0,0:0:0:0:
92,56,20474,5,2,0:0:0:0:
92,56,20893,1,0,0:0:0:0:
166,39,21103,1,2,0:0:0:0:
229,81,21313,1,0,0:0:0:0:
236,157,21523,1,2,0:0:0:0:
288,244,21732,1,2,0:0:0:0:
381,285,21942,1,0,0:0:0:0:
483,282,22152,1,2,0:0:0:0:
483,282,22362,6,0,L|486:188,1,85,2|0,0:0|0:0,0:0:0:0:
371,175,22781,2,0,L|357:81,1,85,0|2,0:0|0:0,0:0:0:0:
220,138,23201,2,0,L|190:48,1,85,0|2,0:0|0:0,0:0:0:0:
107,188,23620,1,0,0:0:0:0:
217,261,23830,5,2,0:0:0:0:
217,261,24250,1,0,0:0:0:0:
95,87,24460,1,2,0:0:0:0:
50,262,24669,2,0,P|147:274|248:251,1,170,0|2,0:0|0:0,0:0:0:0:
320,315,25299,1,0,0:0:0:0:
414,257,25509,1,2,0:0:0:0:
296,153,25718,6,0,L|292:238,1,85,2|0,0:0|0:0,0:0:0:0:
414,257,26138,1,0,0:0:0:0:
395,150,26348,2,0,P|425:111|462:88,1,85,2|0,0:0|0:0,0:0:0:0:
432,349,26767,2,0,P|390:344|352:326,1,85,2|0,0:0|0:0,0:0:0:0:
205,309,27187,6,0,P|186:257|230:142,1,170,2|0,0:0|0:0,0:0:0:0:
290,212,27816,1,2,0:0:0:0:
143,228,28026,1,0,0:0:0:0:
219,151,28236,1,2,0:0:0:0:
205,309,28446,1,0,0:0:0:0:
65,334,28655,1,2,0:0:0:0:
8,207,28865,1,0,0:0:0:0:
91,102,29075,6,0,P|160:99|188:87,1,85,6|0,0:0|0:0,0:0:0:0:
245,44,29495,1,0,0:0:0:0:
403,218,29704,2,0,P|350:215|306:205,1,85,2|0,0:0|0:0,0:0:0:0:
253,148,30124,1,2,0:0:0:0:
239,349,30334,1,0,0:0:0:0:
429,284,30544,6,0,P|470:238|408:147,1,170,2|0,0:0|0:0,0:0:0:0:
347,134,31173,1,0,0:0:0:0:
318,222,31383,2,0,L|409:217,1,85,2|0,0:0|0:0,0:0:0:0:
262,152,31802,2,0,L|171:147,1,85,2|0,0:0|0:0,0:0:0:0:
289,61,32222,1,2,0:0:0:0:
110,116,32432,6,0,P|103:138|136:209,1,85,2|0,0:0|0:0,0:0:0:0:
262,152,32851,1,0,0:0:0:0:
216,295,33061,2,0,L|217:382,1,85,2|0,0:0|0:0,0:0:0:0:
368,257,33481,2,0,L|367:170,1,85,2|0,0:0|0:0,0:0:0:0:
152,159,33900,5,2,0:0:0:0:
152,159,34320,1,0,0:0:0:0:
207,81,34530,1,2,0:0:0:0:
72,37,34739,1,2,0:0:0:0:
68,127,34949,1,2,0:0:0:0:
157,10,35159,1,2,0:0:0:0:
286,78,35369,1,2,0:0:0:0:
132,83,35578,1,0,0:0:0:0:
247,14,35788,6,0,L|252:168,1,127.5,4|0,3:1|0:0,0:0:0:0:
229,269,36208,2,0,L|188:228,1,42.5
140,191,36418,1,2,0:0:0:0:
140,191,36627,2,0,L|125:246,1,42.5
117,307,36837,1,2,0:0:0:0:
117,307,37047,2,0,L|172:292,1,42.5
262,207,37257,6,0,P|179:222|93:182,1,170,2|2,3:2|0:0,0:0:0:0:
93,83,37886,2,0,P|135:78|176:88,1,85
343,236,38306,1,0,0:0:0:0:
373,59,38516,1,0,0:0:0:0:
286,97,38725,1,0,0:0:0:0:
356,151,38935,1,2,0:0:0:0:
435,122,39145,6,0,P|437:159|332:235,1,170,4|0,3:2|0:0,0:0:0:0:
194,361,39774,2,0,P|196:324|91:248,1,170,2|0,0:0|0:0,0:0:0:0:
26,294,40404,1,2,0:0:0:0:
104,340,40613,6,0,L|276:325,1,170,2|2,3:2|0:0,0:0:0:0:
388,315,41243,1,0,0:0:0:0:
241,246,41453,1,0,0:0:0:0:
333,378,41662,1,0,0:0:0:0:
356,205,41872,2,0,L|399:199,1,42.5
460,149,42082,2,0,L|477:104,1,42.5,0|0,3:0|3:0,3:0:0:0:
505,254,42292,2,8,L|472:228,1,42.5,8|0,0:0|0:0,0:0:0:0:
260,131,42502,6,0,L|402:127,1,127.5,12|0,0:0|0:0,0:0:0:0:
430,125,42921,1,0,0:0:0:0:
202,199,43131,1,2,0:0:0:0:
186,116,43341,1,0,0:0:0:0:
260,131,43550,1,2,0:0:0:0:
139,258,43760,1,0,0:0:0:0:
108,93,43970,6,0,B|181:106|239:84|239:84|215:61|192:67,1,170,2|0,3:2|0:0,0:0:0:0:
49,16,44599,1,0,0:0:0:0:
71,187,44809,1,2,0:0:0:0:
289,45,45019,2,0,P|247:52|201:69,1,85
165,174,45439,1,2,0:0:0:0:
361,188,45648,2,2,P|363:153|361:135,1,42.5
283,243,45858,6,0,P|342:219|439:282,1,170,6|0,3:2|0:0,0:0:0:0:
190,290,46488,2,0,P|165:257|169:165,1,127.5,2|0,0:0|0:0,0:0:0:0:
179,159,46907,2,2,L|75:162,1,85
367,164,47327,6,0,P|312:149|240:229,1,170,2|0,3:2|0:0,0:0:0:0:
323,229,47956,1,0,0:0:0:0:
265,66,48166,2,8,P|262:31|265:15,2,42.5
346,38,48585,1,0,3:0:0:0:
156,44,48795,2,0,P|99:44|63:55,1,85,2|2,3:2|0:0,0:0:0:0:
145,261,49215,6,0,P|186:270|228:268,1,85,4|0,3:2|0:0,0:0:0:0:
323,229,49634,1,2,0:0:0:0:
246,174,49844,1,0,0:0:0:0:
303,327,50054,2,0,P|377:310|405:277,1,85,2|0,0:0|3:0,0:0:0:0:
410,183,50474,2,0,L|405:98,1,85,2|0,0:0|3:0,0:0:0:0:
318,144,50893,6,0,L|323:235,1,85,2|0,3:2|3:0,0:0:0:0:
245,255,51208,2,0,P|207:279|140:278,1,85,2|0,3:2|0:0,0:0:0:0:
99,246,51523,2,0,L|7:255,1,85,0|2,3:0|0:0,0:0:0:0:
75,162,51942,1,0,3:0:0:0:
17,330,52152,2,0,L|101:321,1,85,8|0,0:0|0:0,0:0:0:0:
185,309,52571,5,4,3:2:0:0:
107,161,52781,2,0,L|98:255,1,85,0|0,0:0|3:0,0:0:0:0:
155,384,53201,1,0,3:0:0:0:
282,197,53411,2,0,L|189:206,1,85
390,281,53830,2,0,L|483:290,1,85
406,138,54250,6,0,L|321:129,1,85,2|0,3:2|0:0,0:0:0:0:
240,124,54564,2,0,L|204:46,1,85,2|0,3:2|0:0,0:0:0:0:
125,51,54879,2,0,L|70:55,1,42.5,4|0,3:2|0:0,0:0:0:0:
32,131,55089,6,0,L|143:123,1,85,2|0,0:0|0:0,0:0:0:0:
260,201,55509,2,0,P|311:179|406:221,1,127.5,8|0,0:0|0:0,0:0:0:0:
397,217,55928,6,0,L|386:311,1,85,6|0,0:0|0:0,0:0:0:0:
377,383,56348,1,0,0:0:0:0:
477,227,56557,1,0,3:0:0:0:
270,285,56767,2,0,L|176:269,1,85
248,121,57187,2,0,L|154:105,1,85,8|0,0:0|0:0,0:0:0:0:
49,207,57606,6,0,P|113:188|133:167,1,85,0|0,3:0|0:0,0:0:0:0:
164,106,57921,2,0,L|270:100,1,85,0|0,3:0|0:0,0:0:0:0:
320,53,58236,2,0,L|436:69,1,85,0|0,3:0|0:0,0:0:0:0:
404,64,58550,1,8,0:0:0:0:
404,64,58655,1,8,0:0:0:0:
503,226,58865,2,0,P|431:208|372:234,1,127.5,8|0,0:0|0:0,0:0:0:0:
362,247,59285,6,0,L|254:245,1,85,4|0,3:2|0:0,0:0:0:0:
203,258,59599,2,0,L|159:330,1,85,0|0,3:0|0:0,0:0:0:0:
96,371,59914,2,0,L|53:367,1,42.5,0|0,3:0|0:0,0:0:0:0:
34,295,60124,1,0,0:0:0:0:
169,101,60334,1,0,0:0:0:0:
49,179,60544,1,2,0:0:0:0:
49,179,60648,1,2,0:0:0:0:
49,179,60753,2,0,L|112:158,1,42.5,0|0,3:0|3:0,3:0:0:0:
186,182,60963,6,0,L|297:178,1,85,2|0,0:0|0:0,0:0:0:0:
329,258,61278,1,2,0:0:0:0:
329,258,61383,2,0,L|357:213,1,42.5,12|0,3:2|0:0,0:0:0:0:
371,98,61592,2,0,L|343:143,1,42.5,4|0,0:0|0:0,0:0:0:0:
189,101,61802,2,0,L|274:98,1,85,2|0,0:0|0:0,0:0:0:0:
100,34,62222,2,8,L|122:70,1,42.5
127,141,62432,2,8,L|107:178,1,42.5
11,41,62641,6,0,L|60:110,1,85,2|0,3:2|0:0,0:0:0:0:
186,182,62956,2,0,L|144:257,1,85,2|0,3:2|0:0,0:0:0:0:
28,247,63271,2,0,L|98:246,1,42.5,2|0,3:2|0:0,0:0:0:0:
94,320,63481,6,0,L|-16:325,1,85,4|0,0:0|3:0,0:0:0:0:
152,111,63900,2,0,L|308:118,1,127.5,2|0,0:0|0:0,0:0:0:0:
346,163,64320,6,0,P|359:106|343:61,1,85,2|0,3:2|0:0,0:0:0:0:
293,37,64634,2,0,L|208:33,1,85,10|0,3:2|0:0,0:0:0:0:
361,5,64949,2,0,L|417:2,1,42.5,2|0,3:2|0:0,0:0:0:0:
430,142,65159,2,0,L|427:245,1,85,8|0,0:0|0:0,0:0:0:0:
427,226,65474,1,8,0:0:0:0:
427,226,65578,1,8,0:0:0:0:
261,144,65788,1,8,3:2:0:0:
218,330,65998,6,0,L|302:332,1,85,0|0,3:0|3:0,3:0:0:0:
324,333,66313,1,0,3:0:0:0:
345,334,66418,1,12,3:2:0:0:
261,144,66627,2,0,L|332:147,2,42.5,2|2|8,0:0|0:0|0:0,0:0:0:0:
188,67,67047,6,0,P|240:164|137:191,1,212.5,4|0,0:0|0:0,0:0:0:0:
141,213,67676,6,0,L|51:208,1,85,4|0,0:0|0:0,0:0:0:0:
106,66,68096,1,0,0:0:0:0:
161,287,68306,2,0,L|156:377,1,85,8|0,0:0|0:0,0:0:0:0:
12,321,68725,1,0,3:0:0:0:
234,263,68935,2,8,L|285:265,1,42.5
322,326,69145,6,0,L|481:316,1,127.5,4|0,0:0|3:0,0:0:0:0:
375,216,69564,2,0,L|347:259,1,42.5,0|0,3:0|0:0,0:0:0:0:
245,188,69774,2,0,L|306:191,1,50.9999984436036,8|0,0:0|0:0,0:0:0:0:
357,133,69984,1,8,0:0:0:0:
357,133,70089,1,8,0:0:0:0:
357,133,70194,6,0,L|385:91,1,50.9999984436036,0|0,3:0|0:0,0:0:0:0:
291,10,70404,2,0,L|314:55,1,50.9999984436036,0|0,3:0|0:0,0:0:0:0:
435,13,70613,2,0,L|384:10,1,50.9999984436036
232,127,70823,2,0,L|282:129,1,50.9999984436036
226,217,71033,6,0,P|161:208|59:240,1,152.999995330811,4|0,0:0|3:0,0:0:0:0:
50,252,71453,1,8,0:0:0:0:
299,43,71662,2,0,P|311:150|310:183,1,101.999996887207,0|2,1:0|0:0,0:0:0:0:
282,284,72082,1,0,1:0:0:0:
412,342,72292,1,8,0:0:0:0:
424,199,72502,6,0,L|432:11,1,152.999995330811,4|0,0:0|3:0,0:0:0:0:
430,46,72921,1,0,1:0:0:0:
330,135,73131,1,8,0:0:0:0:
380,241,73341,2,0,P|426:241|499:283,1,101.999996887207,0|2,1:0|0:0,0:0:0:0:
412,342,73760,1,0,1:0:0:0:
260,229,73970,1,8,0:0:0:0:
150,364,74180,1,2,0:0:0:0:
330,135,74390,6,0,P|266:120|163:160,1,152.999995330811,0|0,1:0|3:0,3:0:0:0:
165,162,74809,1,10,0:0:0:0:
11,272,75019,2,0,L|175:259,1,152.999995330811,4|0,1:2|3:0,3:0:0:0:
189,258,75439,1,2,3:2:0:0:
338,57,75648,1,10,0:0:0:0:
412,147,75858,6,0,P|334:137|222:138,1,152.999995330811,0|0,1:0|3:0,0:0:0:0:
222,138,76278,1,0,3:0:0:0:
282,228,76488,1,8,0:0:0:0:
134,91,76697,1,0,3:0:0:0:
97,287,76907,1,0,0:0:0:0:
134,307,77012,2,0,P|184:307|243:294,1,101.999996887207,4|0,3:2|0:0,0:0:0:0:
282,228,77327,2,0,L|396:225,1,101.999996887207,8|0,0:0|0:0,0:0:0:0:
420,143,77746,6,0,P|420:225|407:318,1,152.999995330811,4|0,3:2|3:2,3:2:0:0:
402,324,78166,1,8,0:0:0:0:
332,96,78376,2,0,L|226:102,1,101.999996887207,0|2,1:0|0:0,0:0:0:0:
131,104,78795,1,0,1:0:0:0:
178,15,79005,1,8,0:0:0:0:
235,209,79215,6,0,B|209:226|209:226|87:236,1,152.999995330811,4|0,0:0|3:0,0:0:0:0:
50,239,79634,1,0,1:0:0:0:
191,119,79844,1,8,0:0:0:0:
190,304,80054,2,0,L|83:313,1,101.999996887207,4|2,1:2|0:0,0:0:0:0:
309,130,80474,2,0,L|410:121,1,101.999996887207,4|8,3:2|0:0,0:0:0:0:
365,208,80893,1,2,0:0:0:0:
243,52,81103,6,0,P|213:110|241:204,1,152.999995330811,4|0,0:0|3:0,0:0:0:0:
264,217,81523,1,8,0:0:0:0:
441,26,81732,2,0,L|339:34,1,101.999996887207,0|2,1:0|0:0,0:0:0:0:
309,130,82152,1,0,1:0:0:0:
469,296,82362,1,8,0:0:0:0:
389,364,82571,6,0,B|369:318|369:318|372:189,1,170,4|0,0:0|3:0,0:0:0:0:
242,35,83201,6,0,B|262:81|262:81|258:198,1,152.999995330811,8|0,0:0|3:0,0:0:0:0:
192,229,83620,2,8,L|125:226,1,50.9999984436036
184,153,83830,2,0,L|187:103,1,50.9999984436036,8|0,0:0|0:0,0:0:0:0:
348,75,84040,2,8,L|345:125,1,50.9999984436036,8|8,3:2|3:2,3:2:0:0:
430,136,84250,2,8,L|480:138,1,50.9999984436036,8|8,3:2|3:2,3:2:0:0:
383,207,84460,6,0,P|394:282|376:356,1,152.999995330811,4|0,0:0|3:0,0:0:0:0:
352,373,84879,1,8,0:0:0:0:
179,318,85089,2,0,L|174:185,1,101.999996887207,0|2,1:0|0:0,0:0:0:0:
266,111,85509,1,0,1:0:0:0:
286,273,85718,1,8,0:0:0:0:
24,222,85928,6,0,P|89:209|221:231,1,152.999995330811,4|0,0:0|3:0,0:0:0:0:
199,223,86348,1,0,1:0:0:0:
457,169,86557,2,0,P|388:169|354:180,1,101.999996887207,8|2,0:0|0:0,0:0:0:0:
286,273,86977,1,0,1:0:0:0:
100,116,87187,2,2,P|169:116|203:127,1,101.999996887207,2|10,0:0|0:0,0:0:0:0:
172,2,87606,1,2,1:2:0:0:
100,116,87816,6,0,P|183:127|284:88,1,152.999995330811,0|0,1:0|3:0,0:0:0:0:
277,88,88236,1,10,0:0:0:0:
269,212,88446,2,0,P|346:180|414:95,1,152.999995330811,0|0,1:0|3:0,3:0:0:0:
408,99,88865,1,6,0:0:0:0:
424,274,89075,1,8,0:0:0:0:
153,247,89285,6,0,P|146:197|167:152,1,101.999996887207,4|0,0:0|3:0,0:0:0:0:
189,314,89704,2,0,L|81:313,1,101.999996887207,0|8,1:0|0:0,0:0:0:0:
45,223,90124,1,0,0:0:0:0:
154,41,90334,1,8,0:0:0:0:
154,41,90439,1,8,0:0:0:0:
154,41,90544,2,0,L|230:60,1,50.9999984436036,8|0,0:0|0:0,0:0:0:0:
270,10,90753,2,0,L|379:6,1,101.999996887207,8|8,0:0|0:0,0:0:0:0:
443,55,91068,1,0,3:0:0:0:
443,55,91173,6,0,P|368:51|303:95,1,152.999995330811,12|0,0:0|3:0,0:0:0:0:
288,118,91592,1,8,0:0:0:0:
265,254,91802,2,0,P|340:249|405:293,1,152.999995330811,0|0,1:0|3:0,3:0:0:0:
401,254,92222,2,0,L|391:144,1,101.999996887207,0|8,1:0|0:0,0:0:0:0:
215,172,92641,6,0,B|113:209|121:118|14:162,1,203.999993774414,4|0,0:0|3:0,0:0:0:0:
63,335,93271,2,0,L|66:222,1,101.999996887207,8|2,0:0|0:0,0:0:0:0:
177,64,93690,1,2,1:2:0:0:
153,277,93900,1,0,0:0:0:0:
338,195,94110,1,10,0:0:0:0:
214,171,94320,2,0,P|239:165|265:164,1,50.9999984436036,0|0,3:0|3:0,3:0:0:0:
413,287,94530,6,0,P|338:301|262:297,1,152.999995330811,4|0,0:0|3:0,0:0:0:0:
211,251,94949,2,0,L|99:257,1,101.999996887207,8|0,0:0|3:0,0:0:0:0:
35,317,95369,1,10,0:0:0:0:
61,188,95578,1,0,3:0:0:0:
127,330,95788,1,12,0:0:0:0:
174,239,95998,6,0,P|179:162|165:109,1,101.999996887207,4|0,0:0|0:0,0:0:0:0:
61,188,96418,1,0,3:0:0:0:
222,28,96627,2,0,L|331:21,1,101.999996887207,8|0,0:0|0:0,0:0:0:0:
395,156,97047,2,8,L|339:159,2,50.9999984436036
478,54,97467,2,8,L|455:100,1,50.9999984436036,8|8,3:2|3:2,3:2:0:0:
498,225,97676,2,8,L|470:182,1,50.9999984436036,8|8,3:2|3:2,3:2:0:0:
395,156,97886,6,0,L|267:162,1,101.999996887207,4|0,0:0|0:0,0:0:0:0:
176,160,98306,1,8,0:0:0:0:
216,341,98516,2,0,P|226:286|220:232,1,101.999996887207,0|0,1:0|0:0,0:0:0:0:
313,33,98935,2,0,P|260:51|216:84,1,101.999996887207,0|0,1:0|0:0,0:0:0:0:
0,108,99355,6,0,P|42:144|92:165,1,101.999996887207,4|0,0:0|0:0,0:0:0:0:
116,22,99774,1,0,3:0:0:0:
28,227,99984,2,0,L|32:347,1,101.999996887207,0|0,1:0|0:0,0:0:0:0:
200,236,100404,6,0,L|196:146,2,85,8|0|0,3:2|3:0|3:0,0:0:0:0:
336,91,101243,6,0,P|382:84|427:87,1,85,4|0,0:0|0:0,0:0:0:0:
503,101,101662,1,8,0:0:0:0:
333,190,101872,2,0,P|362:225|381:266,1,85,8|0,1:2|0:0,0:0:0:0:
242,213,102292,2,0,P|226:256|200:293,1,85,0|0,1:0|0:0,0:0:0:0:
189,127,102711,5,4,0:0:0:0:
256,192,102816,12,0,104390,0:0:0:0:
224,154,104599,5,2,0:0:0:0:
113,131,104809,1,0,0:0:0:0:
188,45,105019,1,0,0:0:0:0:
224,154,105229,1,2,0:0:0:0:
65,60,105439,2,0,L|110:54,1,42.5,0|2,0:0|0:0,0:0:0:0:
263,82,105858,1,0,0:0:0:0:
176,235,106068,6,0,L|148:199,1,42.5,2|0,0:0|0:0,0:0:0:0:
172,109,106488,1,0,0:0:0:0:
337,140,106697,1,0,0:0:0:0:
240,281,106907,2,0,L|285:275,1,42.5
363,257,107327,1,0,0:0:0:0:
170,311,107537,2,0,L|152:352,1,42.5
103,251,107956,6,0,L|87:291,1,42.5,2|0,0:0|0:0,0:0:0:0:
48,349,108376,1,0,0:0:0:0:
87,178,108585,2,0,L|61:144,1,42.5,2|0,0:0|0:0,0:0:0:0:
161,201,109005,2,0,L|203:195,1,42.5,2|0,0:0|0:0,0:0:0:0:
449,240,109425,6,0,L|406:234,1,42.5,2|0,0:0|0:0,0:0:0:0:
335,219,109844,1,0,0:0:0:0:
385,162,110054,1,0,0:0:0:0:
360,293,110264,1,0,0:0:0:0:
264,312,110474,2,0,L|289:278,1,42.5,2|0,0:0|0:0,0:0:0:0:
509,115,110893,2,0,L|483:148,1,42.5
232,248,111313,6,0,L|257:214,1,42.5
303,148,111732,1,0,0:0:0:0:
229,146,111942,1,0,0:0:0:0:
335,219,112152,1,0,0:0:0:0:
266,75,112362,2,0,L|223:69,1,42.5,2|0,0:0|0:0,0:0:0:0:
93,174,112781,6,0,L|109:213,1,42.5,2|0,0:3|0:3,0:3:0:0:
147,277,113201,1,0,0:0:0:0:
188,210,113411,1,0,0:0:0:0:
229,146,113620,1,0,0:0:0:0:
155,141,113830,1,0,0:0:0:0:
265,215,114040,2,0,L|312:213,1,42.5
385,209,114460,1,0,0:0:0:0:
302,281,114669,5,2,0:0:0:0:
302,281,115089,1,0,0:0:0:0:
396,320,115299,1,2,0:0:0:0:
352,137,115718,1,2,0:0:0:0:
352,137,116138,1,2,0:0:0:0:
352,137,116557,1,0,0:0:0:0:
385,209,116767,1,0,0:0:0:0:
412,76,116977,1,2,0:0:0:0:
277,125,117187,5,2,0:0:0:0:
192,67,117397,2,0,L|136:67,2,42.5
186,175,118026,6,0,B|170:217|170:217|182:320,1,127.5,4|0,1:2|0:0,0:0:0:0:
183,326,118446,2,0,L|277:318,1,85,2|0,1:2|0:0,0:0:0:0:
336,222,118865,2,0,L|251:229,1,85
330,361,119285,1,8,0:0:0:0:
402,265,119495,6,0,P|414:205|326:140,1,170,0|0,1:0|0:0,0:0:0:0:
157,120,120124,2,0,P|210:114|248:90,1,85,2|0,0:0|0:0,0:0:0:0:
322,29,120544,2,0,P|260:11|176:23,1,127.5
177,26,120963,1,8,0:0:0:0:
94,162,121173,1,0,0:0:0:0:
176,295,121383,6,0,P|188:209|188:107,1,170,4|0,1:2|0:0,0:0:0:0:
229,351,122012,2,0,P|269:274|304:178,1,170
284,81,122641,1,8,0:0:0:0:
151,84,122851,6,0,P|173:120|204:153,1,85,0|0,1:0|0:0,0:0:0:0:
368,71,123271,2,0,P|325:72|281:82,1,85
261,274,123690,2,0,P|281:236|294:193,1,85
284,81,124110,1,0,0:0:0:0:
187,302,124320,1,2,0:0:0:0:
209,337,124425,1,8,0:0:0:0:
238,369,124530,1,8,0:0:0:0:
199,215,124739,6,0,P|156:216|112:226,1,85,4|0,1:2|0:0,0:0:0:0:
102,37,125159,2,0,P|103:80|113:124,1,85
210,33,125578,2,0,P|196:73|190:118,1,85
199,215,125998,1,8,0:0:0:0:
326,269,126208,6,0,L|425:253,1,85,0|0,1:0|0:0,0:0:0:0:
433,176,126627,2,0,L|349:189,1,85
199,215,127047,1,0,0:0:0:0:
113,359,127257,1,0,0:0:0:0:
162,295,127467,1,0,0:0:0:0:
84,286,127676,1,8,0:0:0:0:
162,295,127886,2,2,P|200:293|220:289,1,42.5
130,214,128096,6,0,P|74:209|5:295,1,170,0|0,1:0|0:0,0:0:0:0:
218,226,128725,2,0,P|248:187|243:129,1,85
162,295,129145,2,0,P|180:340|233:365,1,85,0|8,0:0|0:0,0:0:0:0:
458,206,129564,6,0,P|405:202|364:210,1,85,0|0,1:0|0:0,0:0:0:0:
209,360,129984,2,0,P|262:364|303:356,1,85
317,158,130404,1,2,0:0:0:0:
307,176,130509,1,8,0:0:0:0:
301,196,130613,1,8,0:0:0:0:
326,267,130823,1,0,0:0:0:0:
369,98,131033,2,0,P|325:83|283:90,1,85,2|0,0:0|0:0,0:0:0:0:
199,124,131453,6,0,L|90:118,1,85,4|0,1:2|0:0,0:0:0:0:
114,119,131872,1,0,0:0:0:0:
114,119,132292,1,0,0:0:0:0:
68,188,132502,1,0,3:0:0:0:
199,124,132711,1,0,0:0:0:0:
77,46,132921,2,0,L|32:45,1,42.5,0|0,3:0|3:0,3:0:0:0:
114,119,133131,6,0,L|208:113,1,85,0|0,3:0|3:0,3:0:0:0:
277,77,133446,2,0,L|285:177,1,85,0|0,3:0|0:0,3:0:0:0:
360,192,133760,2,0,L|353:107,1,85,0|0,3:0|0:0,3:0:0:0:
344,0,134180,1,2,0:0:0:0:
277,77,134390,2,0,L|285:177,1,85,8|0,0:0|0:0,0:0:0:0:
388,352,134809,6,0,P|402:295|383:214,1,127.5,0|0,1:0|3:0,0:0:0:0:
360,192,135229,2,0,L|249:200,1,85,0|0,3:0|0:0,0:0:0:0:
136,226,135648,2,0,P|133:274|152:338,1,85,0|0,0:0|3:0,0:0:0:0:
281,179,136068,2,0,P|284:131|265:67,1,85,0|0,0:0|3:0,0:0:0:0:
100,150,136488,6,0,P|73:190|57:254,1,85,2|0,1:2|0:3,0:3:0:0:
140,309,136802,2,0,P|132:268|136:226,1,85,2|0,0:0|0:0,0:0:0:0:
208,267,137117,2,0,P|226:305|254:338,1,85,2|0,0:0|0:0,0:0:0:0:
365,358,137537,1,2,0:0:0:0:
281,179,137746,2,0,P|277:221|285:262,1,85,8|0,0:0|0:0,0:0:0:0:
512,202,138166,6,0,P|452:174|363:228,1,170,0|0,1:0|0:0,0:0:0:0:
353,123,138795,1,0,3:0:0:0:
410,295,139005,2,0,P|362:307|318:294,1,85,0|0,0:0|3:0,0:0:0:0:
219,169,139425,2,0,L|121:172,1,85,8|0,0:0|0:0,0:0:0:0:
119,248,139844,6,0,L|203:245,1,85,0|0,3:0|0:0,0:0:0:0:
279,230,140159,2,0,P|301:171|288:127,1,85,0|0,3:0|0:0,0:0:0:0:
245,90,140474,2,0,L|257:-9,1,85,0|0,3:0|0:0,0:0:0:0:
255,5,140788,1,8,0:0:0:0:
255,5,140893,1,8,1:2:0:0:
458,35,141103,2,0,L|359:23,1,85,10|0,0:0|0:0,0:0:0:0:
372,267,141523,6,0,P|349:209|368:119,1,127.5,0|0,1:0|0:0,0:0:0:0:
370,125,141942,2,0,L|469:113,1,85
456,248,142362,1,2,0:0:0:0:
340,347,142571,1,0,0:0:0:0:
316,194,142781,1,0,0:0:0:0:
316,194,142886,1,2,0:0:0:0:
316,194,142991,1,0,0:0:0:0:
372,267,143201,6,0,P|300:270|254:261,1,85,4|0,1:2|0:0,0:0:0:0:
181,207,143516,1,0,0:0:0:0:
181,207,143620,2,0,L|238:204,1,53.125,4|0,1:2|0:0,0:0:0:0:
212,280,143830,2,0,L|158:282,1,53.125,0|0,1:0|0:0,0:0:0:0:
99,227,144040,6,0,L|93:115,1,85,2|0,0:0|0:0,0:0:0:0:
168,35,144460,1,8,0:0:0:0:
168,35,144564,1,8,0:0:0:0:
168,35,144669,1,8,0:0:0:0:
168,35,144879,6,0,L|286:27,1,85,4|0,3:2|0:0,0:0:0:0:
323,79,145194,2,0,L|407:84,1,85,0|0,3:0|0:0,0:0:0:0:
464,145,145509,2,0,P|463:180|460:212,1,53.125,0|0,3:0|0:0,0:0:0:0:
303,243,145718,2,0,P|333:226|394:211,1,85,4|0,0:0|3:0,0:0:0:0:
463,348,146138,2,0,P|422:336|384:317,1,85,0|0,0:0|3:0,0:0:0:0:
244,188,146557,6,0,B|228:221|228:221|234:330,2,127.5,0|8|0,3:0|3:2|3:0,3:0:0:0:
316,323,147397,1,8,0:0:0:0:
146,297,147606,1,4,0:0:0:0:
166,166,147816,1,0,3:0:0:0:
218,381,148025,1,2,0:0:0:0:
62,305,148236,6,0,L|153:297,1,85,0|0,3:0|3:0,0:0:0:0:
244,188,148550,1,0,3:0:0:0:
251,210,148655,2,0,L|160:202,1,85,8|0,0:0|3:0,0:0:0:0:
75,105,148970,1,0,3:0:0:0:
68,127,149075,2,0,L|159:119,1,85,8|0,0:0|3:0,0:0:0:0:
416,60,149495,2,0,L|332:68,1,85,0|0,0:0|3:0,0:0:0:0:
381,150,149914,6,0,B|311:151|311:151|253:123,1,127.5,4|0,1:2|0:0,0:0:0:0:
235,106,150334,1,0,3:0:0:0:
442,107,150544,2,0,P|457:164|368:228,1,170,8|0,0:0|3:0,0:0:0:0:
205,292,151173,1,8,0:0:0:0:
205,292,151278,1,8,0:0:0:0:
205,292,151383,6,0,B|275:269|321:301|321:301|293:316|261:308,1,170,4|0,1:2|3:0,0:0:0:0:
253,200,152012,1,0,3:0:0:0:
386,258,152222,2,0,P|398:298|378:355,1,85,8|0,0:0|0:0,0:0:0:0:
205,292,152641,1,0,3:0:0:0:
142,183,152851,2,0,P|136:116|156:44,1,127.5,4|0,0:0|0:0,0:0:0:0:
163,37,153271,6,0,P|255:43|343:33,1,152.999995330811,4|0,0:0|3:0,0:0:0:0:
347,26,153690,1,8,0:0:0:0:
77,89,153900,2,0,P|161:126|214:137,1,101.999996887207,0|2,1:0|0:0,0:3:0:0:
317,152,154320,2,0,P|242:206|206:246,1,101.999996887207,0|8,1:0|0:0,0:0:0:0:
144,334,154739,6,0,P|133:242|117:191,1,101.999996887207,4|2,0:0|0:0,0:3:0:0:
37,161,155159,1,0,1:0:0:0:
65,327,155369,1,8,0:0:0:0:
213,311,155578,2,0,P|234:220|236:167,1,101.999996887207,0|2,1:0|0:0,0:3:0:0:
235,117,155998,1,0,1:0:0:0:
258,367,156208,2,0,P|308:289|329:240,1,101.999996887207,8|0,0:0|0:3,0:3:0:0:
289,47,156627,6,0,P|279:135|309:213,1,152.999995330811,0|0,1:0|3:0,0:0:0:0:
325,211,157047,1,10,0:0:0:0:
493,74,157257,2,0,P|433:67|359:131,1,152.999995330811,0|0,1:0|3:0,0:0:0:0:
353,145,157676,1,2,1:2:0:0:
402,384,157886,1,8,0:0:0:0:
402,384,158096,6,0,P|430:315|409:233,1,152.999995330811,4|0,1:2|3:0,0:0:0:0:
395,211,158516,2,0,L|275:218,1,101.999996887207,0|8,3:0|0:0,0:0:0:0:
111,96,158935,1,0,3:0:0:0:
85,213,159145,2,0,P|86:245|94:267,1,50.9999984436036,10|0,0:0|0:0,0:0:0:0:
154,317,159355,1,8,0:0:0:0:
180,197,159564,1,8,0:0:0:0:
111,96,159774,1,8,0:0:0:0:
111,96,159879,1,8,0:0:0:0:
111,96,159984,6,0,P|64:77|3:90,1,101.999996887207,4|2,0:0|0:0,0:0:0:0:
183,57,160404,1,8,0:0:0:0:
292,126,160613,2,0,L|400:115,1,101.999996887207,0|2,1:0|0:0,0:0:0:0:
455,269,161033,2,0,L|353:279,1,101.999996887207,0|8,1:0|0:0,0:0:0:0:
226,197,161453,6,0,P|249:258|231:355,1,152.999995330811,0|0,1:0|3:0,0:0:0:0:
215,356,161872,2,0,L|113:345,1,101.999996887207,0|8,1:0|0:0,0:0:0:0:
254,105,162292,2,0,L|153:116,1,101.999996887207,6|0,1:2|0:0,0:0:0:0:
326,260,162711,2,0,L|427:249,1,101.999996887207,6|8,1:2|0:0,0:0:0:0:
483,145,163131,1,2,0:0:0:0:
382,337,163341,6,0,L|280:347,1,101.999996887207,0|0,1:0|3:0,0:0:0:0:
142,238,163655,1,0,3:0:0:0:
130,261,163760,2,0,L|231:271,1,101.999996887207,8|2,0:0|0:0,0:0:0:0:
161,152,164180,1,2,1:2:0:0:
59,226,164390,1,0,1:0:0:0:
230,194,164599,2,0,P|241:157|241:138,1,50.9999984436036,8|0,0:0|0:0,0:0:0:0:
221,68,164809,6,0,L|103:77,1,101.999996887207,0|2,0:0|0:0,0:0:0:0:
59,226,165229,1,0,1:0:0:0:
275,127,165439,2,0,P|303:70|248:-4,1,152.999995330811,8|0,1:2|3:0,0:0:0:0:
230,194,165858,2,8,P|241:227|257:242,1,50.9999984436036
336,263,166068,1,8,0:0:0:0:
416,131,166278,1,8,3:2:0:0:
380,132,166383,1,8,3:2:0:0:
346,143,166488,1,8,3:2:0:0:
320,168,166592,1,8,3:2:0:0:
307,201,166697,6,0,P|317:254|272:306,1,101.999996887207,4|0,0:0|3:0,0:0:0:0:
228,330,167012,1,0,3:0:0:0:
228,330,167117,2,0,L|126:324,1,101.999996887207,8|0,0:0|1:0,0:0:0:0:
235,239,167537,1,2,0:0:0:0:
170,162,167746,2,0,P|162:112|174:50,1,101.999996887207,0|8,1:0|0:0,0:0:0:0:
334,129,168166,1,4,1:2:0:0:
389,214,168376,6,0,P|396:264|388:314,1,101.999996887207,2|0,0:0|3:0,0:0:0:0:
277,366,168795,1,8,0:0:0:0:
140,229,169005,2,0,L|301:220,1,152.999995330811,4|0,1:2|3:0,0:0:0:0:
323,218,169425,1,0,1:0:0:0:
76,183,169634,2,0,P|63:240|84:291,1,101.999996887207,8|2,0:0|0:0,0:0:0:0:
152,149,170054,6,0,P|107:110|9:131,1,152.999995330811,0|0,1:0|3:0,0:0:0:0:
2,140,170474,1,8,0:0:0:0:
216,200,170683,2,0,P|272:180|303:85,1,152.999995330811,0|0,1:0|3:0,0:3:0:0:
294,74,171103,1,0,1:0:0:0:
225,113,171313,1,8,0:0:0:0:
268,262,171523,6,0,L|383:249,1,101.999996887207,4|2,0:0|0:0,0:0:0:0:
331,360,171942,2,0,L|229:371,1,101.999996887207,4|2,2:0|2:3,2:3:0:0:
74,205,172362,2,0,P|136:203|215:142,1,152.999995330811,0|0,1:0|3:0,0:0:0:0:
225,113,172781,2,0,L|217:10,1,101.999996887207,0|8,1:0|0:0,0:0:0:0:
278,268,173201,1,0,1:0:0:0:
278,268,173306,1,0,1:0:0:0:
278,268,173411,6,0,L|446:259,1,152.999995330811,4|0,0:0|3:0,0:0:0:0:
461,257,173830,1,8,0:0:0:0:
372,104,174040,2,0,P|308:97|234:160,1,152.999995330811,0|0,1:0|3:0,0:0:0:0:
233,171,174460,2,0,L|246:274,1,101.999996887207,0|8,1:0|0:0,0:0:0:0:
257,40,174879,6,0,P|203:73|161:152,1,152.999995330811,4|0,0:0|3:0,0:0:0:0:
159,180,175299,1,0,1:0:0:0:
245,272,175509,1,8,0:0:0:0:
317,107,175718,1,0,1:0:0:0:
223,291,175928,1,2,0:0:0:0:
412,288,176138,1,0,1:0:0:0:
243,142,176348,1,8,0:0:0:0:
274,383,176557,1,0,1:0:0:0:
491,229,176767,6,0,P|428:198|329:233,1,152.999995330811,4|0,0:0|3:0,0:0:0:0:
333,233,177187,1,8,0:0:0:0:
412,288,177397,1,0,1:0:0:0:
405,79,177606,1,0,1:0:0:0:
335,206,177816,1,2,0:0:0:0:
226,44,178026,1,10,0:0:0:0:
200,237,178236,6,0,P|227:299|357:350,1,203.999993774414,4|0,1:2|3:0,0:0:0:0:
358,105,178865,2,0,P|331:43|276:10,1,101.999996887207,8|0,0:0|0:0,0:0:0:0:
102,174,179285,2,8,P|169:181|191:174,1,50.9999984436036
227,184,179495,1,8,0:0:0:0:
51,107,179704,1,8,3:2:0:0:
27,140,179809,1,8,3:2:0:0:
20,180,179914,1,8,3:2:0:0:
32,218,180019,1,8,3:2:0:0:
60,247,180124,6,0,B|125:270|165:223|165:223|214:285|309:288|382:171|288:62|209:90|177:126|175:153|175:153|208:157|231:189,1,552.5,2|0,0:0|0:0,0:0:0:0:
252,331,183061,1,0,0:0:0:0:
252,331,183271,1,0,0:0:0:0:
252,331,183481,6,0,P|310:310|153:58,1,510
98,130,186208,1,0,0:0:0:0:
98,130,186313,1,0,0:0:0:0:
98,130,186418,2,0,L|154:123,1,42.5
178,285,186837,6,0,L|135:290,1,42.5
64,298,187257,1,0,0:0:0:0:
231,230,187467,2,0,L|247:190,1,42.5
249,307,187886,1,0,0:0:0:0:
249,307,187991,1,0,0:0:0:0:
249,307,188096,2,0,L|274:340,1,42.5
410,263,188516,5,0,0:0:0:0:
408,334,188725,1,0,0:0:0:0:
472,302,188935,2,0,L|486:251,1,42.5
408,334,189355,2,0,L|445:371,1,42.5
410,263,189669,1,0,0:0:0:0:
410,263,189774,1,0,0:0:0:0:
345,366,189984,1,0,0:0:0:0:
479,236,190194,5,0,0:0:0:0:
479,236,190823,5,0,0:0:0:0:
421,118,191033,1,0,0:0:0:0:
355,223,191243,1,0,0:0:0:0:
355,223,191348,1,0,0:0:0:0:
355,223,191453,1,0,0:0:0:0:
479,236,191662,5,4,0:0:0:0:
256,192,191767,12,0,193131,0:0:0:0:
359,76,193341,5,0,0:0:0:0:
359,76,193446,1,0,0:0:0:0:
359,76,193550,2,0,L|257:72,1,85,4|0,0:0|0:0,0:0:0:0:
190,61,193970,1,0,0:0:0:0:
0,183,194180,2,0,P|44:188|102:179,1,85,8|0,0:0|0:0,0:0:0:0:
190,61,194599,2,0,P|163:96|142:151,1,85,0|0,1:0|0:0,0:0:0:0:
238,303,195019,6,0,P|220:262|150:198,1,127.5,0|0,1:0|0:0,0:3:0:0:
133,189,195439,2,0,P|136:264|123:304,1,85,0|0,1:0|0:0,0:0:0:0:
32,372,195858,2,0,P|29:297|42:257,1,85,0|0,1:0|0:0,0:0:0:0:
62,219,196173,1,0,0:0:0:0:
60,185,196278,1,0,1:0:0:0:
58,151,196383,1,0,0:0:0:0:
57,116,196488,2,0,L|63:23,1,85,0|0,0:0|1:0,0:0:0:0:
305,98,196907,6,0,L|129:96,1,170,4|0,0:0|0:0,0:0:0:0:
375,124,197537,2,0,L|381:31,1,85,8|0,0:0|0:0,0:0:0:0:
320,185,197956,1,0,1:0:0:0:
482,211,198166,1,0,0:0:0:0:
457,60,198376,6,0,L|451:144,1,85,0|0,1:0|0:0,0:0:0:0:
240,165,198795,2,0,L|245:249,1,85,0|0,1:0|0:0,0:0:0:0:
482,211,199215,2,0,P|431:200|380:207,1,85,0|0,1:0|0:0,0:0:0:0:
194,339,199634,1,2,0:0:0:0:
194,339,199739,1,2,0:0:0:0:
194,339,199844,2,0,L|247:340,1,42.5
283,166,200054,2,0,L|240:165,1,42.5,8|0,0:0|0:0,0:0:0:0:
179,236,200264,6,0,P|129:249|72:229,1,85,4|0,1:2|0:0,0:0:0:0:
134,161,200578,2,0,P|147:111|215:65,1,101.999996887207,8|0,1:2|0:0,0:0:0:0:
350,115,200893,2,0,P|300:128|226:92,1,101.999996887207,0|0,1:0|0:0,0:0:0:0:
242,38,201208,2,0,L|133:37,1,85,2|0,0:0|0:0,0:0:0:0:
92,76,201523,1,2,0:0:0:0:
92,76,201627,1,0,0:0:0:0:
92,76,201732,6,0,P|85:170|96:217,1,127.5,8|0,0:0|0:0,0:0:0:0:
104,223,202152,2,0,L|194:218,2,85,0|0|0,3:0|0:0|0:0,0:0:0:0:
235,315,202991,5,8,0:0:0:0:
235,315,203096,1,8,0:0:0:0:
235,315,203201,2,0,L|304:308,1,42.5,8|0,0:0|0:0,0:0:0:0:
418,341,203411,2,0,L|375:336,1,42.5,0|0,3:0|0:0,0:0:0:0:
308,374,203620,6,0,P|303:283|325:178,1,170,4|0,0:0|0:0,0:0:0:0:
458,117,204250,2,0,P|381:166|365:171,1,85,0|0,1:0|0:3,0:3:0:0:
234,120,204669,2,0,L|333:127,1,85,0|0,1:0|0:0,0:0:0:0:
410,256,205089,6,0,L|417:340,1,85,4|0,1:2|0:0,0:0:0:0:
168,261,205509,2,0,L|159:160,1,85,0|0,1:0|0:0,0:0:0:0:
337,275,205928,5,8,0:0:0:0:
340,317,206032,1,8,0:0:0:0:
344,359,206137,1,8,0:0:0:0:
98,281,206348,2,0,L|89:180,2,85,0|0|0,3:0|3:0|3:0,3:0:0:0:
184,142,206977,6,0,P|183:94|192:39,1,85,4|2,0:0|0:0,0:0:0:0:
187,57,207292,1,0,0:0:0:0:
187,57,207397,1,0,0:0:0:0:
287,135,207606,2,0,P|310:92|345:49,1,85,2|0,0:0|0:0,0:0:0:0:
360,200,208026,2,0,P|401:175|453:155,1,85,2|0,3:2|0:0,0:0:0:0:
377,291,208446,1,0,3:0:0:0:
435,219,208655,5,0,0:0:0:0:
399,203,208760,1,2,0:0:0:0:
360,200,208865,1,0,0:0:0:0:
324,214,208970,1,0,3:0:0:0:
291,233,209075,1,0,0:0:0:0:
254,244,209180,1,2,0:0:0:0:
215,247,209285,1,0,3:0:0:0:
178,234,209390,1,2,0:0:0:0:
152,205,209495,5,0,0:0:0:0:
156,43,209704,1,0,0:0:0:0:
235,160,209914,1,8,0:0:0:0:
173,316,210124,1,0,0:0:0:0:
48,164,210334,6,0,P|87:133|163:129,1,127.5,4|0,0:0|3:0,0:0:0:0:
189,102,210753,1,0,0:0:0:0:
224,87,210858,1,0,0:0:0:0:
262,88,210963,2,0,P|290:112|309:165,1,85,2|0,0:0|0:0,0:0:0:0:
250,244,211383,1,0,0:0:0:0:
379,91,211592,1,0,0:0:0:0:
379,91,211802,6,0,P|391:125|381:181,1,85,0|2,3:0|0:0,3:0:0:0:
250,244,212222,2,0,L|202:243,1,42.5
305,301,212432,1,2,0:0:0:0:
305,301,212537,1,2,0:0:0:0:
305,301,212641,2,0,L|344:385,1,85,2|0,0:0|0:0,0:0:0:0:
323,222,213061,1,0,0:0:0:0:
146,314,213271,2,0,P|200:321|250:315,1,85,8|0,0:0|0:0,0:0:0:0:
253,106,213690,6,0,P|228:134|221:161,1,63.7500024318696,4|0,1:2|0:0,0:0:0:0:
323,222,214005,2,0,P|311:186|291:166,1,63.7500024318696,0|0,1:0|0:0,0:0:0:0:
210,236,214320,6,0,L|254:229,1,31.8750012159348,4|0,1:2|0:0,0:0:0:0:
394,282,214530,6,0,P|406:226|399:182,1,85,2|0,0:0|0:0,0:0:0:0:
278,107,214844,2,0,P|320:145|362:161,1,85,2|0,3:2|0:0,0:0:0:0:
447,103,215159,6,0,P|428:112|411:125,1,42.5,4|0,3:2|0:0,0:0:0:0:
484,280,215369,6,0,L|478:177,1,101.999996887207
374,199,215683,6,0,L|394:282,1,85,0|0,0:0|0:0,0:3:0:0:
314,312,215998,6,0,L|290:255,1,34
137,220,216208,6,0,P|133:289|162:362,1,127.5
164,358,216627,2,0,L|279:348,1,85
314,312,216942,1,0,0:0:0:0:
314,312,217047,2,0,L|487:324,1,170,0|0,1:0|0:0,0:0:0:0:
401,234,217676,2,0,L|309:228,1,85,0|0,3:0|0:0,0:0:0:0:
157,96,218096,2,0,P|201:90|249:99,1,85,0|0,3:0|0:0,0:0:0:0:
319,145,218516,5,4,0:0:0:0:
256,192,218620,12,0,221243,0:0:0:0:
166,164,222082,6,0,L|88:165,1,63.7500024318696,2|0,0:0|0:0,0:0:0:0:
25,162,222502,1,0,0:0:0:0:
130,252,222711,2,0,P|129:295|122:325,1,63.7500024318696,2|0,0:0|0:0,0:0:0:0:
224,308,223131,2,0,P|201:344|180:367,1,63.7500024318696,2|0,0:3|0:3,0:3:0:0:
52,357,223550,1,0,0:0:0:0:
209,163,223760,6,0,L|208:240,1,63.7500024318696,2|0,0:0|0:0,0:0:0:0:
316,306,224180,2,0,L|316:242,1,63.7500024318696,2|0,0:0|0:0,0:0:0:0:
288,160,224599,1,0,0:0:0:0:
373,167,224809,1,0,0:0:0:0:
398,253,225019,2,0,L|397:316,1,63.7500024318696
225,204,225439,6,0,P|212:157|267:86,1,127.500004863739,2|0,0:0|0:0,0:0:0:0:
415,157,226068,2,0,L|282:160,1,127.500004863739,2|0,0:0|0:0,0:0:0:0:
289,360,226697,1,0,0:0:0:0:
289,360,226907,6,0,P|305:296|284:223,1,127.500004863739,2|0,0:0|0:0,0:0:0:0:
106,222,227537,2,0,P|143:216|175:202,1,63.7500024318696
205,73,227956,2,0,P|191:108|187:142,1,63.7500024318696,0|0,0:3|0:3,0:3:0:0:
291,237,228376,2,0,P|267:207|239:187,1,63.7500024318696,0|0,0:3|0:3,0:3:0:0:
203,270,228795,6,0,P|237:308|329:320,1,127.500004863739,2|0,0:0|0:0,0:0:0:0:
392,173,229425,2,0,P|342:183|285:257,1,127.500004863739,2|0,0:0|0:0,0:0:0:0:
391,384,230054,1,0,0:0:0:0:
391,384,230264,6,0,P|406:335|371:249,1,127.500004863739,2|0,0:0|0:0,0:0:0:0:
285,118,231103,2,0,L|215:123,1,63.7500024318696,2|0,0:0|0:0,0:0:0:0:
225,197,231523,2,0,L|289:193,1,63.7500024318696,2|0,0:0|0:0,0:0:0:0:
357,153,231942,1,0,0:0:0:0:
213,83,232152,6,0,P|204:125|218:189,1,95.6250036478044,2|0,0:0|0:0,0:0:0:0:
225,197,232571,2,0,L|289:193,1,63.7500024318696,2|0,0:0|0:0,0:0:0:0:
440,338,233201,2,0,L|376:333,1,63.7500024318696,2|0,0:0|0:0,0:0:0:0:
306,322,233620,6,0,P|256:339|158:340,1,127.500004863739,2|0,0:0|0:0,0:0:0:0:
74,258,234250,2,0,L|151:252,1,63.7500024318696
240,154,234669,2,0,L|163:148,1,63.7500024318696
58,43,235089,2,0,L|135:37,1,63.7500024318696
242,27,235509,6,0,P|307:56|381:47,1,127.500004863739,4|0,0:1|0:0,0:0:0:0:
491,184,236138,2,0,P|426:155|352:164,1,127.500004863739,2|0,0:0|0:0,0:0:0:0:
310,206,236767,1,0,0:0:0:0:
271,276,236977,6,0,B|234:231|234:231|237:82,1,191.250007295609,2|0,0:0|0:0,0:0:0:0:
326,110,237816,2,0,P|323:56|259:7,1,127.500004863739,2|0,0:0|0:0,0:0:0:0:
127,34,238446,2,2,L|196:27,1,63.7500024318696
310,206,238865,6,0,P|358:230|432:199,1,127.500004863739,2|0,0:0|0:3,0:3:0:0:
240,148,239495,2,0,P|194:177|184:257,1,127.500004863739,2|0,0:0|0:0,0:0:0:0:
281,340,240124,1,0,0:0:0:0:
256,127,240334,6,0,L|113:131,1,127.500004863739,2|0,0:0|0:0,0:0:0:0:
170,309,240963,2,0,L|180:243,1,63.7500024318696
80,295,241383,2,0,L|90:360,1,63.7500024318696
247,255,241802,1,0,0:0:0:0:
164,215,242012,1,0,0:0:0:0:
170,309,242222,6,0,P|233:346|325:317,1,170,4|0,0:0|0:0,0:0:0:0:
397,166,242851,2,0,P|334:129|242:158,1,170,2|0,0:0|0:0,0:0:0:0:
157,107,243481,1,0,0:0:0:0:
78,177,243690,6,0,L|86:362,1,170,2|0,3:2|0:0,0:0:0:0:
251,294,244320,2,0,P|201:294|162:314,1,85
353,363,244739,2,0,P|403:363|442:343,1,85
509,198,245159,2,0,P|467:192|431:169,1,85,8|0,0:0|0:3,0:3:0:0:
378,33,245578,5,4,0:0:0:0:
431,169,245788,1,0,0:0:0:0:
296,63,245998,1,0,0:0:0:0:
466,64,246208,2,0,L|287:63,1,170,4|0,0:0|0:0,0:0:0:0:
237,144,246837,1,0,0:0:0:0:
322,344,247047,6,0,P|344:276|326:169,1,170,4|8,0:0|0:0,0:0:0:0:
105,157,247676,1,8,0:0:0:0:
105,157,247886,2,8,P|99:114|106:73,1,85
180,201,248306,2,2,P|180:241|173:263,1,42.5
0,308,248516,6,0,P|27:254|99:243,1,127.5,12|0,0:0|0:0,0:0:0:0:
105,246,248935,6,0,P|155:285|248:264,1,152.999995330811,4|0,0:0|3:0,0:0:0:0:
261,245,249355,1,8,0:0:0:0:
364,143,249564,2,0,L|254:149,1,101.999996887207,0|2,1:0|0:0,0:0:0:0:
351,50,249984,1,0,1:0:0:0:
354,238,250194,1,8,0:0:0:0:
183,169,250404,6,0,P|201:87|283:69,1,152.999995330811,4|0,0:0|3:0,0:0:0:0:
288,66,250823,1,0,1:0:0:0:
415,141,251033,1,8,0:0:0:0:
262,139,251243,2,0,L|443:142,1,152.999995330811,0|0,1:0|3:0,0:0:0:0:
444,131,251662,2,0,L|442:237,1,101.999996887207,0|8,1:0|0:0,0:0:0:0:
365,307,252082,1,2,0:0:0:0:
226,317,252292,6,0,P|141:311|78:348,1,152.999995330811,0|0,1:0|3:0,0:0:0:0:
70,365,252711,1,8,0:0:0:0:
156,237,252921,2,0,P|159:143|134:63,1,152.999995330811,0|0,1:0|3:0,0:0:0:0:
132,60,253341,2,0,L|23:66,1,101.999996887207,0|8,1:0|0:0,0:0:0:0:
226,317,253760,6,0,P|253:226|249:143,1,152.999995330811,4|0,1:2|3:0,0:0:0:0:
248,138,254180,2,0,P|241:73|250:15,1,101.999996887207,0|8,3:0|0:0,0:0:0:0:
464,191,254599,1,0,3:0:0:0:
356,156,254809,1,8,0:0:0:0:
351,196,254914,1,8,0:0:0:0:
356,236,255019,1,8,0:0:0:0:
430,106,255229,1,8,3:2:0:0:
397,80,255334,1,8,3:2:0:0:
356,71,255439,1,8,3:2:0:0:
316,79,255544,1,8,3:2:0:0:
284,103,255648,6,0,P|271:156|281:227,1,101.999996887207,4|0,0:0|3:0,0:0:0:0:
287,289,255963,1,0,3:0:0:0:
287,289,256068,2,0,L|162:297,1,101.999996887207,8|0,0:0|1:0,0:0:0:0:
84,297,256488,1,2,0:0:0:0:
133,103,256697,2,0,L|139:226,1,101.999996887207,0|8,1:0|0:0,0:0:0:0:
194,38,257117,6,0,P|139:16|58:62,1,152.999995330811,4|0,0:0|3:0,0:0:0:0:
52,87,257537,2,0,L|58:210,1,101.999996887207,0|8,1:0|0:0,0:0:0:0:
243,339,257956,2,0,L|248:238,1,101.999996887207,0|2,1:0|0:0,0:0:0:0:
407,85,258376,2,0,L|402:186,1,101.999996887207,0|8,1:0|0:0,0:0:0:0:
178,194,258795,1,2,0:0:0:0:
178,194,259005,6,0,P|210:164|314:189,1,152.999995330811,4|0,0:0|3:0,0:0:0:0:
325,202,259425,1,8,0:0:0:0:
74,107,259634,2,0,P|49:186|87:303,1,203.999993774414,0|0,1:0|1:0,0:0:0:0:
183,340,260264,1,8,0:0:0:0:
393,147,260474,6,0,B|349:120|349:120|228:126,1,170,4|0,0:0|0:0,0:0:0:0:
259,295,261103,6,0,B|302:321|302:321|410:315,1,152.999995330811,12|0,0:0|3:0,0:0:0:0:
489,255,261523,2,8,P|495:230|494:205,1,50.9999984436036
401,215,261732,2,0,P|394:190|380:169,1,50.9999984436036,8|0,0:0|0:0,0:0:0:0:
138,90,261942,2,8,P|116:102|99:120,1,50.9999984436036,8|8,3:2|3:2,3:2:0:0:
162,172,262152,2,8,P|150:194|144:218,1,50.9999984436036,8|8,3:2|3:2,3:2:0:0:
224,217,262362,6,0,P|258:170|228:68,1,152.999995330811,4|0,0:0|3:0,0:0:0:0:
220,65,262781,1,8,0:0:0:0:
335,118,262991,2,0,P|328:54|335:-4,1,101.999996887207,0|2,1:0|0:0,0:0:0:0:
467,171,263411,2,0,P|474:235|467:293,1,101.999996887207,0|8,1:0|0:0,0:0:0:0:
185,368,263830,6,0,L|286:361,1,101.999996887207,4|2,0:0|0:0,0:0:0:0:
216,188,264250,1,0,1:0:0:0:
335,118,264460,1,8,0:0:0:0:
335,118,264669,2,0,P|343:197|321:302,1,152.999995330811,0|0,1:0|3:0,0:0:0:0:
313,289,265089,2,0,L|211:282,1,101.999996887207,0|8,1:0|0:0,0:0:0:0:
234,89,265509,1,2,0:0:0:0:
129,233,265718,6,0,P|119:166|132:54,1,152.999995330811,0|0,1:0|3:0,0:0:0:0:
137,55,266138,1,8,0:0:0:0:
335,118,266348,2,0,P|345:185|332:297,1,152.999995330811,0|0,1:0|0:3,0:0:0:0:
327,298,266767,2,0,L|439:292,1,101.999996887207,0|8,1:0|0:0,0:0:0:0:
214,359,267187,6,0,L|102:353,1,101.999996887207,4|2,0:0|0:0,0:0:0:0:
84,146,267606,2,0,L|196:152,1,101.999996887207,4|8,0:0|0:0,0:0:0:0:
292,64,268026,2,0,L|461:58,1,152.999995330811,0|0,1:0|3:0,0:0:0:0:
477,55,268446,2,0,P|475:111|464:163,1,101.999996887207,0|8,1:0|0:0,0:0:0:0:
393,202,268865,2,0,P|368:207|342:207,1,50.9999984436036,2|0,0:0|0:0,0:0:0:0:
467,243,269075,6,0,P|462:313|397:387,1,152.999995330811,4|0,0:0|3:0,0:0:0:0:
380,382,269495,1,8,0:0:0:0:
281,313,269704,2,0,P|234:253|227:178,1,152.999995330811,0|0,1:0|3:0,0:0:0:0:
237,149,270124,2,0,L|117:152,1,101.999996887207,0|8,1:0|0:0,0:0:0:0:
42,85,270544,6,0,P|27:132|56:242,1,152.999995330811,4|0,0:0|3:0,0:0:0:0:
71,248,270963,1,0,1:0:0:0:
256,73,271173,1,8,0:0:0:0:
199,248,271383,1,0,1:0:0:0:
152,111,271592,1,2,0:0:0:0:
360,111,271802,1,0,1:0:0:0:
313,248,272012,1,8,0:0:0:0:
256,159,272222,1,0,1:0:0:0:
463,107,272432,6,0,P|479:181|457:254,1,152.999995330811,4|0,0:0|3:0,0:0:0:0:
432,272,272851,1,8,0:0:0:0:
411,17,273061,2,0,P|466:8|533:27,1,101.999996887207,0|10,1:0|0:0,0:0:0:0:
360,111,273481,1,0,1:0:0:0:
239,30,273690,1,8,0:0:0:0:
262,159,273900,6,0,P|218:159|137:119,1,101.999996887207,4|0,0:0|3:0,0:0:0:0:
239,30,274320,1,0,1:0:0:0:
90,186,274530,2,0,L|94:313,1,101.999996887207,8|0,0:0|1:0,0:0:0:0:
234,248,274949,2,8,L|297:240,2,50.9999984436036
299,311,275369,2,8,L|362:315,1,50.9999984436036,8|8,3:2|3:2,3:2:0:0:
498,253,275578,2,8,L|435:257,1,50.9999984436036,8|8,3:2|3:2,3:2:0:0:
366,375,275788,6,0,P|377:297|362:215,1,127.5,4|0,1:2|3:0,0:0:0:0:
357,226,276208,1,8,0:0:0:0:
87,342,276418,2,0,L|250:330,1,127.5,0|0,1:0|0:0,0:0:0:0:
299,311,276837,2,0,P|299:265|292:243,1,42.5,4|0,1:2|0:0,0:0:0:0:
191,111,277047,2,0,P|191:157|198:179,1,42.5,8|0,0:0|0:0,0:0:0:0:
266,190,277257,6,0,P|320:137|399:132,1,127.5,4|0,1:2|3:0,0:0:0:0:
403,133,277676,2,0,L|395:17,1,85,0|8,1:0|0:0,0:0:0:0:
140,42,278096,2,0,P|109:81|128:173,1,127.5,0|0,1:0|3:0,0:0:0:0:
131,181,278516,2,0,L|181:175,1,42.5,4|0,1:2|0:0,0:0:0:0:
62,246,278725,2,0,L|12:240,1,42.5,8|0,0:0|0:0,0:0:0:0:
148,278,278935,2,0,L|153:320,1,42.5,4|0,1:2|0:0,0:0:0:0:
240,346,279145,6,0,L|218:186,1,127.5,0|0,1:0|3:0,0:0:0:0:
217,189,279564,1,8,0:0:0:0:
292,170,279774,2,0,L|308:7,1,127.5,0|0,1:0|3:0,0:0:0:0:
310,14,280194,2,0,P|334:8|353:7,1,42.5,4|0,1:2|0:0,0:0:0:0:
414,71,280404,2,0,P|390:77|371:78,1,42.5,8|0,0:0|0:0,0:0:0:0:
464,11,280613,6,0,B|486:45|486:45|482:145,1,127.5,4|0,1:2|3:0,0:0:0:0:
466,153,281033,2,0,L|469:268,1,85,0|8,1:0|0:0,0:0:0:0:
389,326,281453,2,0,P|436:316|507:341,1,85,4|0,0:0|0:0,0:0:0:0:
325,258,281767,5,2,0:0:0:0:
314,245,281872,2,8,L|322:193,1,42.5
297,347,282082,2,0,L|179:348,1,85,8|0,0:0|0:0,0:0:0:0:
146,317,282397,1,0,3:0:0:0:
146,317,282502,6,0,P|131:236|145:170,1,127.5,0|0,1:0|3:0,0:0:0:0:
151,166,282921,1,8,0:0:0:0:
50,258,283131,2,0,P|56:175|87:115,1,127.5,0|0,1:0|3:0,0:0:0:0:
99,114,283550,2,0,L|104:58,1,42.5,4|0,1:2|0:0,0:0:0:0:
177,87,283760,2,0,L|201:36,1,42.5,8|0,0:0|0:0,0:0:0:0:
377,152,283970,6,0,L|243:150,1,127.5,4|0,1:2|3:0,0:0:0:0:
225,152,284390,2,0,L|230:240,1,85,0|8,1:0|0:0,0:0:0:0:
440,92,284809,2,0,P|459:165|435:217,1,127.5,0|0,1:0|3:0,0:0:0:0:
419,226,285229,2,0,P|383:235|363:233,1,42.5,4|0,1:2|0:0,0:0:0:0:
286,302,285439,2,0,P|296:266|307:250,1,42.5,8|0,0:0|0:0,0:0:0:0:
285,149,285648,2,0,P|310:175|319:193,1,42.5,4|0,1:2|0:3,0:3:0:0:
356,306,285858,6,0,L|214:304,1,127.5,0|0,1:0|3:0,0:0:0:0:
195,300,286278,1,8,0:0:0:0:
59,139,286488,2,0,P|127:140|213:108,1,127.5,0|0,1:0|3:0,0:0:0:0:
203,104,286907,2,0,L|191:54,1,42.5,4|0,1:2|0:0,0:0:0:0:
285,149,287117,2,0,L|275:190,1,42.5,8|0,0:0|0:0,0:0:0:0:
287,57,287327,6,0,L|412:48,1,85,4|0,1:2|0:0,0:0:0:0:
424,179,287746,1,0,1:0:0:0:
458,256,287956,2,0,P|382:251|335:181,1,127.5,8|0,0:0|3:0,0:0:0:0:
254,342,288376,6,8,L|316:326,2,42.5
159,383,288795,2,8,L|171:343,1,42.5,8|8,3:2|3:2,3:2:0:0:
185,235,289005,2,8,L|215:266,1,42.5,8|8,3:2|3:2,3:2:0:0:
83,277,289215,6,0,P|92:180|133:137,1,127.5,4|0,1:2|3:0,0:0:0:0:
133,149,289634,1,8,0:0:0:0:
271,155,289844,2,0,L|406:154,1,127.5,0|0,1:0|3:0,0:0:0:0:
431,145,290264,2,0,L|427:215,1,42.5,4|0,1:2|0:0,0:0:0:0:
366,286,290474,2,0,L|368:243,1,42.5,8|0,0:0|0:0,0:0:0:0:
386,77,290683,6,0,L|259:78,1,127.5,4|0,1:2|3:0,0:0:0:0:
230,75,291103,2,0,P|194:117|190:175,1,85,0|8,1:0|0:0,0:0:0:0:
213,367,291523,2,0,P|235:296|225:224,1,127.5,0|0,1:0|3:0,0:0:0:0:
220,221,291942,2,0,L|165:223,1,42.5,4|0,1:2|0:0,0:0:0:0:
82,302,292152,2,0,L|107:253,1,42.5,8|0,0:0|0:0,0:0:0:0:
82,137,292362,2,0,L|111:183,1,42.5,4|0,1:2|0:0,0:0:0:0:
130,86,292571,6,0,L|12:82,1,85,0|0,1:0|0:0,0:0:0:0:
194,13,292991,1,8,0:0:0:0:
225,109,293201,2,0,L|372:100,1,127.5,0|0,1:0|3:0,0:0:0:0:
378,100,293620,2,0,L|374:52,1,42.5,4|0,1:2|0:0,0:0:0:0:
426,172,293830,2,8,L|469:192,1,42.5
396,269,294040,6,8,L|318:224,1,85,4|2,1:2|0:0,0:0:0:0:
238,231,294460,1,0,1:0:0:0:
273,384,294669,1,8,0:0:0:0:
273,384,294879,2,0,P|286:326|275:286,1,85,0|0,1:0|0:0,0:0:0:0:
238,231,295194,5,8,0:0:0:0:
238,231,295299,2,0,L|176:236,1,42.5,8|0,0:0|0:0,0:0:0:0:
112,287,295509,1,8,3:2:0:0:
112,287,295613,1,8,3:2:0:0:
112,287,295718,1,8,3:2:0:0:
112,287,295823,1,8,3:2:0:0:
112,287,295928,6,0,P|101:224|146:147,1,127.5,0|0,1:0|3:0,0:0:0:0:
147,151,296348,1,8,0:0:0:0:
238,231,296557,2,0,P|319:235|380:209,1,127.5,0|0,1:0|3:0,0:0:0:0:
385,205,296977,2,0,P|400:185|409:154,1,42.5,4|0,1:2|0:0,0:0:0:0:
355,298,297187,2,0,P|364:320|387:344,1,42.5,8|0,0:0|0:0,0:0:0:0:
505,278,297397,6,0,P|455:270|407:301,1,85,4|2,1:2|0:0,0:0:0:0:
472,360,297816,1,0,1:0:0:0:
469,121,298026,1,8,0:0:0:0:
469,121,298236,2,0,L|362:123,1,85,0|2,1:0|0:0,0:0:0:0:
215,196,298655,2,0,L|108:198,1,85,0|8,1:0|0:0,0:0:0:0:
60,117,299075,1,2,0:0:0:0:
279,112,299285,6,0,P|309:199|268:299,1,170,4|8,0:0|0:0,0:0:0:0:
189,300,299914,2,0,L|82:302,1,85,0|8,1:0|0:0,0:0:0:0:
338,237,300334,2,0,L|445:239,1,85,0|8,1:0|0:0,0:0:0:0:
362,68,300753,6,0,P|294:25|195:70,1,170,4|0,0:0|1:0,0:0:0:0:
139,204,301383,1,8,0:0:0:0:
276,137,301592,1,0,1:0:0:0:
65,177,301802,1,8,0:0:0:0:
56,200,301907,1,8,0:0:0:0:
60,225,302012,2,0,P|77:260|107:281,1,42.5,8|0,0:0|0:0,0:0:0:0:
238,268,302222,1,8,3:2:0:0:
195,270,302327,1,8,3:2:0:0:
160,295,302432,1,8,3:2:0:0:
150,336,302537,1,8,3:2:0:0:
155,373,302641,5,2,0:0:0:0:
274,291,302851,1,0,0:0:0:0:
137,228,303061,1,0,0:0:0:0:
219,341,303271,2,0,P|247:360|297:359,2,63.7500024318696,2|0|0,0:0|0:0|0:0,0:0:0:0:
254,217,303900,5,2,0:0:0:0:
348,306,304110,1,0,0:0:0:0:
219,341,304320,1,0,0:0:0:0:
347,228,304530,2,0,P|378:232|404:250,2,63.7500024318696,2|0|0,0:0|0:0|0:0,0:0:0:0:
423,325,305159,5,2,0:0:0:0:
464,216,305369,1,0,0:0:0:0:
347,228,305578,1,0,0:0:0:0:
452,329,305788,2,0,P|483:324|509:306,2,63.7500024318696,2|0|0,0:0|0:0|0:0,0:0:0:0:
393,328,306418,5,2,0:0:0:0:
394,205,306628,1,0,0:0:0:0:
279,269,306838,1,0,0:0:0:0:
427,268,307047,5,2,0:0:0:0:
326,216,307257,1,0,0:0:0:0:
322,327,307467,1,0,0:0:0:0:
384,232,307676,5,2,0:0:0:0:
316,267,307886,1,0,0:0:0:0:
379,310,308096,1,0,0:0:0:0:
442,269,308306,6,0,B|481:248|502:209|502:209|463:190|416:193|416:193|410:153|377:121|377:121|348:155|340:194|340:194|297:192|258:213|258:213|278:252|315:267|315:267|294:310|303:355|303:355|345:345|377:309|377:309|412:350|454:357|454:357|461:314|449:284,1,850,2|0,0:0|0:0,0:0:0:0:
